osu file format v14

[General]
AudioFilename: Marciano descubierto! 100% real no fake 1 link megaupload 2014 oficial.mp3
AudioLeadIn: 0
PreviewTime: 543
Countdown: 0
SampleSet: Normal
StackLeniency: 0.7
Mode: 1
LetterboxInBreaks: 0
WidescreenStoryboard: 0

[Editor]
DistanceSpacing: 1
BeatDivisor: 16
GridSize: 8
TimelineZoom: 1.16

[Metadata]
Title:El marcianito 100% real no fake
TitleUnicode:El marcianito 100% real no fake
Artist:tu gfa
ArtistUnicode:tu gfa
Creator:Julio1212-
Version:Especial 1000 subcriptores
Source:
Tags:julio1212
BeatmapID:835707
BeatmapSetID:381741

[Difficulty]
HPDrainRate:6
CircleSize:5
OverallDifficulty:5
ApproachRate:6
SliderMultiplier:1.4
SliderTickRate:1

[Events]
//Background and Video events
Video,0,"Marciano descubierto! 100% real no fake 1 link megaupload 2014 oficial.mp4"
0,0,"hjoklhjkl.png",0,0
//Break Periods
//Storyboard Layer 0 (Background)
//Storyboard Layer 1 (Fail)
//Storyboard Layer 2 (Pass)
//Storyboard Layer 3 (Foreground)
//Storyboard Sound Samples

[TimingPoints]
257,573.284922606535,4,1,0,80,1,0
507,-66.6666666666667,4,1,0,80,0,0

[HitObjects]
264,168,543,5,0,0:0:0:0:
264,168,615,1,0,0:0:0:0:
264,168,687,1,0,0:0:0:0:
272,160,830,1,6,0:0:0:0:
280,176,1260,1,0,0:0:0:0:
280,184,1403,1,2,0:0:0:0:
272,192,1690,1,0,0:0:0:0:
272,128,1833,1,2,0:0:0:0:
224,96,2120,1,2,0:0:0:0:
232,160,2407,1,0,0:0:0:0:
232,160,2550,1,2,0:0:0:0:
232,160,2657,1,0,0:0:0:0:
232,176,2800,1,2,0:0:0:0:
248,184,2944,1,2,0:0:0:0:
248,184,3123,1,4,0:0:0:0:
256,184,3410,1,0,0:0:0:0:
256,184,3553,1,0,0:0:0:0:
256,152,3696,1,2,0:0:0:0:
256,168,3983,1,0,0:0:0:0:
256,176,4126,1,2,0:0:0:0:
248,192,4413,1,2,0:0:0:0:
336,144,4700,1,0,0:0:0:0:
280,136,4843,1,2,0:0:0:0:
280,136,4986,1,2,0:0:0:0:
280,136,5130,1,0,0:0:0:0:
280,136,5273,1,2,0:0:0:0:
280,136,5416,1,0,0:0:0:0:
288,152,5703,1,0,0:0:0:0:
224,128,5846,1,0,0:0:0:0:
248,128,6133,1,2,0:0:0:0:
248,128,6276,1,0,0:0:0:0:
248,136,6420,1,2,0:0:0:0:
256,104,6563,1,4,0:0:0:0:
272,104,6706,1,0,0:0:0:0:
272,112,6849,1,2,0:0:0:0:
272,112,6993,1,0,0:0:0:0:
272,112,7136,1,0,0:0:0:0:
264,112,7423,1,0,0:0:0:0:
264,112,7566,1,2,0:0:0:0:
264,112,7853,1,2,0:0:0:0:
280,144,7996,1,0,0:0:0:0:
280,144,8139,1,0,0:0:0:0:
240,176,8283,1,0,0:0:0:0:
280,136,8569,1,0,0:0:0:0:
280,136,8713,1,0,0:0:0:0:
288,160,8856,1,2,0:0:0:0:
296,160,8999,1,2,0:0:0:0:
296,160,9143,1,0,0:0:0:0:
296,160,9286,1,2,0:0:0:0:
288,160,9429,1,0,0:0:0:0:
288,168,9716,1,0,0:0:0:0:
288,168,9859,1,2,0:0:0:0:
288,168,10146,1,2,0:0:0:0:
296,144,10289,1,0,0:0:0:0:
296,144,10433,1,0,0:0:0:0:
320,96,10719,1,0,0:0:0:0:
320,96,10862,1,2,0:0:0:0:
320,96,11006,1,0,0:0:0:0:
256,192,11149,12,2,11722,0:0:0:0:
256,176,11866,5,0,0:0:0:0:
256,176,12009,1,2,0:0:0:0:
256,176,12152,1,0,0:0:0:0:
256,192,12296,12,2,13299,0:0:0:0:
240,176,13442,5,2,0:0:0:0:
240,176,13729,1,0,0:0:0:0:
240,176,14016,1,0,0:0:0:0:
240,184,14302,1,2,0:0:0:0:
240,184,14374,1,2,0:0:0:0:
240,184,14446,1,2,0:0:0:0:
240,184,14589,1,4,0:0:0:0:
280,176,15019,1,0,0:0:0:0:
280,184,15162,1,2,0:0:0:0:
272,192,15449,1,0,0:0:0:0:
272,128,15592,1,2,0:0:0:0:
224,96,15879,1,2,0:0:0:0:
232,160,16166,1,0,0:0:0:0:
232,160,16309,1,2,0:0:0:0:
232,160,16416,1,0,0:0:0:0:
232,176,16559,1,2,0:0:0:0:
248,184,16703,1,2,0:0:0:0:
248,184,16882,1,4,0:0:0:0:
256,184,17169,1,0,0:0:0:0:
256,184,17312,1,0,0:0:0:0:
256,152,17455,1,2,0:0:0:0:
256,168,17742,1,0,0:0:0:0:
256,176,17885,1,2,0:0:0:0:
248,192,18172,1,2,0:0:0:0:
336,144,18459,1,0,0:0:0:0:
280,136,18602,1,2,0:0:0:0:
280,136,18745,1,2,0:0:0:0:
280,136,18889,1,0,0:0:0:0:
280,136,19032,1,2,0:0:0:0:
280,136,19175,1,0,0:0:0:0:
288,152,19462,1,0,0:0:0:0:
224,128,19605,1,0,0:0:0:0:
248,128,19892,1,2,0:0:0:0:
248,128,20035,1,0,0:0:0:0:
248,136,20179,1,2,0:0:0:0:
256,104,20322,1,4,0:0:0:0:
272,104,20465,1,0,0:0:0:0:
272,112,20608,1,2,0:0:0:0:
272,112,20752,1,0,0:0:0:0:
272,112,20895,1,0,0:0:0:0:
264,112,21182,1,0,0:0:0:0:
264,112,21325,1,2,0:0:0:0:
264,112,21612,1,2,0:0:0:0:
280,144,21755,1,0,0:0:0:0:
280,144,21898,1,0,0:0:0:0:
248,136,22041,1,2,0:0:0:0:
280,136,22328,1,0,0:0:0:0:
248,104,22471,1,0,0:0:0:0:
288,160,22615,1,6,0:0:0:0:
296,160,22758,1,2,0:0:0:0:
296,160,22902,1,0,0:0:0:0:
296,160,23045,1,2,0:0:0:0:
288,160,23188,1,0,0:0:0:0:
288,168,23475,1,0,0:0:0:0:
288,168,23618,1,2,0:0:0:0:
288,168,23905,1,2,0:0:0:0:
296,144,24048,1,0,0:0:0:0:
296,144,24192,1,0,0:0:0:0:
320,96,24478,1,0,0:0:0:0:
320,96,24621,1,2,0:0:0:0:
320,96,24765,1,0,0:0:0:0:
256,192,24908,12,2,25481,0:0:0:0:
256,176,25625,5,0,0:0:0:0:
256,176,25768,1,2,0:0:0:0:
256,176,25911,1,0,0:0:0:0:
256,192,26055,12,2,27058,0:0:0:0:
232,136,27344,5,2,0:0:0:0:
240,176,27488,1,2,0:0:0:0:
240,176,27775,1,4,0:0:0:0:
240,184,28061,1,6,0:0:0:0:
280,144,28348,1,0,0:0:0:0:
