osu file format v14

[General]
AudioFilename: Marciano descubierto! 100% real no fake 1 link megaupload 2014 oficial.mp3
AudioLeadIn: 0
PreviewTime: 543
Countdown: 0
SampleSet: None
StackLeniency: 0.7
Mode: 2
LetterboxInBreaks: 0
WidescreenStoryboard: 1

[Editor]
Bookmarks: 4413
DistanceSpacing: 1
BeatDivisor: 4
GridSize: 8
TimelineZoom: 0.9999998

[Metadata]
Title:El marcianito 100% real no fake
TitleUnicode:El marcianito 100% real no fake
Artist:tu gfa
ArtistUnicode:tu gfa
Creator:Julio1212-
Version:Casha Marcianitos 100% Real no Feik
Source:
Tags:julio1212
BeatmapID:984652
BeatmapSetID:381741

[Difficulty]
HPDrainRate:6
CircleSize:4
OverallDifficulty:6
ApproachRate:9.1
SliderMultiplier:1.9
SliderTickRate:1

[Events]
//Background and Video events
0,0,"hjoklhjkl.png",0,0
//Break Periods
//Storyboard Layer 0 (Background)
//Storyboard Layer 1 (Fail)
//Storyboard Layer 2 (Pass)
//Storyboard Layer 3 (Foreground)
//Storyboard Sound Samples

[TimingPoints]
255,573.284922606535,4,1,0,80,1,0
507,-66.6666666666667,4,1,0,80,0,0

[Colours]
Combo1 : 0,64,0
Combo2 : 0,255,0
Combo3 : 0,128,0
Combo4 : 0,128,128

[HitObjects]
168,96,1258,5,0,0:0:0:0:
136,96,1294,1,0,0:0:0:0:
152,96,1329,1,0,0:0:0:0:
328,96,1401,1,0,0:0:0:0:
296,96,1437,1,0,0:0:0:0:
312,96,1473,1,0,0:0:0:0:
176,232,1688,1,0,0:0:0:0:
208,240,1724,1,0,0:0:0:0:
40,264,1867,1,0,0:0:0:0:
40,152,2118,5,0,0:0:0:0:
168,304,2404,1,0,0:0:0:0:
192,304,2440,1,0,0:0:0:0:
304,272,2548,1,0,0:0:0:0:
288,280,2583,1,0,0:0:0:0:
168,216,2691,1,0,0:0:0:0:
192,224,2727,1,0,0:0:0:0:
368,256,2834,1,0,0:0:0:0:
384,256,2870,1,0,0:0:0:0:
264,200,2978,1,0,0:0:0:0:
280,200,3013,1,0,0:0:0:0:
104,176,3121,1,0,0:0:0:0:
120,176,3157,5,0,0:0:0:0:
328,160,3551,1,0,0:0:0:0:
344,160,3587,1,0,0:0:0:0:
304,160,3623,1,0,0:0:0:0:
440,160,3694,1,0,0:0:0:0:
464,160,3730,1,0,0:0:0:0:
424,160,3766,1,0,0:0:0:0:
40,296,3981,1,0,0:0:0:0:
136,296,4124,1,0,0:0:0:0:
312,296,4411,1,0,0:0:0:0:
352,208,4697,5,0,0:0:0:0:
368,208,4733,1,0,0:0:0:0:
464,240,4841,1,0,0:0:0:0:
456,256,4877,1,0,0:0:0:0:
240,208,4984,1,0,0:0:0:0:
256,208,5020,1,0,0:0:0:0:
144,184,5127,1,0,0:0:0:0:
160,192,5163,1,0,0:0:0:0:
336,128,5271,1,0,0:0:0:0:
344,136,5307,1,0,0:0:0:0:
176,128,5414,1,0,0:0:0:0:
192,120,5450,5,0,0:0:0:0:
152,112,6131,1,0,0:0:0:0:
128,112,6131,1,0,0:0:0:0:
104,112,6131,1,0,0:0:0:0:
320,128,6274,1,0,0:0:0:0:
344,128,6274,1,0,0:0:0:0:
208,280,6417,1,0,0:0:0:0:
416,296,6561,5,0,0:0:0:0:
384,296,6596,1,0,0:0:0:0:
304,296,6704,1,0,0:0:0:0:
280,288,6740,1,0,0:0:0:0:
96,264,6847,1,0,0:0:0:0:
120,264,6883,1,0,0:0:0:0:
328,200,6991,1,0,0:0:0:0:
296,200,7026,1,0,0:0:0:0:
144,112,7134,5,0,0:0:0:0:
432,288,7421,1,0,0:0:0:0:
184,296,7564,1,0,0:0:0:0:
40,192,7851,5,0,0:0:0:0:
96,280,8854,5,0,0:0:0:0:
112,280,8890,1,0,0:0:0:0:
296,272,8997,1,0,0:0:0:0:
320,272,9033,1,0,0:0:0:0:
128,192,9140,1,0,0:0:0:0:
144,192,9176,1,0,0:0:0:0:
384,192,9284,1,0,0:0:0:0:
400,192,9320,1,0,0:0:0:0:
216,112,9427,1,0,0:0:0:0:
240,120,9463,1,0,0:0:0:0:
432,272,9714,1,0,0:0:0:0:
200,280,9857,1,0,0:0:0:0:
72,176,10144,5,0,0:0:0:0:
424,176,10717,1,0,0:0:0:0:
432,184,10753,1,0,0:0:0:0:
312,136,10860,1,0,0:0:0:0:
328,144,10896,1,0,0:0:0:0:
208,152,11004,1,0,0:0:0:0:
224,152,11039,1,0,0:0:0:0:
448,320,11147,6,0,L|160:120,1,285.000010871888
440,328,11864,1,0,0:0:0:0:
456,336,11899,1,0,0:0:0:0:
296,272,12007,1,0,0:0:0:0:
312,280,12043,1,0,0:0:0:0:
184,232,12150,1,0,0:0:0:0:
200,232,12186,1,0,0:0:0:0:
352,328,12293,6,0,L|32:40,1,427.500016307831
80,288,13440,5,0,0:0:0:0:
112,312,13440,1,0,0:0:0:0:
144,296,13440,1,0,0:0:0:0:
416,264,13727,5,0,0:0:0:0:
384,272,13727,1,0,0:0:0:0:
440,264,13727,1,0,0:0:0:0:
128,160,14013,5,0,0:0:0:0:
104,160,14013,1,0,0:0:0:0:
424,88,14300,5,0,0:0:0:0:
384,120,14396,1,0,0:0:0:0:
336,136,14491,1,0,0:0:0:0:
32,344,14587,5,0,0:0:0:0:
168,96,15017,5,0,0:0:0:0:
136,96,15053,1,0,0:0:0:0:
152,96,15088,1,0,0:0:0:0:
328,96,15160,1,0,0:0:0:0:
296,96,15196,1,0,0:0:0:0:
312,96,15232,1,0,0:0:0:0:
176,232,15447,1,0,0:0:0:0:
208,240,15483,1,0,0:0:0:0:
40,264,15626,1,0,0:0:0:0:
40,152,15877,5,0,0:0:0:0:
168,304,16163,1,0,0:0:0:0:
192,304,16199,1,0,0:0:0:0:
304,272,16307,1,0,0:0:0:0:
288,280,16342,1,0,0:0:0:0:
168,216,16450,1,0,0:0:0:0:
192,224,16486,1,0,0:0:0:0:
368,256,16593,1,0,0:0:0:0:
384,256,16629,1,0,0:0:0:0:
264,200,16737,1,0,0:0:0:0:
280,200,16772,1,0,0:0:0:0:
104,176,16880,1,0,0:0:0:0:
120,176,16916,5,0,0:0:0:0:
328,160,17310,1,0,0:0:0:0:
344,160,17346,1,0,0:0:0:0:
304,160,17382,1,0,0:0:0:0:
440,160,17453,1,0,0:0:0:0:
464,160,17489,1,0,0:0:0:0:
424,160,17525,1,0,0:0:0:0:
40,296,17740,1,0,0:0:0:0:
136,296,17883,1,0,0:0:0:0:
312,296,18170,1,0,0:0:0:0:
352,208,18456,5,0,0:0:0:0:
368,208,18492,1,0,0:0:0:0:
464,240,18600,1,0,0:0:0:0:
456,256,18636,1,0,0:0:0:0:
240,208,18743,1,0,0:0:0:0:
256,208,18779,1,0,0:0:0:0:
144,184,18886,1,0,0:0:0:0:
160,192,18922,1,0,0:0:0:0:
336,128,19030,1,0,0:0:0:0:
344,136,19066,1,0,0:0:0:0:
176,128,19173,1,0,0:0:0:0:
192,120,19209,5,0,0:0:0:0:
152,112,19890,1,0,0:0:0:0:
128,112,19890,1,0,0:0:0:0:
104,112,19890,1,0,0:0:0:0:
344,128,20033,1,0,0:0:0:0:
320,128,20033,1,0,0:0:0:0:
208,280,20176,1,0,0:0:0:0:
416,296,20320,5,0,0:0:0:0:
384,296,20355,1,0,0:0:0:0:
304,296,20463,1,0,0:0:0:0:
280,288,20499,1,0,0:0:0:0:
96,264,20606,1,0,0:0:0:0:
120,264,20642,1,0,0:0:0:0:
328,200,20750,1,0,0:0:0:0:
296,200,20785,1,0,0:0:0:0:
144,112,20893,5,0,0:0:0:0:
432,288,21180,1,0,0:0:0:0:
184,296,21323,1,0,0:0:0:0:
40,192,21610,5,0,0:0:0:0:
96,280,22613,5,0,0:0:0:0:
112,280,22649,1,0,0:0:0:0:
296,272,22756,1,0,0:0:0:0:
320,272,22792,1,0,0:0:0:0:
128,192,22899,1,0,0:0:0:0:
144,192,22935,1,0,0:0:0:0:
384,192,23043,1,0,0:0:0:0:
400,192,23079,1,0,0:0:0:0:
216,112,23186,1,0,0:0:0:0:
240,120,23222,1,0,0:0:0:0:
432,272,23473,1,0,0:0:0:0:
200,280,23616,1,0,0:0:0:0:
72,176,23903,5,0,0:0:0:0:
88,176,24476,1,0,0:0:0:0:
80,184,24512,1,0,0:0:0:0:
200,136,24619,1,0,0:0:0:0:
184,144,24655,1,0,0:0:0:0:
304,152,24763,1,0,0:0:0:0:
288,152,24798,1,0,0:0:0:0:
64,320,24906,6,0,L|352:120,1,285.000010871888
72,328,25623,1,0,0:0:0:0:
56,336,25658,1,0,0:0:0:0:
216,272,25766,1,0,0:0:0:0:
200,280,25802,1,0,0:0:0:0:
328,232,25909,1,0,0:0:0:0:
312,232,25945,1,0,0:0:0:0:
160,328,26052,6,0,L|480:40,1,427.500016307831
136,296,27342,5,0,0:0:0:0:
112,312,27342,1,0,0:0:0:0:
88,296,27342,1,0,0:0:0:0:
256,304,27486,1,0,0:0:0:0:
240,312,27486,1,0,0:0:0:0:
272,304,27486,1,0,0:0:0:0:
440,176,27772,1,0,0:0:0:0:
416,176,27772,1,0,0:0:0:0:
104,144,28059,1,0,0:0:0:0:
136,144,28059,1,0,0:0:0:0:
160,152,28059,1,0,0:0:0:0:
