osu file format v14

[General]
AudioFilename: Marciano descubierto! 100% real no fake 1 link megaupload 2014 oficial.mp3
AudioLeadIn: 0
PreviewTime: 543
Countdown: 0
SampleSet: None
StackLeniency: 0.7
Mode: 0
LetterboxInBreaks: 0
WidescreenStoryboard: 1

[Editor]
Bookmarks: 4413
DistanceSpacing: 1.7
BeatDivisor: 4
GridSize: 8
TimelineZoom: 3.559999

[Metadata]
Title:El marcianito 100% real no fake
TitleUnicode:El marcianito 100% real no fake
Artist:tu gfa
ArtistUnicode:tu gfa
Creator:Julio1212-
Version:Arnold24x24 Mapping Guest is back 100% real NO FAKE
Source:
Tags:julio1212
BeatmapID:984651
BeatmapSetID:381741

[Difficulty]
HPDrainRate:5
CircleSize:4.5
OverallDifficulty:6
ApproachRate:9.7
SliderMultiplier:3.49999990463257
SliderTickRate:4

[Events]
//Background and Video events
0,0,"hjoklhjkl.png",0,0
//Break Periods
//Storyboard Layer 0 (Background)
//Storyboard Layer 1 (Fail)
//Storyboard Layer 2 (Pass)
//Storyboard Layer 3 (Foreground)
//Storyboard Sound Samples

[TimingPoints]
257,573.284922606535,4,1,0,80,1,0
507,-121.951219512195,4,1,0,80,0,0
4771,-121.951219512195,4,1,0,5,0,0
4843,-121.951219512195,4,1,0,80,0,0
4914,-121.951219512195,4,1,0,5,0,0
4986,-121.951219512195,4,1,0,80,0,0
5058,-121.951219512195,4,1,0,5,0,0
5129,-121.951219512195,4,1,0,80,0,0
5201,-121.951219512195,4,1,0,5,0,0
5273,-121.951219512195,4,1,0,80,0,0
5344,-121.951219512195,4,1,0,5,0,0
5416,-121.951219512195,4,1,0,80,0,0
5488,-121.951219512195,4,1,0,5,0,0
5703,-121.951219512195,4,1,0,45,0,0
6849,-121.951219512195,4,1,0,70,0,0
7423,-66.6666666666667,4,1,0,70,0,0
8927,-66.6666666666667,4,1,0,5,0,0
8999,-66.6666666666667,4,1,0,70,0,0
9071,-66.6666666666667,4,1,0,5,0,0
9142,-66.6666666666667,4,1,0,70,0,0
9214,-66.6666666666667,4,1,0,5,0,0
9286,-66.6666666666667,4,1,0,65,0,0
9357,-66.6666666666667,4,1,0,5,0,0
9429,-50,4,1,0,65,0,0
11149,-83.3333333333333,4,1,0,65,0,0
13514,-83.3333333333333,4,1,0,5,0,0
13729,-83.3333333333333,4,1,0,65,0,0
13800,-83.3333333333333,4,1,0,5,0,0
14015,-83.3333333333333,4,1,0,65,0,0
14087,-83.3333333333333,4,1,0,5,0,0
14302,-83.3333333333333,4,1,0,70,0,0
19318,-83.3333333333333,4,1,0,40,0,0
19892,-50,4,1,0,70,0,0
28347,-66.6666666666667,4,1,0,70,0,0
30641,-125,4,1,0,70,0,0
43253,-66.6666666666667,4,1,0,70,0,0

[Colours]
Combo1 : 0,64,0
Combo2 : 0,255,0
Combo3 : 0,128,0
Combo4 : 0,128,128

[HitObjects]
68,276,543,5,8,0:0:0:0:
108,292,639,1,8,0:0:0:0:
88,336,734,1,8,0:0:0:0:
48,320,830,1,12,0:0:0:0:
296,312,1260,5,0,0:0:0:0:
464,216,1403,1,0,0:0:0:0:
128,128,1690,1,0,0:0:0:0:
464,168,1833,1,0,0:0:0:0:
80,312,2120,5,0,0:0:0:0:
80,312,2406,1,0,0:0:0:0:
112,160,2550,1,0,0:0:0:0:
184,296,2693,1,0,0:0:0:0:
232,128,2836,1,0,0:0:0:0:
304,280,2980,1,0,0:0:0:0:
344,96,3123,1,0,0:0:0:0:
400,336,3553,5,0,0:0:0:0:
456,296,3696,2,0,L|304:264,1,143.499998279572
368,240,4126,1,0,0:0:0:0:
336,136,4413,1,0,0:0:0:0:
136,40,4699,2,0,L|96:64,1,35.8749995698929
184,200,4843,2,0,L|224:176,1,35.8749995698929
64,112,4986,2,0,L|72:156,1,35.8749995698929
256,128,5129,2,0,L|248:80,1,35.8749995698929
96,200,5273,2,0,L|128:224,1,35.8749995698929
224,32,5416,2,0,L|176:16,1,35.8749995698929
88,304,5703,6,8,L|20:328,1,71.7499991397858
0,368,5989,1,0,0:0:0:0:
248,328,6133,5,2,0:0:0:0:
512,208,6276,5,2,0:0:0:0:
336,32,6563,5,0,0:0:0:0:
176,96,6706,1,0,0:0:0:0:
368,144,6849,1,0,0:0:0:0:
144,208,6993,1,0,0:0:0:0:
400,272,7136,1,2,0:0:0:0:
0,64,7423,5,0,0:0:0:0:
512,128,7566,5,0,0:0:0:0:
112,336,7853,1,0,0:0:0:0:
224,20,8856,6,0,L|296:52,1,65.6250007152558
512,192,8999,2,0,L|436:168,1,65.6250007152558
256,384,9142,2,0,L|232:320,1,65.6250007152558
0,192,9286,2,0,L|20:256,1,65.6250007152558
256,192,9429,5,8,0:0:0:0:
168,96,9716,6,0,L|360:96,1,174.999995231628
256,192,10146,1,0,0:0:0:0:
160,288,10719,5,0,0:0:0:0:
160,96,10862,1,0,0:0:0:0:
352,96,11006,1,0,0:0:0:0:
352,288,11149,2,0,L|352:352,8,52.4999969673158
128,192,11866,5,0,0:0:0:0:
256,64,12009,1,0,0:0:0:0:
384,192,12152,1,0,0:0:0:0:
256,320,12295,2,0,L|256:384,14,34.9999979782105
288,48,13442,6,0,L|368:64,1,52.4999969673158
456,128,13585,2,0,L|376:144,1,52.4999969673158
280,40,13729,2,0,L|360:56,1,52.4999969673158
464,120,13872,2,0,L|384:136,1,52.4999969673158
272,32,14015,2,0,L|352:48,1,52.4999969673158
472,112,14159,2,0,L|392:128,1,52.4999969673158
352,384,14302,5,0,0:0:0:0:
321,159,14398,1,0,0:0:0:0:
393,355,14493,1,0,0:0:0:0:
283,203,14589,1,0,0:0:0:0:
96,160,15019,5,0,0:0:0:0:
160,128,15162,1,0,0:0:0:0:
48,224,15449,5,0,0:0:0:0:
216,296,15593,1,0,0:0:0:0:
152,48,15879,1,0,0:0:0:0:
304,208,16165,5,0,0:0:0:0:
464,128,16308,1,0,0:0:0:0:
400,288,16452,1,0,0:0:0:0:
352,64,16595,1,0,0:0:0:0:
272,144,16738,1,0,0:0:0:0:
472,88,16882,1,0,0:0:0:0:
400,288,17168,5,0,0:0:0:0:
400,288,17312,1,0,0:0:0:0:
400,288,17455,2,0,P|352:336|192:320,1,209.999987869263
256,272,17885,1,0,0:0:0:0:
192,208,18028,2,0,P|144:256|144:320,1,104.999993934632
80,208,18315,1,0,0:0:0:0:
144,144,18458,1,0,0:0:0:0:
224,112,18602,2,0,P|160:64|96:80,1,104.999993934632
256,32,18888,1,8,0:0:0:0:
432,384,19032,1,0,0:0:0:0:
496,160,19175,1,4,0:0:0:0:
304,272,19318,5,0,0:0:0:0:
256,272,19462,5,0,0:0:0:0:
208,272,19605,5,0,0:0:0:0:
168,176,19892,2,0,L|344:176,1,174.999995231628
336,288,20321,1,0,0:0:0:0:
176,80,20465,1,0,0:0:0:0:
176,288,20608,1,0,0:0:0:0:
336,80,20751,1,0,0:0:0:0:
336,288,20895,1,0,0:0:0:0:
256,64,21181,5,0,0:0:0:0:
256,304,21325,1,0,0:0:0:0:
256,192,21611,1,0,0:0:0:0:
16,112,22615,5,0,0:0:0:0:
496,272,22758,1,0,0:0:0:0:
16,272,22901,1,0,0:0:0:0:
496,112,23045,1,0,0:0:0:0:
16,112,23188,1,0,0:0:0:0:
512,192,23475,5,0,0:0:0:0:
0,192,23618,1,0,0:0:0:0:
256,192,23905,1,0,0:0:0:0:
160,16,24478,5,0,0:0:0:0:
144,96,24621,1,0,0:0:0:0:
80,144,24764,1,0,0:0:0:0:
144,192,24908,1,0,0:0:0:0:
160,224,24979,1,0,0:0:0:0:
160,256,25051,1,0,0:0:0:0:
144,288,25123,1,0,0:0:0:0:
128,320,25194,1,0,0:0:0:0:
96,336,25266,1,0,0:0:0:0:
416,288,25624,5,0,0:0:0:0:
432,272,25768,1,0,0:0:0:0:
448,272,25911,1,0,0:0:0:0:
464,288,26054,1,0,0:0:0:0:
468,292,26102,1,0,0:0:0:0:
472,296,26150,1,0,0:0:0:0:
476,300,26198,1,0,0:0:0:0:
476,304,26245,1,0,0:0:0:0:
476,308,26293,1,0,0:0:0:0:
472,312,26341,1,0,0:0:0:0:
472,316,26389,1,0,0:0:0:0:
472,320,26437,1,0,0:0:0:0:
476,324,26484,1,0,0:0:0:0:
472,328,26532,1,0,0:0:0:0:
468,332,26580,1,0,0:0:0:0:
464,336,26628,1,0,0:0:0:0:
460,340,26675,1,0,0:0:0:0:
456,344,26723,1,0,0:0:0:0:
452,348,26771,1,0,0:0:0:0:
448,352,26819,1,0,0:0:0:0:
444,356,26866,1,0,0:0:0:0:
444,360,26914,1,0,0:0:0:0:
128,232,27344,5,0,0:0:0:0:
360,128,27488,1,0,0:0:0:0:
296,328,27774,1,0,0:0:0:0:
152,80,28061,1,0,0:0:0:0:
288,40,28347,2,0,P|448:40|400:200,1,262.500002861023
384,128,28777,1,0,0:0:0:0:
432,192,28921,2,0,B|344:232|296:128|296:128|160:224,1,262.500002861023
152,168,29351,1,0,0:0:0:0:
208,104,29494,2,0,B|168:64|168:64|48:144|48:144|104:216,1,262.500002861023
96,272,29924,1,0,0:0:0:0:
240,288,30067,1,0,0:0:0:0:
384,352,30211,1,0,0:0:0:0:
512,368,30354,1,0,0:0:0:0:
432,240,30641,6,0,P|464:160|464:80,1,139.999996185303
512,80,31071,1,0,0:0:0:0:
336,48,31357,2,0,B|355:28|355:28|243:28,1,139.999996185303
128,96,31787,2,0,B|108:115|108:115|220:115,1,139.999996185303
272,144,32217,1,0,0:0:0:0:
224,192,32360,1,0,0:0:0:0:
400,304,32790,5,0,0:0:0:0:
400,304,32934,2,0,P|304:336|240:320,1,139.999996185303
320,240,33364,2,0,P|364:216|480:232,1,139.999996185303
451,217,33794,1,0,0:0:0:0:
480,100,34080,5,0,0:0:0:0:
432,52,34152,1,0,0:0:0:0:
368,28,34224,1,0,0:0:0:0:
304,28,34295,1,0,0:0:0:0:
240,48,34367,1,0,0:0:0:0:
192,96,34439,1,0,0:0:0:0:
176,160,34510,1,0,0:0:0:0:
192,224,34582,1,0,0:0:0:0:
240,272,34654,5,0,0:0:0:0:
304,288,34725,1,0,0:0:0:0:
368,272,34797,1,0,0:0:0:0:
416,224,34869,1,0,0:0:0:0:
416,160,34940,1,0,0:0:0:0:
368,112,35012,1,0,0:0:0:0:
304,96,35084,1,0,0:0:0:0:
240,112,35155,1,0,0:0:0:0:
192,160,35227,5,0,0:0:0:0:
208,224,35299,1,0,0:0:0:0:
256,272,35370,1,0,0:0:0:0:
320,256,35442,1,0,0:0:0:0:
368,208,35514,1,0,0:0:0:0:
352,144,35585,1,0,0:0:0:0:
288,128,35657,1,0,0:0:0:0:
240,176,35729,1,0,0:0:0:0:
256,240,35800,1,0,0:0:0:0:
320,256,35872,5,0,0:0:0:0:
368,208,35943,5,0,0:0:0:0:
352,144,36015,5,0,0:0:0:0:
288,128,36087,5,0,0:0:0:0:
240,176,36158,5,0,0:0:0:0:
256,240,36230,5,0,0:0:0:0:
320,256,36302,5,0,0:0:0:0:
368,208,36373,5,0,0:0:0:0:
96,212,37520,6,0,P|36:148|44:80,1,139.999996185303
124,112,37950,1,0,0:0:0:0:
152,28,38093,2,0,P|212:92|204:160,1,139.999996185303
208,232,38523,1,0,0:0:0:0:
208,232,38667,6,0,L|88:320,1,139.999996185303
304,240,39097,2,0,L|232:304,1,69.9999980926514
416,224,39383,2,0,L|324:308,1,69.9999980926514
512,112,39670,5,0,0:0:0:0:
0,0,39813,1,0,0:0:0:0:
512,208,40099,1,0,0:0:0:0:
0,96,40243,1,0,0:0:0:0:
512,304,40386,1,0,0:0:0:0:
512,304,40434,1,0,0:0:0:0:
512,304,40482,1,0,0:0:0:0:
512,304,40529,1,0,0:0:0:0:
512,304,40565,1,0,0:0:0:0:
512,304,40601,1,0,0:0:0:0:
512,304,40637,1,0,0:0:0:0:
512,304,40673,1,0,0:0:0:0:
512,304,40816,5,8,0:0:0:0:
0,304,40960,1,8,0:0:0:0:
176,256,41103,1,2,0:0:0:0:
240,224,41246,1,2,0:0:0:0:
304,192,41390,1,2,0:0:0:0:
240,160,41533,1,2,0:0:0:0:
304,128,41676,1,2,0:0:0:0:
240,96,41820,1,2,0:0:0:0:
304,64,41963,1,2,0:0:0:0:
368,32,42106,1,2,0:0:0:0:
128,64,42393,5,0,0:0:0:0:
384,128,42536,1,0,0:0:0:0:
160,256,42680,1,0,0:0:0:0:
352,288,42966,1,0,0:0:0:0:
224,352,43110,1,0,0:0:0:0:
104,328,43253,6,0,L|64:304,1,32.8125003576279
75,311,43325,2,0,L|56:280,1,32.8125003576279
58,283,43396,2,0,B|64:232|64:240|56:248,1,32.8125003576279
64,248,43468,2,0,L|72:200,1,32.8125003576279
69,215,43540,2,0,L|96:184,1,32.8125003576279
90,190,43611,2,0,L|64:152,1,32.8125003576279
71,163,43683,2,0,L|96:136,1,32.8125003576279
96,136,43754,2,0,L|56:104,2,32.8125003576279
