osu file format v14

[General]
AudioFilename: Marciano descubierto! 100% real no fake 1 link megaupload 2014 oficial.mp3
AudioLeadIn: 0
PreviewTime: 543
Countdown: 0
SampleSet: Normal
StackLeniency: 0.7
Mode: 3
LetterboxInBreaks: 0
SpecialStyle: 0
WidescreenStoryboard: 0

[Editor]
DistanceSpacing: 1
BeatDivisor: 16
GridSize: 8
TimelineZoom: 2

[Metadata]
Title:El marcianito 100% real no fake
TitleUnicode:El marcianito 100% real no fake
Artist:tu gfa
ArtistUnicode:tu gfa
Creator:Julio1212-
Version:100% real 1 link mediafire
Source:
Tags:julio1212
BeatmapID:834993
BeatmapSetID:381741

[Difficulty]
HPDrainRate:7
CircleSize:10
OverallDifficulty:6
ApproachRate:5
SliderMultiplier:1.4
SliderTickRate:1

[Events]
//Background and Video events
Video,0,"Marciano descubierto! 100% real no fake 1 link megaupload 2014 oficial.mp4"
0,0,"hjoklhjkl.png",0,0
//Break Periods
//Storyboard Layer 0 (Background)
//Storyboard Layer 1 (Fail)
//Storyboard Layer 2 (Pass)
//Storyboard Layer 3 (Foreground)
//Storyboard Sound Samples

[TimingPoints]
3123.62382561735,573.284922606535,4,1,0,0,1,0

[HitObjects]
76,192,543,5,0,0:0:0:0:
179,192,615,1,0,0:0:0:0:
76,192,687,1,0,0:0:0:0:
486,192,830,1,0,0:0:0:0:
281,192,830,1,0,0:0:0:0:
76,192,1260,1,0,0:0:0:0:
128,192,1403,1,0,0:0:0:0:
179,192,1690,1,0,0:0:0:0:
230,192,1833,1,0,0:0:0:0:
230,192,2120,1,0,0:0:0:0:
25,192,2407,1,0,0:0:0:0:
128,192,2550,1,0,0:0:0:0:
435,192,2550,1,0,0:0:0:0:
332,192,2550,1,0,0:0:0:0:
25,192,2693,1,0,0:0:0:0:
128,192,2836,1,0,0:0:0:0:
25,192,2944,1,0,0:0:0:0:
486,192,3123,1,0,0:0:0:0:
384,192,3123,1,0,0:0:0:0:
230,192,3123,1,0,0:0:0:0:
332,192,3410,1,0,0:0:0:0:
384,192,3553,1,0,0:0:0:0:
76,192,3553,1,0,0:0:0:0:
435,192,3696,1,0,0:0:0:0:
486,192,3696,1,0,0:0:0:0:
128,192,3696,1,0,0:0:0:0:
332,192,3983,1,0,0:0:0:0:
179,192,3983,1,0,0:0:0:0:
384,192,4126,1,0,0:0:0:0:
230,192,4126,1,0,0:0:0:0:
435,192,4270,1,0,0:0:0:0:
486,192,4270,1,0,0:0:0:0:
230,192,4413,1,0,0:0:0:0:
384,192,4556,1,0,0:0:0:0:
332,192,4700,1,0,0:0:0:0:
25,192,4700,1,0,0:0:0:0:
384,192,4843,1,0,0:0:0:0:
486,192,4843,1,0,0:0:0:0:
128,192,4843,1,0,0:0:0:0:
25,192,4986,1,0,0:0:0:0:
281,192,5130,1,0,0:0:0:0:
128,192,5130,1,0,0:0:0:0:
25,192,5237,1,0,0:0:0:0:
332,192,5273,1,0,0:0:0:0:
384,192,5416,1,0,0:0:0:0:
486,192,5416,1,0,0:0:0:0:
179,192,5416,1,0,0:0:0:0:
435,192,5703,1,0,0:0:0:0:
384,192,5846,1,0,0:0:0:0:
332,192,5990,1,0,0:0:0:0:
281,192,5990,1,0,0:0:0:0:
179,192,6133,1,0,0:0:0:0:
128,192,6133,1,0,0:0:0:0:
384,192,6276,1,0,0:0:0:0:
281,192,6276,1,0,0:0:0:0:
435,192,6420,1,0,0:0:0:0:
76,192,6563,1,0,0:0:0:0:
179,192,6706,1,0,0:0:0:0:
76,192,6849,1,0,0:0:0:0:
281,192,6849,1,0,0:0:0:0:
486,192,6849,1,0,0:0:0:0:
179,192,6993,1,0,0:0:0:0:
435,192,6993,1,0,0:0:0:0:
25,192,7136,1,0,0:0:0:0:
384,192,7136,1,0,0:0:0:0:
128,192,7423,1,0,0:0:0:0:
486,192,7423,1,0,0:0:0:0:
230,192,7566,1,0,0:0:0:0:
435,192,7566,1,0,0:0:0:0:
384,192,7709,1,0,0:0:0:0:
230,192,7853,1,0,0:0:0:0:
332,192,7996,1,0,0:0:0:0:
384,192,8139,1,0,0:0:0:0:
435,192,8283,1,0,0:0:0:0:
332,192,8569,1,0,0:0:0:0:
384,192,8713,1,0,0:0:0:0:
76,192,8856,1,0,0:0:0:0:
435,192,8856,1,0,0:0:0:0:
179,192,8999,1,0,0:0:0:0:
76,192,9143,1,0,0:0:0:0:
486,192,9143,1,0,0:0:0:0:
179,192,9286,1,0,0:0:0:0:
435,192,9286,1,0,0:0:0:0:
25,192,9429,1,0,0:0:0:0:
384,192,9429,1,0,0:0:0:0:
128,192,9716,1,0,0:0:0:0:
486,192,9716,1,0,0:0:0:0:
230,192,9859,1,0,0:0:0:0:
435,192,9859,1,0,0:0:0:0:
384,192,10003,1,0,0:0:0:0:
230,192,10146,1,0,0:0:0:0:
332,192,10289,1,0,0:0:0:0:
384,192,10433,1,0,0:0:0:0:
435,192,10576,1,0,0:0:0:0:
25,192,10719,128,0,10862:0:0:0:0:
128,192,10862,128,0,11006:0:0:0:0:
281,192,10862,1,0,0:0:0:0:
25,192,11006,128,0,11149:0:0:0:0:
384,192,11006,1,0,0:0:0:0:
179,192,11149,128,0,11579:0:0:0:0:
486,192,11149,1,0,0:0:0:0:
281,192,11436,1,0,0:0:0:0:
384,192,11579,1,0,0:0:0:0:
486,192,11722,1,0,0:0:0:0:
76,192,11866,128,0,12009:0:0:0:0:
384,192,11866,1,0,0:0:0:0:
179,192,12009,128,0,12152:0:0:0:0:
281,192,12009,1,0,0:0:0:0:
76,192,12152,128,0,12296:0:0:0:0:
230,192,12296,128,0,13156:0:0:0:0:
384,192,12296,1,0,0:0:0:0:
332,192,12582,1,0,0:0:0:0:
384,192,12726,1,0,0:0:0:0:
435,192,12869,1,0,0:0:0:0:
332,192,13156,1,0,0:0:0:0:
384,192,13299,1,0,0:0:0:0:
435,192,13442,1,0,0:0:0:0:
230,192,13442,128,0,13550:0:0:0:0:
179,192,13442,128,0,13550:0:0:0:0:
179,192,13729,128,0,13836:0:0:0:0:
128,192,13729,128,0,13836:0:0:0:0:
486,192,13729,1,0,0:0:0:0:
435,192,13872,1,0,0:0:0:0:
128,192,14016,128,0,14123:0:0:0:0:
76,192,14016,128,0,14123:0:0:0:0:
384,192,14016,1,0,0:0:0:0:
76,192,14302,128,0,14410:0:0:0:0:
25,192,14302,128,0,14410:0:0:0:0:
332,192,14302,1,0,0:0:0:0:
435,192,14374,1,0,0:0:0:0:
332,192,14446,1,0,0:0:0:0:
25,192,14589,128,0,14696:0:0:0:0:
230,192,14589,128,0,14696:0:0:0:0:
486,192,14589,1,0,0:0:0:0:
76,192,15019,1,0,0:0:0:0:
128,192,15162,1,0,0:0:0:0:
179,192,15449,1,0,0:0:0:0:
230,192,15592,1,0,0:0:0:0:
230,192,15879,1,0,0:0:0:0:
25,192,16165,1,0,0:0:0:0:
128,192,16309,1,0,0:0:0:0:
25,192,16452,1,0,0:0:0:0:
128,192,16595,1,0,0:0:0:0:
25,192,16703,1,0,0:0:0:0:
486,192,16882,1,0,0:0:0:0:
384,192,16882,1,0,0:0:0:0:
230,192,16882,1,0,0:0:0:0:
332,192,17169,1,0,0:0:0:0:
384,192,17312,1,0,0:0:0:0:
76,192,17312,1,0,0:0:0:0:
128,192,17455,1,0,0:0:0:0:
486,192,17455,1,0,0:0:0:0:
435,192,17455,1,0,0:0:0:0:
179,192,17742,1,0,0:0:0:0:
332,192,17742,1,0,0:0:0:0:
384,192,17885,1,0,0:0:0:0:
230,192,17885,1,0,0:0:0:0:
486,192,18029,1,0,0:0:0:0:
435,192,18029,1,0,0:0:0:0:
230,192,18172,1,0,0:0:0:0:
384,192,18315,1,0,0:0:0:0:
332,192,18458,1,0,0:0:0:0:
25,192,18458,1,0,0:0:0:0:
128,192,18602,1,0,0:0:0:0:
486,192,18602,1,0,0:0:0:0:
384,192,18602,1,0,0:0:0:0:
25,192,18745,1,0,0:0:0:0:
128,192,18888,1,0,0:0:0:0:
281,192,18888,1,0,0:0:0:0:
25,192,18996,1,0,0:0:0:0:
332,192,19032,1,0,0:0:0:0:
486,192,19175,1,0,0:0:0:0:
179,192,19175,1,0,0:0:0:0:
435,192,19462,1,0,0:0:0:0:
384,192,19605,1,0,0:0:0:0:
281,192,19748,1,0,0:0:0:0:
332,192,19748,1,0,0:0:0:0:
179,192,19892,1,0,0:0:0:0:
128,192,19892,1,0,0:0:0:0:
281,192,20035,1,0,0:0:0:0:
384,192,20035,1,0,0:0:0:0:
435,192,20178,1,0,0:0:0:0:
76,192,20322,1,0,0:0:0:0:
179,192,20465,1,0,0:0:0:0:
76,192,20608,1,0,0:0:0:0:
486,192,20608,1,0,0:0:0:0:
281,192,20608,1,0,0:0:0:0:
435,192,20752,1,0,0:0:0:0:
179,192,20752,1,0,0:0:0:0:
25,192,20895,1,0,0:0:0:0:
384,192,20895,1,0,0:0:0:0:
486,192,21182,1,0,0:0:0:0:
128,192,21182,1,0,0:0:0:0:
230,192,21325,1,0,0:0:0:0:
435,192,21325,1,0,0:0:0:0:
384,192,21468,1,0,0:0:0:0:
230,192,21612,1,0,0:0:0:0:
332,192,21755,1,0,0:0:0:0:
384,192,21898,1,0,0:0:0:0:
435,192,22042,1,0,0:0:0:0:
332,192,22328,1,0,0:0:0:0:
384,192,22471,1,0,0:0:0:0:
76,192,22615,1,0,0:0:0:0:
435,192,22615,1,0,0:0:0:0:
179,192,22758,1,0,0:0:0:0:
486,192,22901,1,0,0:0:0:0:
76,192,22901,1,0,0:0:0:0:
435,192,23045,1,0,0:0:0:0:
179,192,23045,1,0,0:0:0:0:
384,192,23188,1,0,0:0:0:0:
25,192,23188,1,0,0:0:0:0:
486,192,23475,1,0,0:0:0:0:
128,192,23475,1,0,0:0:0:0:
435,192,23618,1,0,0:0:0:0:
230,192,23618,1,0,0:0:0:0:
384,192,23761,1,0,0:0:0:0:
230,192,23905,1,0,0:0:0:0:
332,192,24048,1,0,0:0:0:0:
384,192,24191,1,0,0:0:0:0:
435,192,24335,1,0,0:0:0:0:
25,192,24478,128,0,24621:0:0:0:0:
128,192,24621,128,0,24765:0:0:0:0:
281,192,24621,1,0,0:0:0:0:
384,192,24765,1,0,0:0:0:0:
25,192,24765,128,0,24908:0:0:0:0:
179,192,24908,128,0,25338:0:0:0:0:
486,192,24908,1,0,0:0:0:0:
281,192,25195,1,0,0:0:0:0:
384,192,25338,1,0,0:0:0:0:
486,192,25481,1,0,0:0:0:0:
384,192,25625,1,0,0:0:0:0:
76,192,25625,128,0,25768:0:0:0:0:
179,192,25768,128,0,25911:0:0:0:0:
281,192,25768,1,0,0:0:0:0:
76,192,25911,128,0,26055:0:0:0:0:
384,192,26055,1,0,0:0:0:0:
230,192,26055,128,0,26914:0:0:0:0:
332,192,26341,1,0,0:0:0:0:
384,192,26484,1,0,0:0:0:0:
435,192,26628,1,0,0:0:0:0:
332,192,26914,1,0,0:0:0:0:
384,192,27058,1,0,0:0:0:0:
435,192,27201,1,0,0:0:0:0:
179,192,27344,128,0,27416:0:0:0:0:
230,192,27344,128,0,27416:0:0:0:0:
486,192,27488,1,0,0:0:0:0:
128,192,27488,128,0,27559:0:0:0:0:
76,192,27488,128,0,27559:0:0:0:0:
435,192,27631,1,0,0:0:0:0:
384,192,27774,1,0,0:0:0:0:
179,192,27774,128,0,27882:0:0:0:0:
128,192,27774,128,0,27882:0:0:0:0:
435,192,28061,1,0,0:0:0:0:
25,192,28061,128,0,28169:0:0:0:0:
76,192,28061,128,0,28169:0:0:0:0:
384,192,28204,1,0,0:0:0:0:
332,192,28348,1,0,0:0:0:0:
179,192,28348,1,0,0:0:0:0:
