osu file format v14

[General]
AudioFilename: audio.mp3
AudioLeadIn: 0
PreviewTime: 56494
Countdown: 1
SampleSet: None
StackLeniency: 0.7
Mode: 0
LetterboxInBreaks: 0
WidescreenStoryboard: 0

[Editor]
DistanceSpacing: 1.8
BeatDivisor: 4
GridSize: 4
TimelineZoom: 1

[Metadata]
Title:Contrail
TitleUnicode:Contrail
Artist:tsundeRECords
ArtistUnicode:tsundeRECords
Creator:MagicNAT
Version:Insane
Source:
Tags:
BeatmapID:1074826
BeatmapSetID:505239

[Difficulty]
HPDrainRate:7
CircleSize:4
OverallDifficulty:6.5
ApproachRate:8.8
SliderMultiplier:1.8
SliderTickRate:1

[Events]
//Background and Video events
//Break Periods
2,53861,55865
//Storyboard Layer 0 (Background)
//Storyboard Layer 1 (Fail)
//Storyboard Layer 2 (Pass)
//Storyboard Layer 3 (Foreground)
//Storyboard Sound Samples

[TimingPoints]
495,666.666666666667,4,2,0,60,1,0
21828,333.333333333333,4,2,0,100,1,0
56494,-100,4,2,0,100,0,1
67161,-100,4,2,0,100,0,0

[HitObjects]
117,82,495,5,0,0:0:0:0:
332,228,828,2,0,P|382:246|439:231,1,90
241,44,1328,1,0,0:0:0:0:
228,128,1495,1,0,0:0:0:0:
79,212,1828,1,0,0:0:0:0:
116,214,2495,1,0,0:0:0:0:
354,309,2828,1,0,0:0:0:0:
290,150,3161,1,0,0:0:0:0:
258,180,3828,6,0,P|216:201|164:193,1,90
204,121,4328,1,0,0:0:0:0:
282,64,4495,1,0,0:0:0:0:
320,97,5161,1,0,0:0:0:0:
153,138,5495,1,0,0:0:0:0:
140,222,5661,1,0,0:0:0:0:
213,266,5828,5,0,0:0:0:0:
376,84,6161,2,0,P|429:69|465:34,1,90
292,104,6661,1,0,0:0:0:0:
321,184,6828,1,0,0:0:0:0:
164,114,7161,1,0,0:0:0:0:
210,138,7828,1,0,0:0:0:0:
72,239,8161,1,0,0:0:0:0:
241,212,8495,6,0,P|286:186|323:126,1,90
149,131,9161,1,0,0:0:0:0:
129,163,9328,1,0,0:0:0:0:
354,256,9828,2,0,P|317:298|267:316,1,90
269,141,10495,2,0,P|313:122|321:122,1,45
317,207,10828,1,0,0:0:0:0:
173,114,11161,1,0,0:0:0:0:
344,123,11495,1,0,0:0:0:0:
403,283,11828,1,0,0:0:0:0:
326,243,11995,2,0,P|281:237|263:240,1,45
257,257,12495,1,0,0:0:0:0:
426,30,13161,5,0,0:0:0:0:
404,63,13328,1,0,0:0:0:0:
112,64,13828,1,0,0:0:0:0:
376,280,14495,1,0,0:0:0:0:
299,243,14661,1,0,0:0:0:0:
217,270,14828,1,0,0:0:0:0:
81,181,15161,1,0,0:0:0:0:
243,81,15828,5,0,0:0:0:0:
265,103,15995,1,0,0:0:0:0:
47,242,16495,1,0,0:0:0:0:
370,239,17161,1,0,0:0:0:0:
384,207,17328,1,0,0:0:0:0:
175,132,17828,1,0,0:0:0:0:
341,301,18495,2,0,P|389:289|401:284,2,45
293,136,19161,2,0,P|336:118|386:122,1,90
196,272,20328,2,0,P|151:289|132:291,1,45
132,115,21495,5,0,0:0:0:0:
209,197,21661,1,0,0:0:0:0:
325,71,21828,1,0,0:0:0:0:
76,305,22161,1,0,0:0:0:0:
417,299,22494,1,0,0:0:0:0:
95,69,22828,1,0,0:0:0:0:
421,170,23161,5,0,0:0:0:0:
91,258,23494,1,0,0:0:0:0:
430,299,23827,1,0,0:0:0:0:
211,35,24161,1,0,0:0:0:0:
100,324,24494,5,0,0:0:0:0:
411,183,24827,1,0,0:0:0:0:
80,91,25161,1,0,0:0:0:0:
322,331,25494,1,0,0:0:0:0:
411,52,25827,5,0,0:0:0:0:
386,90,26161,1,0,0:0:0:0:
155,205,26494,1,0,0:0:0:0:
162,312,26661,1,0,0:0:0:0:
267,333,26827,1,0,0:0:0:0:
462,51,27161,5,0,0:0:0:0:
155,205,27494,1,0,0:0:0:0:
430,315,27827,1,0,0:0:0:0:
214,48,28161,1,0,0:0:0:0:
431,93,28494,5,0,0:0:0:0:
157,297,28827,1,0,0:0:0:0:
444,316,29161,1,0,0:0:0:0:
209,67,29494,1,0,0:0:0:0:
98,261,29827,5,0,0:0:0:0:
437,218,30161,1,0,0:0:0:0:
107,128,30494,1,0,0:0:0:0:
365,351,30827,1,0,0:0:0:0:
101,52,31161,5,0,0:0:0:0:
126,90,31495,1,0,0:0:0:0:
357,205,31828,1,0,0:0:0:0:
350,312,31995,1,0,0:0:0:0:
245,333,32161,1,0,0:0:0:0:
294,112,32494,5,0,0:0:0:0:
99,227,32827,1,0,0:0:0:0:
439,264,33161,1,0,0:0:0:0:
376,153,33327,1,0,0:0:0:0:
295,244,33494,1,0,0:0:0:0:
271,42,33827,5,0,0:0:0:0:
75,181,34161,1,0,0:0:0:0:
378,198,34494,2,0,P|419:226|468:224,1,90
307,286,34827,2,0,P|256:317|203:318,1,90
297,173,35161,5,0,0:0:0:0:
98,105,35494,1,0,0:0:0:0:
420,72,35827,1,0,0:0:0:0:
383,230,35994,1,0,0:0:0:0:
228,181,36161,1,0,0:0:0:0:
149,63,36494,5,0,0:0:0:0:
188,83,36827,1,0,0:0:0:0:
409,319,37161,1,0,0:0:0:0:
423,158,37327,1,0,0:0:0:0:
319,283,37494,1,0,0:0:0:0:
294,122,37661,5,0,0:0:0:0:
260,143,37744,1,0,0:0:0:0:
229,173,37827,1,0,0:0:0:0:
377,239,37994,1,0,0:0:0:0:
226,299,38161,1,0,0:0:0:0:
123,174,38327,1,0,0:0:0:0:
253,78,38494,1,0,0:0:0:0:
121,294,38661,1,0,0:0:0:0:
323,303,38827,1,0,0:0:0:0:
377,135,39161,5,0,0:0:0:0:
240,221,39327,1,0,0:0:0:0:
290,66,39494,1,0,0:0:0:0:
346,218,39661,1,0,0:0:0:0:
214,124,39827,1,0,0:0:0:0:
116,253,39994,1,0,0:0:0:0:
31,114,40161,1,0,0:0:0:0:
214,195,40494,5,0,0:0:0:0:
148,46,40661,1,0,0:0:0:0:
279,139,40827,1,0,0:0:0:0:
116,143,40994,1,0,0:0:0:0:
207,277,41161,1,0,0:0:0:0:
357,219,41327,1,0,0:0:0:0:
317,61,41494,1,0,0:0:0:0:
446,88,41827,5,0,0:0:0:0:
424,248,41994,1,0,0:0:0:0:
316,126,42161,1,0,0:0:0:0:
232,263,42327,1,0,0:0:0:0:
148,123,42494,1,0,0:0:0:0:
291,47,42661,1,0,0:0:0:0:
182,151,42827,1,0,0:0:0:0:
328,81,42994,5,0,0:0:0:0:
341,106,43161,1,0,0:0:0:0:
132,79,43494,1,0,0:0:0:0:
139,242,43827,1,0,0:0:0:0:
331,247,44161,1,0,0:0:0:0:
375,145,44327,5,0,0:0:0:0:
344,134,44494,1,0,0:0:0:0:
152,104,44827,1,0,0:0:0:0:
115,271,45161,1,0,0:0:0:0:
364,64,45494,1,0,0:0:0:0:
264,191,45661,5,0,0:0:0:0:
253,171,45744,1,0,0:0:0:0:
244,156,45827,1,0,0:0:0:0:
161,163,46161,1,0,0:0:0:0:
156,297,46494,1,0,0:0:0:0:
316,277,46827,1,0,0:0:0:0:
275,99,46994,1,0,0:0:0:0:
351,90,47161,5,0,0:0:0:0:
215,211,47494,1,0,0:0:0:0:
449,64,47827,1,0,0:0:0:0:
446,226,47994,1,0,0:0:0:0:
284,238,48161,1,0,0:0:0:0:
336,151,48411,5,0,0:0:0:0:
303,154,48494,1,0,0:0:0:0:
161,139,48827,1,0,0:0:0:0:
230,280,49161,1,0,0:0:0:0:
388,312,49327,1,0,0:0:0:0:
314,167,49494,1,0,0:0:0:0:
230,280,49827,5,0,0:0:0:0:
93,104,50161,1,0,0:0:0:0:
230,280,50494,1,0,0:0:0:0:
319,144,50661,1,0,0:0:0:0:
443,246,50827,1,0,0:0:0:0:
266,245,50994,5,0,0:0:0:0:
246,264,51077,1,0,0:0:0:0:
230,280,51161,1,0,0:0:0:0:
141,189,51327,1,0,0:0:0:0:
319,144,51494,1,0,0:0:0:0:
225,11,51661,1,0,0:0:0:0:
242,171,51827,1,0,0:0:0:0:
122,61,51994,1,0,0:0:0:0:
283,77,52161,1,0,0:0:0:0:
137,147,52327,1,0,0:0:0:0:
59,289,52494,5,0,0:0:0:0:
210,265,52661,1,0,0:0:0:0:
361,319,52827,5,0,0:0:0:0:
199,302,52994,5,0,0:0:0:0:
332,208,53161,5,0,0:0:0:0:
309,188,53244,5,0,0:0:0:0:
274,174,53327,5,0,0:0:0:0:
233,166,53411,5,0,0:0:0:0:
196,170,53494,5,0,0:0:0:0:
120,230,53661,5,0,0:0:0:0:
173,117,56494,5,0,0:0:0:0:
428,93,56827,1,0,0:0:0:0:
150,261,57161,2,0,P|101:274|58:267,2,90
398,53,57827,1,0,0:0:0:0:
347,259,58327,1,0,0:0:0:0:
239,137,58494,1,0,0:0:0:0:
60,314,58827,1,0,0:0:0:0:
219,345,58994,1,0,0:0:0:0:
133,207,59161,5,0,0:0:0:0:
335,75,59494,2,0,P|388:102|419:147,1,90
246,141,59827,1,0,0:0:0:0:
476,184,60161,2,0,P|436:216|388:215,1,90
316,78,60494,1,0,0:0:0:0:
203,257,60827,1,0,0:0:0:0:
222,95,60994,1,0,0:0:0:0:
76,118,61161,1,0,0:0:0:0:
122,122,61494,2,0,P|176:122|245:91,1,90
67,34,61827,1,0,0:0:0:0:
375,133,62161,6,0,P|440:129|486:102,1,90
324,33,62494,1,0,0:0:0:0:
289,191,62661,1,0,0:0:0:0:
163,90,62827,1,0,0:0:0:0:
86,325,63161,1,0,0:0:0:0:
388,210,63494,2,0,P|364:258|321:283,1,90
323,116,63827,1,0,0:0:0:0:
220,198,64161,6,0,P|192:237|152:254,1,90
150,91,64494,1,0,0:0:0:0:
406,288,64827,1,0,0:0:0:0:
355,102,65161,2,0,P|406:100|455:117,1,90
389,190,65494,1,0,0:0:0:0:
292,189,65827,1,0,0:0:0:0:
143,122,65994,2,0,P|101:95|86:81,2,45
300,83,66327,1,0,0:0:0:0:
191,204,66494,2,0,P|154:230|89:242,1,90
263,296,66827,2,0,P|316:328|362:328,1,90
326,168,67161,5,0,0:0:0:0:
191,197,67327,1,0,0:0:0:0:
90,106,67494,1,0,0:0:0:0:
177,283,67827,2,0,P|124:315|91:311,2,90
51,164,68494,1,0,0:0:0:0:
219,89,69161,5,0,0:0:0:0:
377,56,69327,1,0,0:0:0:0:
409,215,69494,1,0,0:0:0:0:
86,238,69827,2,0,P|52:279|9:301,1,90
207,139,70161,2,0,P|247:101|313:77,1,90
172,252,70494,1,0,0:0:0:0:
313,331,70661,1,0,0:0:0:0:
378,183,70827,1,0,0:0:0:0:
104,134,71161,1,0,0:0:0:0:
349,73,71827,6,0,P|337:125|306:158,1,90
241,95,72161,2,0,P|214:137|174:153,1,90
67,33,72494,1,0,0:0:0:0:
86,232,73161,6,0,P|121:267|161:283,1,90
179,191,73494,2,0,P|228:226|262:234,1,90
237,72,73827,1,0,0:0:0:0:
406,141,74494,5,0,0:0:0:0:
243,133,74661,1,0,0:0:0:0:
345,257,74827,1,0,0:0:0:0:
76,74,75161,1,0,0:0:0:0:
207,266,76161,2,0,P|276:284|316:253,1,90
201,142,76494,1,0,0:0:0:0:
112,90,77827,6,0,P|151:142|188:155,1,90
295,44,78161,2,0,P|259:72|200:82,1,90
67,17,78494,1,0,0:0:0:0:
111,173,78661,1,0,0:0:0:0:
194,35,78827,1,0,0:0:0:0:
57,123,78994,1,0,0:0:0:0:
216,151,79161,2,0,P|261:178|281:234,1,90
123,260,79494,1,0,0:0:0:0:
443,306,79827,1,0,0:0:0:0:
253,42,80161,5,0,0:0:0:0:
225,87,80494,6,0,P|191:120|142:129,1,90
310,156,80827,1,0,0:0:0:0:
426,268,80994,1,0,0:0:0:0:
263,264,81161,2,0,P|200:293|162:292,1,90
155,133,81494,1,0,0:0:0:0:
40,248,81661,1,0,0:0:0:0:
198,219,81827,1,0,0:0:0:0:
401,62,82161,1,0,0:0:0:0:
468,329,82494,1,0,0:0:0:0:
181,83,82827,1,0,0:0:0:0:
197,130,83161,6,0,P|173:186|136:201,1,90
311,193,83494,1,0,0:0:0:0:
228,53,83661,1,0,0:0:0:0:
220,174,83827,6,0,P|196:230|159:245,1,90
334,237,84160,1,0,0:0:0:0:
251,97,84327,1,0,0:0:0:0:
98,152,84494,1,0,0:0:0:0:
367,330,84827,1,0,0:0:0:0:
53,244,85161,1,0,0:0:0:0:
171,42,85494,1,0,0:0:0:0:
217,74,85661,6,0,P|261:94|327:90,1,90
462,69,85994,1,0,0:0:0:0:
357,193,86161,1,0,0:0:0:0:
264,60,86327,1,0,0:0:0:0:
159,184,86494,1,0,0:0:0:0:
200,196,86827,5,0,0:0:0:0:
229,207,86994,1,0,0:0:0:0:
345,94,87161,1,0,0:0:0:0:
413,324,87494,1,0,0:0:0:0:
119,297,87827,1,0,0:0:0:0:
458,124,88161,1,0,0:0:0:0:
121,135,88494,6,0,P|163:163|215:165,1,90
87,51,88827,1,0,0:0:0:0:
401,132,89161,1,0,0:0:0:0:
450,238,89327,1,0,0:0:0:0:
346,317,89494,1,0,0:0:0:0:
107,97,89827,1,0,0:0:0:0:
