osu file format v14

[General]
AudioFilename: audio.mp3
AudioLeadIn: 0
PreviewTime: 58088
Countdown: 0
SampleSet: Normal
StackLeniency: 0.7
Mode: 1
LetterboxInBreaks: 0
WidescreenStoryboard: 1

[Editor]
DistanceSpacing: 1
BeatDivisor: 3
GridSize: 4
TimelineZoom: 1.8

[Metadata]
Title:Period. ~ Seishin no Kousoku to Jiyuu o Tsukamu Jouka
TitleUnicode:Period. ~ 精神ノ拘束ト自由ヲ掴ム浄化
Artist:tsunamix_underground
ArtistUnicode:tsunamix_underground
Creator:Horiiizon
Version:Muzukashii
Source:東方Project
Tags:Genjuro Touhou Celestian C-CLAYS 天空のグリニッジ 水斎 -Prism- Greenwich In The Sky Usami Renko Maribel Hearn Han Team Shanghai Alice ZUN 大空魔術 ~ Magical Astronomy 上海アリス幻樂団 Techno Suisai c82 comic market comiket コミックマーケット82 コミケット マエリベリー・ハーン 宇佐見蓮子 K2 SOUND Haan Celestial Wizardry Oozora Majutsu electronic instrumental video game
BeatmapID:3168258
BeatmapSetID:1550437

[Difficulty]
HPDrainRate:6
CircleSize:5
OverallDifficulty:5
ApproachRate:5
SliderMultiplier:1.4
SliderTickRate:1

[Events]
//Background and Video events
0,0,"!!!.jpg",0,120
//Break Periods
//Storyboard Layer 0 (Background)
//Storyboard Layer 1 (Fail)
//Storyboard Layer 2 (Pass)
//Storyboard Layer 3 (Foreground)
//Storyboard Layer 4 (Overlay)
//Storyboard Sound Samples

[TimingPoints]
488,400,4,1,0,50,1,0
3638,-100,4,1,0,60,0,0
6838,-100,4,1,0,70,0,0
11638,-100,4,1,0,50,0,0
13238,-100,4,1,0,80,0,0
24438,-100,4,1,0,50,0,0
26038,-100,4,1,0,80,0,0
38838,-100,4,1,0,100,0,0
38888,-83.3333333333333,4,1,0,100,0,1
51638,-83.3333333333333,4,1,0,60,0,1
51688,-100,4,1,0,60,0,0
57238,-100,4,1,0,80,0,0
58038,-100,4,1,0,100,0,0
58088,-83.3333333333333,4,1,0,100,0,1
70838,-83.3333333333333,4,1,0,80,0,1
70888,-100,4,1,0,80,0,0
95788,-100,4,1,0,80,0,0
96438,-83.3333333333333,4,1,0,100,0,0
96488,-83.3333333333333,4,1,0,100,0,1
109238,-83.3333333333333,4,1,0,60,0,1
109288,-83.3333333333333,4,1,0,60,0,0
109888,-100,4,1,0,60,0,0
112438,-100,4,1,0,80,0,0
163638,-100,4,1,0,100,0,0
163688,-83.3333333333333,4,1,0,100,0,1
176438,-83.3333333333333,4,1,0,60,0,1
176488,-83.3333333333333,4,1,0,60,0,0
177088,-100,4,1,0,60,0,0
179638,-100,4,1,0,40,0,0

[HitObjects]
201,175,488,5,0,0:0:0:0:
187,191,588,1,0,0:0:0:0:
180,197,788,1,0,0:0:0:0:
178,170,1288,1,0,0:0:0:0:
174,184,1388,1,0,0:0:0:0:
166,163,1588,1,0,0:0:0:0:
176,166,2088,1,0,0:0:0:0:
178,170,2188,1,0,0:0:0:0:
182,169,2388,1,0,0:0:0:0:
190,175,2888,1,0,0:0:0:0:
172,179,3088,1,0,0:0:0:0:
172,179,3288,1,0,0:0:0:0:
181,182,3688,1,0,0:0:0:0:
155,145,3788,1,0,0:0:0:0:
191,153,4088,1,8,0:0:0:0:
157,177,4488,1,0,0:0:0:0:
157,137,4588,1,0,0:0:0:0:
157,137,4888,1,8,0:0:0:0:
161,147,5288,1,0,0:0:0:0:
171,139,5388,1,0,0:0:0:0:
167,113,5688,1,8,0:0:0:0:
194,210,6088,1,0,0:0:0:0:
198,155,6288,1,8,0:0:0:0:
185,195,6488,1,0,0:0:0:0:
179,140,6888,1,0,0:0:0:0:
169,121,7088,1,0,0:0:0:0:
166,123,7288,1,8,0:0:0:0:
160,130,7688,1,0,0:0:0:0:
180,106,7788,1,0,0:0:0:0:
131,100,7888,1,0,0:0:0:0:
211,137,8088,1,8,0:0:0:0:
169,152,8488,1,0,0:0:0:0:
176,118,8688,1,0,0:0:0:0:
176,118,8888,1,8,0:0:0:0:
141,141,9288,1,0,0:0:0:0:
184,76,9488,1,0,0:0:0:0:
206,144,9688,1,0,0:0:0:0:
176,132,10088,1,0,0:0:0:0:
160,145,10288,1,8,0:0:0:0:
158,147,10388,1,8,0:0:0:0:
158,141,10488,1,8,0:0:0:0:
160,130,10888,1,0,0:0:0:0:
178,129,11088,1,8,0:0:0:0:
171,128,11188,1,8,0:0:0:0:
151,111,11288,1,8,0:0:0:0:
154,112,11688,1,0,0:0:0:0:
152,113,11788,1,0,0:0:0:0:
214,142,11988,1,0,0:0:0:0:
141,141,12488,1,0,0:0:0:0:
162,159,12688,1,0,0:0:0:0:
161,164,12888,1,0,0:0:0:0:
167,150,13288,1,8,0:0:0:0:
149,149,13388,1,8,0:0:0:0:
179,155,13588,1,0,0:0:0:0:
149,131,13788,1,8,0:0:0:0:
161,117,13988,1,0,0:0:0:0:
174,112,14088,1,0,0:0:0:0:
159,126,14488,1,8,0:0:0:0:
174,128,14888,1,0,0:0:0:0:
171,120,14988,1,0,0:0:0:0:
172,122,15288,1,8,0:0:0:0:
162,111,15688,1,0,0:0:0:0:
164,114,15888,1,0,0:0:0:0:
162,126,16088,1,8,0:0:0:0:
178,157,16488,1,8,0:0:0:0:
178,157,16588,1,8,0:0:0:0:
163,131,16788,1,0,0:0:0:0:
169,131,16988,1,8,0:0:0:0:
147,102,17188,1,0,0:0:0:0:
185,178,17288,1,0,0:0:0:0:
159,126,17688,1,8,0:0:0:0:
174,128,18088,1,0,0:0:0:0:
171,120,18188,1,0,0:0:0:0:
172,122,18488,1,8,0:0:0:0:
159,127,18888,1,8,0:0:0:0:
159,127,18988,1,8,0:0:0:0:
173,140,19088,1,8,0:0:0:0:
160,114,19288,1,8,0:0:0:0:
166,152,19688,1,8,0:0:0:0:
166,152,19788,1,8,0:0:0:0:
149,88,19988,1,0,0:0:0:0:
149,88,20188,1,8,0:0:0:0:
161,116,20388,1,0,0:0:0:0:
185,178,20488,1,0,0:0:0:0:
159,126,20888,1,8,0:0:0:0:
174,128,21288,1,0,0:0:0:0:
171,120,21388,1,0,0:0:0:0:
172,122,21688,1,8,0:0:0:0:
162,111,22088,1,0,0:0:0:0:
164,114,22288,1,0,0:0:0:0:
162,126,22488,1,8,0:0:0:0:
157,172,22888,1,8,0:0:0:0:
157,172,22988,1,8,0:0:0:0:
167,121,23188,1,0,0:0:0:0:
162,126,23388,1,8,0:0:0:0:
166,127,23588,1,0,0:0:0:0:
185,178,23688,1,0,0:0:0:0:
159,126,24088,1,8,0:0:0:0:
174,128,24488,1,0,0:0:0:0:
158,172,24788,1,0,0:0:0:0:
200,196,26088,1,12,0:0:0:0:
168,150,26388,1,8,0:0:0:0:
171,120,26688,1,8,0:0:0:0:
164,136,26888,1,0,0:0:0:0:
211,174,27154,1,0,0:0:0:0:
165,132,27288,1,0,0:0:0:0:
175,149,27688,1,8,0:0:0:0:
185,142,27988,1,8,0:0:0:0:
171,124,28288,1,0,0:0:0:0:
201,182,28488,1,8,0:0:0:0:
207,142,28754,1,8,0:0:0:0:
201,182,28888,1,8,0:0:0:0:
175,149,29288,1,8,0:0:0:0:
185,142,29588,1,8,0:0:0:0:
171,100,29888,1,8,0:0:0:0:
176,175,30088,1,0,0:0:0:0:
160,120,30354,1,0,0:0:0:0:
155,151,30488,1,0,0:0:0:0:
165,109,30888,1,8,0:0:0:0:
173,122,31188,1,8,0:0:0:0:
144,175,31488,1,0,0:0:0:0:
159,125,31688,1,8,0:0:0:0:
156,122,31954,1,8,0:0:0:0:
185,106,32088,1,8,0:0:0:0:
177,100,32488,1,8,0:0:0:0:
179,92,32788,1,8,0:0:0:0:
181,93,33088,1,8,0:0:0:0:
156,136,33288,1,0,0:0:0:0:
170,88,33554,1,0,0:0:0:0:
144,133,33688,1,0,0:0:0:0:
152,75,34088,1,8,0:0:0:0:
161,120,34388,1,8,0:0:0:0:
164,113,34688,1,0,0:0:0:0:
180,130,34888,1,8,0:0:0:0:
158,122,35154,1,8,0:0:0:0:
159,103,35288,1,8,0:0:0:0:
175,149,35688,1,8,0:0:0:0:
185,142,35988,1,8,0:0:0:0:
187,81,36288,1,8,0:0:0:0:
161,139,36488,1,0,0:0:0:0:
160,120,36754,1,0,0:0:0:0:
166,121,36888,1,0,0:0:0:0:
165,109,37288,1,8,0:0:0:0:
173,122,37588,1,8,0:0:0:0:
144,175,37888,1,0,0:0:0:0:
166,117,38088,1,8,0:0:0:0:
185,103,38354,1,8,0:0:0:0:
185,106,38488,1,8,0:0:0:0:
200,196,38888,1,12,0:0:0:0:
168,150,39188,1,8,0:0:0:0:
171,120,39488,1,8,0:0:0:0:
164,136,39688,1,0,0:0:0:0:
188,177,39821,1,0,0:0:0:0:
211,174,39954,1,0,0:0:0:0:
165,132,40088,1,0,0:0:0:0:
205,160,40354,1,0,0:0:0:0:
175,149,40488,1,8,0:0:0:0:
185,142,40788,1,8,0:0:0:0:
171,124,41088,1,0,0:0:0:0:
201,182,41288,1,8,0:0:0:0:
207,142,41421,1,8,0:0:0:0:
207,142,41554,1,8,0:0:0:0:
201,182,41688,1,8,0:0:0:0:
175,149,42088,1,8,0:0:0:0:
185,142,42388,1,8,0:0:0:0:
171,100,42688,1,8,0:0:0:0:
176,175,42888,1,0,0:0:0:0:
173,179,43021,1,0,0:0:0:0:
160,120,43154,1,0,0:0:0:0:
155,151,43288,1,0,0:0:0:0:
171,172,43554,1,0,0:0:0:0:
165,109,43688,1,8,0:0:0:0:
173,122,43988,1,8,0:0:0:0:
144,175,44288,1,0,0:0:0:0:
159,125,44488,1,8,0:0:0:0:
156,122,44621,1,8,0:0:0:0:
156,122,44754,1,8,0:0:0:0:
185,106,44888,1,8,0:0:0:0:
177,100,45288,1,8,0:0:0:0:
179,92,45588,1,8,0:0:0:0:
181,93,45888,1,8,0:0:0:0:
156,136,46088,1,0,0:0:0:0:
167,202,46221,1,0,0:0:0:0:
170,88,46354,1,0,0:0:0:0:
144,133,46488,1,0,0:0:0:0:
176,158,46754,1,0,0:0:0:0:
152,75,46888,1,8,0:0:0:0:
161,120,47188,1,8,0:0:0:0:
164,113,47488,1,0,0:0:0:0:
180,130,47688,1,8,0:0:0:0:
162,122,47821,1,8,0:0:0:0:
158,122,47954,1,8,0:0:0:0:
159,103,48088,1,8,0:0:0:0:
175,149,48488,1,8,0:0:0:0:
185,142,48788,1,8,0:0:0:0:
187,81,49088,1,8,0:0:0:0:
161,139,49288,1,0,0:0:0:0:
176,194,49421,1,0,0:0:0:0:
160,120,49554,1,0,0:0:0:0:
166,121,49688,1,0,0:0:0:0:
167,137,49954,1,0,0:0:0:0:
165,109,50088,1,8,0:0:0:0:
173,122,50388,1,8,0:0:0:0:
144,175,50688,5,0,0:0:0:0:
166,117,50888,1,8,0:0:0:0:
186,112,51021,1,8,0:0:0:0:
185,103,51154,1,8,0:0:0:0:
185,106,51288,1,8,0:0:0:0:
169,194,51688,5,4,0:0:0:0:
189,154,52088,1,8,0:0:0:0:
177,147,52488,1,0,0:0:0:0:
196,114,53088,1,8,0:0:0:0:
195,114,53288,1,0,0:0:0:0:
186,123,53588,1,0,0:0:0:0:
161,148,53888,1,8,0:0:0:0:
168,143,54088,1,0,0:0:0:0:
152,140,54688,1,0,0:0:0:0:
152,140,54888,1,8,0:0:0:0:
146,142,55288,1,0,0:0:0:0:
154,114,55488,1,0,0:0:0:0:
143,140,55688,1,8,0:0:0:0:
163,122,55988,1,8,0:0:0:0:
154,122,56288,1,0,0:0:0:0:
153,91,56488,1,0,0:0:0:0:
159,113,57288,1,8,0:0:0:0:
191,150,57488,1,8,0:0:0:0:
204,151,57688,1,0,0:0:0:0:
204,151,57788,1,0,0:0:0:0:
198,150,57888,1,0,0:0:0:0:
200,196,58088,1,12,0:0:0:0:
168,150,58388,1,8,0:0:0:0:
171,120,58688,1,8,0:0:0:0:
164,136,58888,1,0,0:0:0:0:
188,177,59021,1,0,0:0:0:0:
211,174,59154,1,0,0:0:0:0:
165,132,59288,1,0,0:0:0:0:
205,160,59554,1,0,0:0:0:0:
175,149,59688,1,8,0:0:0:0:
185,142,59988,1,8,0:0:0:0:
171,124,60288,1,0,0:0:0:0:
201,182,60488,1,8,0:0:0:0:
207,142,60621,1,8,0:0:0:0:
207,142,60754,1,8,0:0:0:0:
201,182,60888,1,8,0:0:0:0:
175,149,61288,1,8,0:0:0:0:
185,142,61588,1,8,0:0:0:0:
171,100,61888,1,8,0:0:0:0:
176,175,62088,1,0,0:0:0:0:
173,179,62221,1,0,0:0:0:0:
160,120,62354,1,0,0:0:0:0:
155,151,62488,1,0,0:0:0:0:
171,172,62754,1,0,0:0:0:0:
165,109,62888,1,8,0:0:0:0:
173,122,63188,1,8,0:0:0:0:
144,175,63488,1,0,0:0:0:0:
159,125,63688,1,8,0:0:0:0:
156,122,63821,1,8,0:0:0:0:
156,122,63954,1,8,0:0:0:0:
185,106,64088,1,8,0:0:0:0:
177,100,64488,1,8,0:0:0:0:
179,92,64788,1,8,0:0:0:0:
181,93,65088,1,8,0:0:0:0:
156,136,65288,1,0,0:0:0:0:
167,202,65421,1,0,0:0:0:0:
170,88,65554,1,0,0:0:0:0:
144,133,65688,1,0,0:0:0:0:
176,158,65954,1,0,0:0:0:0:
152,75,66088,1,8,0:0:0:0:
161,120,66388,1,8,0:0:0:0:
164,113,66688,1,0,0:0:0:0:
180,130,66888,1,8,0:0:0:0:
162,122,67021,1,8,0:0:0:0:
158,122,67154,1,8,0:0:0:0:
159,103,67288,1,8,0:0:0:0:
175,149,67688,1,8,0:0:0:0:
185,142,67988,1,8,0:0:0:0:
187,81,68288,1,8,0:0:0:0:
161,139,68488,1,0,0:0:0:0:
176,194,68621,1,0,0:0:0:0:
160,120,68754,1,0,0:0:0:0:
166,121,68888,1,0,0:0:0:0:
167,137,69154,1,0,0:0:0:0:
165,109,69288,1,8,0:0:0:0:
173,122,69588,1,8,0:0:0:0:
144,175,69888,5,0,0:0:0:0:
166,117,70088,1,8,0:0:0:0:
186,112,70221,1,8,0:0:0:0:
185,103,70354,1,8,0:0:0:0:
185,106,70488,1,8,0:0:0:0:
160,202,70888,5,4,0:0:0:0:
191,146,71088,1,0,0:0:0:0:
156,158,71288,1,8,0:0:0:0:
156,160,71488,1,0,0:0:0:0:
168,173,71888,1,0,0:0:0:0:
173,146,72088,1,8,0:0:0:0:
169,107,72488,1,0,0:0:0:0:
184,96,72688,1,0,0:0:0:0:
171,100,72888,1,0,0:0:0:0:
185,106,73088,1,8,0:0:0:0:
126,128,73488,1,8,0:0:0:0:
173,150,73688,1,0,0:0:0:0:
213,117,74088,1,0,0:0:0:0:
178,155,74288,1,0,0:0:0:0:
178,155,74488,1,8,0:0:0:0:
178,155,74688,1,0,0:0:0:0:
166,127,75088,1,0,0:0:0:0:
171,122,75288,1,8,0:0:0:0:
183,121,75688,1,8,0:0:0:0:
194,157,76088,1,8,0:0:0:0:
194,157,76288,1,0,0:0:0:0:
194,157,76388,1,0,0:0:0:0:
194,157,76588,1,8,0:0:0:0:
194,157,76688,1,8,0:0:0:0:
158,122,76888,1,0,0:0:0:0:
142,127,77288,1,0,0:0:0:0:
176,152,77488,1,0,0:0:0:0:
179,152,77688,1,8,0:0:0:0:
183,152,77888,1,0,0:0:0:0:
176,163,78288,1,0,0:0:0:0:
162,153,78488,1,8,0:0:0:0:
172,134,78888,1,0,0:0:0:0:
173,141,79088,1,0,0:0:0:0:
188,105,79288,1,0,0:0:0:0:
176,147,79488,1,8,0:0:0:0:
172,134,79888,1,8,0:0:0:0:
171,130,80088,1,0,0:0:0:0:
176,153,80488,1,0,0:0:0:0:
177,162,80688,1,0,0:0:0:0:
178,152,80888,1,8,0:0:0:0:
181,154,81088,1,0,0:0:0:0:
176,153,81488,1,0,0:0:0:0:
155,130,81688,1,8,0:0:0:0:
168,118,82088,1,0,0:0:0:0:
167,78,82488,1,0,0:0:0:0:
186,123,82688,1,8,0:0:0:0:
206,134,82788,1,8,0:0:0:0:
163,133,82988,1,0,0:0:0:0:
174,108,83088,1,0,0:0:0:0:
174,93,83288,1,8,0:0:0:0:
184,137,83688,1,4,0:0:0:0:
175,126,83888,1,0,0:0:0:0:
165,100,84088,1,8,0:0:0:0:
174,93,84288,1,0,0:0:0:0:
161,137,84688,1,0,0:0:0:0:
155,138,84888,1,8,0:0:0:0:
164,113,85288,1,0,0:0:0:0:
164,117,85488,1,0,0:0:0:0:
168,120,85688,1,0,0:0:0:0:
176,122,85888,1,8,0:0:0:0:
164,113,86288,1,8,0:0:0:0:
166,110,86488,1,0,0:0:0:0:
171,141,86888,1,0,0:0:0:0:
170,145,87088,1,0,0:0:0:0:
166,115,87288,1,8,0:0:0:0:
181,124,87488,1,0,0:0:0:0:
177,125,87888,1,0,0:0:0:0:
174,129,88088,1,8,0:0:0:0:
183,121,88488,1,8,0:0:0:0:
194,157,88888,1,8,0:0:0:0:
194,157,89088,1,0,0:0:0:0:
194,157,89188,1,0,0:0:0:0:
194,157,89388,1,8,0:0:0:0:
194,157,89488,1,8,0:0:0:0:
158,122,89688,1,0,0:0:0:0:
142,127,90088,1,0,0:0:0:0:
186,172,90288,1,0,0:0:0:0:
194,177,90488,1,8,0:0:0:0:
201,173,90688,1,0,0:0:0:0:
171,155,91088,1,0,0:0:0:0:
179,123,91288,1,8,0:0:0:0:
162,111,91688,1,0,0:0:0:0:
161,114,91888,1,0,0:0:0:0:
177,161,92088,1,0,0:0:0:0:
164,115,92288,1,8,0:0:0:0:
156,97,92688,1,8,0:0:0:0:
156,98,92888,1,0,0:0:0:0:
181,133,93288,1,0,0:0:0:0:
191,107,93488,1,0,0:0:0:0:
198,110,93688,1,8,0:0:0:0:
199,111,93888,1,0,0:0:0:0:
174,115,94288,1,0,0:0:0:0:
174,108,94488,1,8,0:0:0:0:
168,118,94888,1,0,0:0:0:0:
167,78,95288,1,0,0:0:0:0:
186,123,95488,1,8,0:0:0:0:
206,134,95588,1,8,0:0:0:0:
163,133,95788,1,0,0:0:0:0:
174,108,95888,1,0,0:0:0:0:
174,93,96088,1,8,0:0:0:0:
200,196,96488,1,12,0:0:0:0:
168,150,96788,1,8,0:0:0:0:
171,120,97088,1,8,0:0:0:0:
164,136,97288,1,0,0:0:0:0:
188,177,97421,1,0,0:0:0:0:
211,174,97554,1,0,0:0:0:0:
165,132,97688,1,0,0:0:0:0:
205,160,97954,1,0,0:0:0:0:
175,149,98088,1,8,0:0:0:0:
185,142,98388,1,8,0:0:0:0:
171,124,98688,1,0,0:0:0:0:
201,182,98888,1,8,0:0:0:0:
207,142,99021,1,8,0:0:0:0:
207,142,99154,1,8,0:0:0:0:
201,182,99288,1,8,0:0:0:0:
175,149,99688,1,8,0:0:0:0:
185,142,99988,1,8,0:0:0:0:
171,100,100288,1,8,0:0:0:0:
176,175,100488,1,0,0:0:0:0:
173,179,100621,1,0,0:0:0:0:
160,120,100754,1,0,0:0:0:0:
155,151,100888,1,0,0:0:0:0:
171,172,101154,1,0,0:0:0:0:
165,109,101288,1,8,0:0:0:0:
173,122,101588,1,8,0:0:0:0:
144,175,101888,1,0,0:0:0:0:
159,125,102088,1,8,0:0:0:0:
156,122,102221,1,8,0:0:0:0:
156,122,102354,1,8,0:0:0:0:
185,106,102488,1,8,0:0:0:0:
177,100,102888,1,8,0:0:0:0:
179,92,103188,1,8,0:0:0:0:
181,93,103488,1,8,0:0:0:0:
156,136,103688,1,0,0:0:0:0:
167,202,103821,1,0,0:0:0:0:
170,88,103954,1,0,0:0:0:0:
144,133,104088,1,0,0:0:0:0:
176,158,104354,1,0,0:0:0:0:
152,75,104488,1,8,0:0:0:0:
161,120,104788,1,8,0:0:0:0:
164,113,105088,1,0,0:0:0:0:
180,130,105288,1,8,0:0:0:0:
162,122,105421,1,8,0:0:0:0:
158,122,105554,1,8,0:0:0:0:
159,103,105688,1,8,0:0:0:0:
175,149,106088,1,8,0:0:0:0:
185,142,106388,1,8,0:0:0:0:
187,81,106688,1,8,0:0:0:0:
161,139,106888,1,0,0:0:0:0:
176,194,107021,1,0,0:0:0:0:
160,120,107154,1,0,0:0:0:0:
166,121,107288,1,0,0:0:0:0:
167,137,107554,1,0,0:0:0:0:
165,109,107688,1,8,0:0:0:0:
173,122,107988,1,8,0:0:0:0:
144,175,108288,5,0,0:0:0:0:
166,117,108488,1,8,0:0:0:0:
186,112,108621,1,8,0:0:0:0:
185,103,108754,1,8,0:0:0:0:
185,106,108888,1,8,0:0:0:0:
183,152,109288,5,12,0:0:0:0:
176,175,109888,5,8,0:0:0:0:
180,176,110088,1,0,0:0:0:0:
166,189,110288,1,8,0:0:0:0:
154,190,110488,1,0,0:0:0:0:
151,194,110588,1,0,0:0:0:0:
184,138,110688,1,0,0:0:0:0:
187,132,110888,1,8,0:0:0:0:
200,196,112488,1,12,0:0:0:0:
168,150,112788,1,8,0:0:0:0:
171,120,113088,1,8,0:0:0:0:
164,136,113288,1,0,0:0:0:0:
211,174,113554,1,0,0:0:0:0:
165,132,113688,1,0,0:0:0:0:
175,149,114088,1,8,0:0:0:0:
185,142,114388,1,8,0:0:0:0:
171,124,114688,1,0,0:0:0:0:
201,182,114888,1,8,0:0:0:0:
207,142,115154,1,8,0:0:0:0:
201,182,115288,1,8,0:0:0:0:
175,149,115688,1,8,0:0:0:0:
185,142,115988,1,8,0:0:0:0:
171,100,116288,1,8,0:0:0:0:
176,175,116488,1,0,0:0:0:0:
160,120,116754,1,0,0:0:0:0:
155,151,116888,1,0,0:0:0:0:
165,109,117288,1,8,0:0:0:0:
173,122,117588,1,8,0:0:0:0:
144,175,117888,1,0,0:0:0:0:
159,125,118088,1,8,0:0:0:0:
156,122,118354,1,8,0:0:0:0:
185,106,118488,1,8,0:0:0:0:
177,100,118888,1,8,0:0:0:0:
179,92,119188,1,8,0:0:0:0:
181,93,119488,1,8,0:0:0:0:
156,136,119688,1,0,0:0:0:0:
170,88,119954,1,0,0:0:0:0:
144,133,120088,1,0,0:0:0:0:
152,75,120488,1,8,0:0:0:0:
161,120,120788,1,8,0:0:0:0:
164,113,121088,5,0,0:0:0:0:
180,130,121288,1,8,0:0:0:0:
158,122,121554,1,8,0:0:0:0:
159,103,121688,1,8,0:0:0:0:
200,196,122088,1,8,0:0:0:0:
168,150,122388,1,8,0:0:0:0:
171,120,122688,1,8,0:0:0:0:
164,136,122888,1,0,0:0:0:0:
211,174,123154,1,0,0:0:0:0:
165,132,123288,1,0,0:0:0:0:
175,149,123688,1,8,0:0:0:0:
185,142,123988,1,8,0:0:0:0:
171,124,124288,1,0,0:0:0:0:
201,182,124488,1,8,0:0:0:0:
207,142,124754,1,8,0:0:0:0:
201,182,124888,1,8,0:0:0:0:
160,202,125288,5,4,0:0:0:0:
191,146,125488,1,0,0:0:0:0:
156,158,125688,1,8,0:0:0:0:
156,160,125888,1,0,0:0:0:0:
168,173,126288,1,0,0:0:0:0:
173,146,126488,1,8,0:0:0:0:
169,107,126888,1,0,0:0:0:0:
184,96,127088,1,0,0:0:0:0:
171,100,127288,1,0,0:0:0:0:
185,106,127488,1,8,0:0:0:0:
126,128,127888,1,8,0:0:0:0:
173,150,128088,1,0,0:0:0:0:
213,117,128488,1,0,0:0:0:0:
178,155,128688,1,0,0:0:0:0:
178,155,128888,1,8,0:0:0:0:
178,155,129088,1,0,0:0:0:0:
166,127,129488,1,0,0:0:0:0:
171,122,129688,1,8,0:0:0:0:
183,121,130088,1,8,0:0:0:0:
194,157,130488,1,8,0:0:0:0:
194,157,130688,1,0,0:0:0:0:
194,157,130788,1,0,0:0:0:0:
194,157,130988,1,8,0:0:0:0:
194,157,131088,1,8,0:0:0:0:
158,122,131288,1,0,0:0:0:0:
142,127,131688,1,0,0:0:0:0:
176,152,131888,1,0,0:0:0:0:
179,152,132088,1,8,0:0:0:0:
183,152,132288,1,0,0:0:0:0:
176,163,132688,1,0,0:0:0:0:
162,153,132888,1,8,0:0:0:0:
172,134,133288,1,0,0:0:0:0:
173,141,133488,1,0,0:0:0:0:
188,105,133688,1,0,0:0:0:0:
176,147,133888,1,8,0:0:0:0:
172,134,134288,1,8,0:0:0:0:
171,130,134488,1,0,0:0:0:0:
176,153,134888,1,0,0:0:0:0:
177,162,135088,1,0,0:0:0:0:
178,152,135288,1,8,0:0:0:0:
181,154,135488,1,0,0:0:0:0:
176,153,135888,1,0,0:0:0:0:
155,130,136088,1,8,0:0:0:0:
168,118,136488,1,0,0:0:0:0:
167,78,136888,1,0,0:0:0:0:
186,123,137088,1,8,0:0:0:0:
193,110,137488,1,8,0:0:0:0:
193,111,137688,1,0,0:0:0:0:
184,137,138088,1,4,0:0:0:0:
175,126,138288,1,0,0:0:0:0:
165,100,138488,1,8,0:0:0:0:
174,93,138688,1,0,0:0:0:0:
161,137,139088,1,0,0:0:0:0:
155,138,139288,1,8,0:0:0:0:
164,113,139688,1,0,0:0:0:0:
164,117,139888,1,0,0:0:0:0:
168,120,140088,1,0,0:0:0:0:
176,122,140288,1,8,0:0:0:0:
164,113,140688,1,8,0:0:0:0:
166,110,140888,1,0,0:0:0:0:
171,141,141288,1,0,0:0:0:0:
170,145,141488,1,0,0:0:0:0:
166,115,141688,1,8,0:0:0:0:
181,124,141888,1,0,0:0:0:0:
177,125,142288,1,0,0:0:0:0:
174,129,142488,1,8,0:0:0:0:
183,121,142888,1,8,0:0:0:0:
194,157,143288,1,8,0:0:0:0:
194,157,143488,1,0,0:0:0:0:
194,157,143588,1,0,0:0:0:0:
194,157,143788,1,8,0:0:0:0:
194,157,143888,1,8,0:0:0:0:
158,122,144088,1,0,0:0:0:0:
142,127,144488,1,0,0:0:0:0:
186,172,144688,1,0,0:0:0:0:
194,177,144888,1,8,0:0:0:0:
201,173,145088,1,0,0:0:0:0:
171,155,145488,1,0,0:0:0:0:
179,123,145688,1,8,0:0:0:0:
162,111,146088,1,0,0:0:0:0:
161,114,146288,1,0,0:0:0:0:
177,161,146488,1,0,0:0:0:0:
164,115,146688,1,8,0:0:0:0:
156,97,147088,1,8,0:0:0:0:
156,98,147288,1,0,0:0:0:0:
181,133,147688,1,0,0:0:0:0:
191,107,147888,1,0,0:0:0:0:
198,110,148088,1,8,0:0:0:0:
199,111,148288,1,0,0:0:0:0:
174,115,148688,1,0,0:0:0:0:
174,108,148888,1,8,0:0:0:0:
168,118,149288,1,0,0:0:0:0:
167,78,149688,1,0,0:0:0:0:
186,123,149888,1,8,0:0:0:0:
197,122,150288,1,8,0:0:0:0:
197,122,150488,1,0,0:0:0:0:
200,196,150888,1,12,0:0:0:0:
168,150,151188,1,8,0:0:0:0:
171,120,151488,1,8,0:0:0:0:
164,136,151688,1,0,0:0:0:0:
211,174,151954,1,0,0:0:0:0:
165,132,152088,1,0,0:0:0:0:
175,149,152488,1,8,0:0:0:0:
185,142,152788,1,8,0:0:0:0:
171,124,153088,1,0,0:0:0:0:
201,182,153288,1,8,0:0:0:0:
207,142,153554,1,8,0:0:0:0:
201,182,153688,1,8,0:0:0:0:
175,149,154088,1,8,0:0:0:0:
185,142,154388,1,8,0:0:0:0:
171,100,154688,1,8,0:0:0:0:
176,175,154888,1,0,0:0:0:0:
160,120,155154,1,0,0:0:0:0:
155,151,155288,1,0,0:0:0:0:
165,109,155688,1,8,0:0:0:0:
173,122,155988,1,8,0:0:0:0:
144,175,156288,1,0,0:0:0:0:
159,125,156488,1,8,0:0:0:0:
156,122,156754,1,8,0:0:0:0:
185,106,156888,1,8,0:0:0:0:
177,100,157288,1,8,0:0:0:0:
179,92,157588,1,8,0:0:0:0:
181,93,157888,1,8,0:0:0:0:
156,136,158088,1,0,0:0:0:0:
170,88,158354,1,0,0:0:0:0:
144,133,158488,1,0,0:0:0:0:
152,75,158888,1,8,0:0:0:0:
161,120,159188,1,8,0:0:0:0:
164,113,159488,1,0,0:0:0:0:
180,130,159688,1,8,0:0:0:0:
158,122,159954,1,8,0:0:0:0:
159,103,160088,1,8,0:0:0:0:
175,149,160488,1,8,0:0:0:0:
185,142,160788,1,8,0:0:0:0:
187,81,161088,1,8,0:0:0:0:
161,139,161288,1,0,0:0:0:0:
160,120,161554,1,0,0:0:0:0:
166,121,161688,1,0,0:0:0:0:
165,109,162088,1,8,0:0:0:0:
173,122,162388,1,8,0:0:0:0:
144,175,162688,1,0,0:0:0:0:
166,117,162888,1,8,0:0:0:0:
185,103,163154,1,8,0:0:0:0:
185,106,163288,1,8,0:0:0:0:
200,196,163688,1,12,0:0:0:0:
168,150,163988,1,8,0:0:0:0:
171,120,164288,1,8,0:0:0:0:
164,136,164488,1,0,0:0:0:0:
188,177,164621,1,0,0:0:0:0:
211,174,164754,1,0,0:0:0:0:
165,132,164888,1,0,0:0:0:0:
205,160,165154,1,0,0:0:0:0:
175,149,165288,1,8,0:0:0:0:
185,142,165588,1,8,0:0:0:0:
171,124,165888,1,0,0:0:0:0:
201,182,166088,1,8,0:0:0:0:
207,142,166221,1,8,0:0:0:0:
207,142,166354,1,8,0:0:0:0:
201,182,166488,1,8,0:0:0:0:
175,149,166888,1,8,0:0:0:0:
185,142,167188,1,8,0:0:0:0:
171,100,167488,1,8,0:0:0:0:
176,175,167688,1,0,0:0:0:0:
173,179,167821,1,0,0:0:0:0:
160,120,167954,1,0,0:0:0:0:
155,151,168088,1,0,0:0:0:0:
171,172,168354,1,0,0:0:0:0:
165,109,168488,1,8,0:0:0:0:
173,122,168788,1,8,0:0:0:0:
144,175,169088,1,0,0:0:0:0:
159,125,169288,1,8,0:0:0:0:
156,122,169421,1,8,0:0:0:0:
156,122,169554,1,8,0:0:0:0:
185,106,169688,1,8,0:0:0:0:
177,100,170088,1,8,0:0:0:0:
179,92,170388,1,8,0:0:0:0:
181,93,170688,1,8,0:0:0:0:
156,136,170888,1,0,0:0:0:0:
167,202,171021,1,0,0:0:0:0:
170,88,171154,1,0,0:0:0:0:
144,133,171288,1,0,0:0:0:0:
176,158,171554,1,0,0:0:0:0:
152,75,171688,1,8,0:0:0:0:
161,120,171988,1,8,0:0:0:0:
164,113,172288,1,0,0:0:0:0:
180,130,172488,1,8,0:0:0:0:
162,122,172621,1,8,0:0:0:0:
158,122,172754,1,8,0:0:0:0:
159,103,172888,1,8,0:0:0:0:
175,149,173288,1,8,0:0:0:0:
185,142,173588,1,8,0:0:0:0:
187,81,173888,1,8,0:0:0:0:
161,139,174088,1,0,0:0:0:0:
176,194,174221,1,0,0:0:0:0:
160,120,174354,1,0,0:0:0:0:
166,121,174488,1,0,0:0:0:0:
167,137,174754,1,0,0:0:0:0:
165,109,174888,1,8,0:0:0:0:
173,122,175188,1,8,0:0:0:0:
144,175,175488,5,0,0:0:0:0:
166,117,175688,1,8,0:0:0:0:
186,112,175821,1,8,0:0:0:0:
185,103,175954,1,8,0:0:0:0:
185,106,176088,1,8,0:0:0:0:
183,152,176488,5,12,0:0:0:0:
176,175,177088,5,8,0:0:0:0:
180,176,177288,1,0,0:0:0:0:
166,189,177488,1,8,0:0:0:0:
154,190,177688,1,0,0:0:0:0:
151,194,177788,1,0,0:0:0:0:
184,138,177888,1,0,0:0:0:0:
187,132,178088,1,8,0:0:0:0:
256,192,179688,12,0,186088,0:0:0:0:
