osu file format v14

[General]
AudioFilename: audio.mp3
AudioLeadIn: 0
PreviewTime: 58088
Countdown: 0
SampleSet: Normal
StackLeniency: 0.7
Mode: 1
LetterboxInBreaks: 0
WidescreenStoryboard: 1

[Editor]
DistanceSpacing: 1
BeatDivisor: 3
GridSize: 4
TimelineZoom: 0.9999998

[Metadata]
Title:Period. ~ Seishin no Kousoku to Jiyuu o Tsukamu Jouka
TitleUnicode:Period. ~ 精神ノ拘束ト自由ヲ掴ム浄化
Artist:tsunamix_underground
ArtistUnicode:tsunamix_underground
Creator:Horiiizon
Version:Futsuu
Source:東方Project
Tags:Genjuro Touhou Celestian C-CLAYS 天空のグリニッジ 水斎 -Prism- Greenwich In The Sky Usami Renko Maribel Hearn Han Team Shanghai Alice ZUN 大空魔術 ~ Magical Astronomy 上海アリス幻樂団 Techno Suisai c82 comic market comiket コミックマーケット82 コミケット マエリベリー・ハーン 宇佐見蓮子 K2 SOUND Haan Celestial Wizardry Oozora Majutsu electronic instrumental video game
BeatmapID:3168255
BeatmapSetID:1550437

[Difficulty]
HPDrainRate:7
CircleSize:5
OverallDifficulty:4
ApproachRate:5
SliderMultiplier:1.4
SliderTickRate:1

[Events]
//Background and Video events
0,0,"!!!.jpg",0,120
//Break Periods
//Storyboard Layer 0 (Background)
//Storyboard Layer 1 (Fail)
//Storyboard Layer 2 (Pass)
//Storyboard Layer 3 (Foreground)
//Storyboard Layer 4 (Overlay)
//Storyboard Sound Samples

[TimingPoints]
488,400,4,1,0,50,1,0
3638,-100,4,1,0,60,0,0
6838,-100,4,1,0,70,0,0
11638,-100,4,1,0,50,0,0
13238,-100,4,1,0,80,0,0
24438,-100,4,1,0,50,0,0
26038,-100,4,1,0,80,0,0
38838,-100,4,1,0,100,0,0
38888,-83.3333333333333,4,1,0,100,0,1
51638,-83.3333333333333,4,1,0,60,0,1
51688,-100,4,1,0,60,0,0
57238,-100,4,1,0,80,0,0
58038,-100,4,1,0,100,0,0
58088,-83.3333333333333,4,1,0,100,0,1
70838,-83.3333333333333,4,1,0,80,0,1
70888,-100,4,1,0,80,0,0
95788,-100,4,1,0,80,0,0
96438,-83.3333333333333,4,1,0,100,0,0
96488,-83.3333333333333,4,1,0,100,0,1
109238,-83.3333333333333,4,1,0,60,0,1
109288,-83.3333333333333,4,1,0,60,0,0
109888,-100,4,1,0,60,0,0
112438,-100,4,1,0,80,0,0
163638,-83.3333333333333,4,1,0,100,0,0
163688,-83.3333333333333,4,1,0,100,0,1
176438,-83.3333333333333,4,1,0,60,0,1
176488,-83.3333333333333,4,1,0,60,0,0
177088,-100,4,1,0,60,0,0
179638,-100,4,1,0,40,0,0

[HitObjects]
201,175,488,5,0,0:0:0:0:
180,197,788,1,0,0:0:0:0:
178,170,1288,1,0,0:0:0:0:
166,163,1588,1,0,0:0:0:0:
176,166,2088,1,0,0:0:0:0:
190,175,2888,1,0,0:0:0:0:
166,169,3088,1,0,0:0:0:0:
172,179,3288,1,0,0:0:0:0:
181,182,3688,1,0,0:0:0:0:
191,153,4088,1,8,0:0:0:0:
157,177,4488,1,0,0:0:0:0:
157,137,4888,1,8,0:0:0:0:
161,147,5288,1,0,0:0:0:0:
194,210,6088,1,0,0:0:0:0:
198,155,6288,1,8,0:0:0:0:
185,195,6488,1,0,0:0:0:0:
179,140,6888,1,0,0:0:0:0:
169,121,7088,1,0,0:0:0:0:
166,123,7288,1,8,0:0:0:0:
160,130,7688,1,0,0:0:0:0:
131,100,7888,1,0,0:0:0:0:
211,137,8088,1,8,0:0:0:0:
169,152,8488,1,0,0:0:0:0:
176,118,8688,1,0,0:0:0:0:
176,118,8888,1,8,0:0:0:0:
206,144,9688,1,0,0:0:0:0:
176,132,10088,1,0,0:0:0:0:
160,145,10288,1,8,0:0:0:0:
158,141,10488,1,8,0:0:0:0:
160,130,10888,1,0,0:0:0:0:
178,129,11088,1,8,0:0:0:0:
151,111,11288,1,8,0:0:0:0:
154,112,11688,1,0,0:0:0:0:
214,142,11988,1,0,0:0:0:0:
141,141,12488,1,0,0:0:0:0:
162,159,12688,1,0,0:0:0:0:
161,164,12888,1,0,0:0:0:0:
167,150,13288,1,8,0:0:0:0:
179,155,13588,1,0,0:0:0:0:
149,131,13788,1,8,0:0:0:0:
161,117,13988,1,0,0:0:0:0:
159,126,14488,1,8,0:0:0:0:
174,128,14888,1,0,0:0:0:0:
172,122,15288,1,8,0:0:0:0:
162,126,16088,1,8,0:0:0:0:
178,157,16488,1,8,0:0:0:0:
163,131,16788,1,0,0:0:0:0:
169,131,16988,1,8,0:0:0:0:
147,102,17188,1,0,0:0:0:0:
159,126,17688,1,8,0:0:0:0:
174,128,18088,1,0,0:0:0:0:
172,122,18488,1,8,0:0:0:0:
159,127,18888,1,8,0:0:0:0:
173,140,19088,1,8,0:0:0:0:
160,114,19288,1,8,0:0:0:0:
166,152,19688,1,8,0:0:0:0:
149,88,19988,1,0,0:0:0:0:
149,88,20188,1,8,0:0:0:0:
161,116,20388,1,0,0:0:0:0:
159,126,20888,1,8,0:0:0:0:
174,128,21288,1,0,0:0:0:0:
172,122,21688,1,8,0:0:0:0:
162,126,22488,1,8,0:0:0:0:
157,172,22888,1,8,0:0:0:0:
167,121,23188,1,0,0:0:0:0:
162,126,23388,1,8,0:0:0:0:
166,127,23588,1,0,0:0:0:0:
159,126,24088,1,8,0:0:0:0:
174,128,24488,1,0,0:0:0:0:
158,172,24788,1,0,0:0:0:0:
200,196,26088,1,12,0:0:0:0:
171,120,26688,1,8,0:0:0:0:
164,136,26888,1,0,0:0:0:0:
175,149,27688,1,8,0:0:0:0:
185,142,27988,1,8,0:0:0:0:
171,124,28288,1,0,0:0:0:0:
201,182,28488,1,8,0:0:0:0:
201,182,28888,1,8,0:0:0:0:
175,149,29288,1,8,0:0:0:0:
185,142,29588,1,8,0:0:0:0:
171,100,29888,1,8,0:0:0:0:
176,175,30088,1,0,0:0:0:0:
165,109,30888,1,8,0:0:0:0:
173,122,31188,1,8,0:0:0:0:
144,175,31488,1,0,0:0:0:0:
159,125,31688,1,8,0:0:0:0:
185,106,32088,1,8,0:0:0:0:
177,100,32488,1,8,0:0:0:0:
179,92,32788,1,8,0:0:0:0:
181,93,33088,1,8,0:0:0:0:
156,136,33288,1,0,0:0:0:0:
152,75,34088,1,8,0:0:0:0:
161,120,34388,1,8,0:0:0:0:
164,113,34688,1,0,0:0:0:0:
180,130,34888,1,8,0:0:0:0:
159,103,35288,1,8,0:0:0:0:
175,149,35688,1,8,0:0:0:0:
185,142,35988,1,8,0:0:0:0:
187,81,36288,1,8,0:0:0:0:
161,139,36488,1,0,0:0:0:0:
165,109,37288,1,8,0:0:0:0:
173,122,37588,1,8,0:0:0:0:
144,175,37888,1,0,0:0:0:0:
166,117,38088,1,8,0:0:0:0:
200,196,38888,1,12,0:0:0:0:
171,120,39488,1,8,0:0:0:0:
164,136,39688,1,0,0:0:0:0:
175,149,40488,1,8,0:0:0:0:
185,142,40788,1,8,0:0:0:0:
171,124,41088,1,0,0:0:0:0:
201,182,41288,1,8,0:0:0:0:
207,142,41554,1,8,0:0:0:0:
201,182,41688,1,8,0:0:0:0:
175,149,42088,1,8,0:0:0:0:
185,142,42388,1,8,0:0:0:0:
171,100,42688,1,8,0:0:0:0:
176,175,42888,1,0,0:0:0:0:
165,109,43688,1,8,0:0:0:0:
173,122,43988,1,8,0:0:0:0:
144,175,44288,1,0,0:0:0:0:
159,125,44488,1,8,0:0:0:0:
156,122,44754,1,8,0:0:0:0:
185,106,44888,1,8,0:0:0:0:
177,100,45288,1,8,0:0:0:0:
179,92,45588,1,8,0:0:0:0:
181,93,45888,1,8,0:0:0:0:
156,136,46088,1,0,0:0:0:0:
152,75,46888,1,8,0:0:0:0:
161,120,47188,1,8,0:0:0:0:
164,113,47488,1,0,0:0:0:0:
180,130,47688,1,8,0:0:0:0:
158,122,47954,1,8,0:0:0:0:
159,103,48088,1,8,0:0:0:0:
175,149,48488,1,8,0:0:0:0:
185,142,48788,1,8,0:0:0:0:
187,81,49088,1,8,0:0:0:0:
161,139,49288,1,0,0:0:0:0:
165,109,50088,1,8,0:0:0:0:
173,122,50388,1,8,0:0:0:0:
144,175,50688,5,0,0:0:0:0:
166,117,50888,1,8,0:0:0:0:
185,103,51154,1,8,0:0:0:0:
185,106,51288,1,8,0:0:0:0:
169,194,51688,5,4,0:0:0:0:
177,147,52488,1,0,0:0:0:0:
196,114,53088,1,8,0:0:0:0:
195,114,53288,1,0,0:0:0:0:
171,132,53888,1,0,0:0:0:0:
168,143,54088,1,0,0:0:0:0:
152,140,54688,1,0,0:0:0:0:
152,140,54888,1,8,0:0:0:0:
146,142,55288,1,0,0:0:0:0:
143,140,55688,1,8,0:0:0:0:
163,122,55988,1,8,0:0:0:0:
154,122,56288,1,0,0:0:0:0:
153,91,56488,1,0,0:0:0:0:
159,113,57288,1,8,0:0:0:0:
191,150,57488,1,8,0:0:0:0:
204,151,57688,1,0,0:0:0:0:
200,196,58088,1,12,0:0:0:0:
171,120,58688,1,8,0:0:0:0:
164,136,58888,1,0,0:0:0:0:
175,149,59688,1,8,0:0:0:0:
185,142,59988,1,8,0:0:0:0:
171,124,60288,1,0,0:0:0:0:
201,182,60488,1,8,0:0:0:0:
207,142,60754,1,8,0:0:0:0:
201,182,60888,1,8,0:0:0:0:
175,149,61288,1,8,0:0:0:0:
185,142,61588,1,8,0:0:0:0:
171,100,61888,1,8,0:0:0:0:
176,175,62088,1,0,0:0:0:0:
165,109,62888,1,8,0:0:0:0:
173,122,63188,1,8,0:0:0:0:
144,175,63488,1,0,0:0:0:0:
159,125,63688,1,8,0:0:0:0:
156,122,63954,1,8,0:0:0:0:
185,106,64088,1,8,0:0:0:0:
177,100,64488,1,8,0:0:0:0:
179,92,64788,1,8,0:0:0:0:
181,93,65088,1,8,0:0:0:0:
156,136,65288,1,0,0:0:0:0:
152,75,66088,1,8,0:0:0:0:
161,120,66388,1,8,0:0:0:0:
164,113,66688,1,0,0:0:0:0:
180,130,66888,1,8,0:0:0:0:
158,122,67154,1,8,0:0:0:0:
159,103,67288,1,8,0:0:0:0:
175,149,67688,1,8,0:0:0:0:
185,142,67988,1,8,0:0:0:0:
187,81,68288,1,8,0:0:0:0:
161,139,68488,1,0,0:0:0:0:
165,109,69288,1,8,0:0:0:0:
173,122,69588,1,8,0:0:0:0:
144,175,69888,5,0,0:0:0:0:
166,117,70088,1,8,0:0:0:0:
160,202,70888,5,4,0:0:0:0:
156,158,71288,1,8,0:0:0:0:
156,160,71488,1,0,0:0:0:0:
168,173,71888,1,0,0:0:0:0:
173,146,72088,1,8,0:0:0:0:
169,107,72488,1,0,0:0:0:0:
185,106,72888,1,8,0:0:0:0:
173,150,73688,1,0,0:0:0:0:
213,117,74088,1,0,0:0:0:0:
178,155,74488,1,8,0:0:0:0:
178,155,74688,1,0,0:0:0:0:
166,127,75088,1,0,0:0:0:0:
171,122,75288,1,8,0:0:0:0:
158,122,75688,1,0,0:0:0:0:
194,157,76088,1,8,0:0:0:0:
173,157,76488,1,8,0:0:0:0:
176,118,76688,1,8,0:0:0:0:
158,122,76888,1,0,0:0:0:0:
160,202,77288,5,0,0:0:0:0:
156,158,77688,1,8,0:0:0:0:
156,160,77888,1,0,0:0:0:0:
168,173,78288,1,0,0:0:0:0:
173,146,78488,1,8,0:0:0:0:
169,107,78888,1,0,0:0:0:0:
185,106,79288,1,8,0:0:0:0:
173,150,80088,1,0,0:0:0:0:
213,117,80488,1,0,0:0:0:0:
178,155,80888,1,8,0:0:0:0:
178,155,81088,1,0,0:0:0:0:
166,127,81488,1,0,0:0:0:0:
171,122,81688,1,8,0:0:0:0:
158,122,82088,1,0,0:0:0:0:
194,157,82488,1,8,0:0:0:0:
216,195,82888,1,8,0:0:0:0:
176,118,83088,1,8,0:0:0:0:
158,122,83288,1,0,0:0:0:0:
160,202,83688,5,4,0:0:0:0:
156,158,84088,1,8,0:0:0:0:
156,160,84288,1,0,0:0:0:0:
168,173,84688,1,0,0:0:0:0:
173,146,84888,1,8,0:0:0:0:
169,107,85288,1,0,0:0:0:0:
185,106,85688,1,8,0:0:0:0:
173,150,86488,1,0,0:0:0:0:
213,117,86888,1,0,0:0:0:0:
178,155,87288,1,8,0:0:0:0:
178,155,87488,1,0,0:0:0:0:
166,127,87888,1,0,0:0:0:0:
171,122,88088,1,8,0:0:0:0:
158,122,88488,1,0,0:0:0:0:
194,157,88888,1,8,0:0:0:0:
146,163,89288,1,8,0:0:0:0:
176,118,89488,1,8,0:0:0:0:
158,122,89688,1,0,0:0:0:0:
160,202,90088,5,0,0:0:0:0:
156,158,90488,1,8,0:0:0:0:
156,160,90688,1,0,0:0:0:0:
168,173,91088,1,0,0:0:0:0:
173,146,91288,1,8,0:0:0:0:
169,107,91688,1,0,0:0:0:0:
185,106,92088,1,8,0:0:0:0:
173,150,92888,1,0,0:0:0:0:
213,117,93288,1,0,0:0:0:0:
178,155,93688,1,8,0:0:0:0:
178,155,93888,1,0,0:0:0:0:
166,127,94288,1,0,0:0:0:0:
171,122,94488,1,8,0:0:0:0:
158,122,94888,1,0,0:0:0:0:
194,157,95288,5,8,0:0:0:0:
145,109,95688,1,8,0:0:0:0:
176,118,95888,1,8,0:0:0:0:
158,122,96088,1,0,0:0:0:0:
200,196,96488,1,12,0:0:0:0:
171,120,97088,1,8,0:0:0:0:
164,136,97288,1,0,0:0:0:0:
175,149,98088,1,8,0:0:0:0:
185,142,98388,1,8,0:0:0:0:
171,124,98688,1,0,0:0:0:0:
201,182,98888,1,8,0:0:0:0:
207,142,99154,1,8,0:0:0:0:
201,182,99288,1,8,0:0:0:0:
175,149,99688,1,8,0:0:0:0:
185,142,99988,1,8,0:0:0:0:
171,100,100288,1,8,0:0:0:0:
176,175,100488,1,0,0:0:0:0:
165,109,101288,1,8,0:0:0:0:
173,122,101588,1,8,0:0:0:0:
144,175,101888,1,0,0:0:0:0:
159,125,102088,1,8,0:0:0:0:
156,122,102354,1,8,0:0:0:0:
185,106,102488,1,8,0:0:0:0:
177,100,102888,1,8,0:0:0:0:
179,92,103188,1,8,0:0:0:0:
181,93,103488,1,8,0:0:0:0:
156,136,103688,1,0,0:0:0:0:
152,75,104488,1,8,0:0:0:0:
161,120,104788,1,8,0:0:0:0:
164,113,105088,1,0,0:0:0:0:
180,130,105288,1,8,0:0:0:0:
158,122,105554,1,8,0:0:0:0:
159,103,105688,1,8,0:0:0:0:
175,149,106088,1,8,0:0:0:0:
185,142,106388,1,8,0:0:0:0:
187,81,106688,1,8,0:0:0:0:
161,139,106888,1,0,0:0:0:0:
165,109,107688,1,8,0:0:0:0:
173,122,107988,1,8,0:0:0:0:
144,175,108288,5,0,0:0:0:0:
166,117,108488,1,8,0:0:0:0:
127,138,108888,1,0,0:0:0:0:
183,152,109288,5,12,0:0:0:0:
176,175,109888,5,8,0:0:0:0:
180,176,110088,1,0,0:0:0:0:
154,190,110488,1,0,0:0:0:0:
184,138,110688,1,0,0:0:0:0:
187,132,110888,1,8,0:0:0:0:
200,196,112488,1,12,0:0:0:0:
171,120,113088,1,8,0:0:0:0:
164,136,113288,1,0,0:0:0:0:
175,149,114088,1,8,0:0:0:0:
185,142,114388,1,8,0:0:0:0:
171,124,114688,1,0,0:0:0:0:
201,182,114888,1,8,0:0:0:0:
207,142,115154,1,8,0:0:0:0:
201,182,115288,1,8,0:0:0:0:
175,149,115688,1,8,0:0:0:0:
185,142,115988,1,8,0:0:0:0:
171,100,116288,1,8,0:0:0:0:
176,175,116488,1,0,0:0:0:0:
165,109,117288,1,8,0:0:0:0:
173,122,117588,1,8,0:0:0:0:
144,175,117888,1,0,0:0:0:0:
159,125,118088,1,8,0:0:0:0:
156,122,118354,1,8,0:0:0:0:
185,106,118488,1,8,0:0:0:0:
177,100,118888,1,8,0:0:0:0:
179,92,119188,1,8,0:0:0:0:
181,93,119488,1,8,0:0:0:0:
156,136,119688,1,0,0:0:0:0:
152,75,120488,1,8,0:0:0:0:
161,120,120788,1,8,0:0:0:0:
164,113,121088,5,0,0:0:0:0:
180,130,121288,1,8,0:0:0:0:
158,122,121554,1,8,0:0:0:0:
159,103,121688,1,8,0:0:0:0:
200,196,122088,1,8,0:0:0:0:
168,150,122388,1,8,0:0:0:0:
171,120,122688,1,8,0:0:0:0:
164,136,122888,1,0,0:0:0:0:
175,149,123688,1,8,0:0:0:0:
185,142,123988,1,8,0:0:0:0:
171,124,124288,1,0,0:0:0:0:
201,182,124488,1,8,0:0:0:0:
207,142,124754,1,8,0:0:0:0:
201,182,124888,1,8,0:0:0:0:
160,202,125288,5,4,0:0:0:0:
156,158,125688,1,8,0:0:0:0:
156,160,125888,1,0,0:0:0:0:
168,173,126288,1,0,0:0:0:0:
173,146,126488,1,8,0:0:0:0:
169,107,126888,1,0,0:0:0:0:
185,106,127288,1,8,0:0:0:0:
173,150,128088,1,0,0:0:0:0:
213,117,128488,1,0,0:0:0:0:
178,155,128888,1,8,0:0:0:0:
178,155,129088,1,0,0:0:0:0:
166,127,129488,1,0,0:0:0:0:
171,122,129688,1,8,0:0:0:0:
158,122,130088,1,0,0:0:0:0:
194,157,130488,1,8,0:0:0:0:
173,157,130788,1,8,0:0:0:0:
176,118,131088,1,8,0:0:0:0:
158,122,131288,1,0,0:0:0:0:
160,202,131688,5,0,0:0:0:0:
156,158,132088,1,8,0:0:0:0:
156,160,132288,1,0,0:0:0:0:
168,173,132688,1,0,0:0:0:0:
173,146,132888,1,8,0:0:0:0:
169,107,133288,1,0,0:0:0:0:
185,106,133688,1,8,0:0:0:0:
173,150,134488,1,0,0:0:0:0:
213,117,134888,1,0,0:0:0:0:
178,155,135288,1,8,0:0:0:0:
178,155,135488,1,0,0:0:0:0:
166,127,135888,1,0,0:0:0:0:
171,122,136088,1,8,0:0:0:0:
158,122,136488,1,0,0:0:0:0:
194,157,136888,1,8,0:0:0:0:
216,195,137088,1,8,0:0:0:0:
176,118,137488,1,8,0:0:0:0:
158,122,137688,1,0,0:0:0:0:
160,202,138088,5,4,0:0:0:0:
156,158,138488,1,8,0:0:0:0:
156,160,138688,1,0,0:0:0:0:
168,173,139088,1,0,0:0:0:0:
173,146,139288,1,8,0:0:0:0:
169,107,139688,1,0,0:0:0:0:
185,106,140088,1,8,0:0:0:0:
173,150,140888,1,0,0:0:0:0:
213,117,141288,1,0,0:0:0:0:
178,155,141688,1,8,0:0:0:0:
178,155,141888,1,0,0:0:0:0:
166,127,142288,1,0,0:0:0:0:
171,122,142488,1,8,0:0:0:0:
158,122,142888,1,0,0:0:0:0:
194,157,143288,1,8,0:0:0:0:
146,163,143588,1,8,0:0:0:0:
176,118,143888,1,8,0:0:0:0:
158,122,144088,1,0,0:0:0:0:
160,202,144488,5,0,0:0:0:0:
156,158,144888,1,8,0:0:0:0:
156,160,145088,1,0,0:0:0:0:
168,173,145488,1,0,0:0:0:0:
173,146,145688,1,8,0:0:0:0:
169,107,146088,1,0,0:0:0:0:
185,106,146488,1,8,0:0:0:0:
173,150,147288,1,0,0:0:0:0:
213,117,147688,1,0,0:0:0:0:
178,155,148088,1,8,0:0:0:0:
178,155,148288,1,0,0:0:0:0:
166,127,148688,1,0,0:0:0:0:
171,122,148888,1,8,0:0:0:0:
158,122,149288,1,0,0:0:0:0:
194,157,149688,5,8,0:0:0:0:
145,109,149888,1,8,0:0:0:0:
176,118,150288,1,8,0:0:0:0:
158,122,150488,1,0,0:0:0:0:
200,196,150888,1,12,0:0:0:0:
171,120,151488,1,8,0:0:0:0:
164,136,151688,1,0,0:0:0:0:
175,149,152488,1,8,0:0:0:0:
185,142,152788,1,8,0:0:0:0:
171,124,153088,1,0,0:0:0:0:
201,182,153288,1,8,0:0:0:0:
201,182,153688,1,8,0:0:0:0:
175,149,154088,1,8,0:0:0:0:
185,142,154388,1,8,0:0:0:0:
171,100,154688,1,8,0:0:0:0:
176,175,154888,1,0,0:0:0:0:
165,109,155688,1,8,0:0:0:0:
173,122,155988,1,8,0:0:0:0:
144,175,156288,1,0,0:0:0:0:
159,125,156488,1,8,0:0:0:0:
185,106,156888,1,8,0:0:0:0:
177,100,157288,1,8,0:0:0:0:
179,92,157588,1,8,0:0:0:0:
181,93,157888,1,8,0:0:0:0:
156,136,158088,1,0,0:0:0:0:
152,75,158888,1,8,0:0:0:0:
161,120,159188,1,8,0:0:0:0:
164,113,159488,1,0,0:0:0:0:
180,130,159688,1,8,0:0:0:0:
159,103,160088,1,8,0:0:0:0:
175,149,160488,1,8,0:0:0:0:
185,142,160788,1,8,0:0:0:0:
187,81,161088,1,8,0:0:0:0:
161,139,161288,1,0,0:0:0:0:
165,109,162088,1,8,0:0:0:0:
173,122,162388,1,8,0:0:0:0:
144,175,162688,1,0,0:0:0:0:
166,117,162888,1,8,0:0:0:0:
200,196,163688,1,12,0:0:0:0:
171,120,164288,1,8,0:0:0:0:
164,136,164488,1,0,0:0:0:0:
175,149,165288,1,8,0:0:0:0:
185,142,165588,1,8,0:0:0:0:
171,124,165888,1,0,0:0:0:0:
201,182,166088,1,8,0:0:0:0:
207,142,166354,1,8,0:0:0:0:
201,182,166488,1,8,0:0:0:0:
175,149,166888,1,8,0:0:0:0:
185,142,167188,1,8,0:0:0:0:
171,100,167488,1,8,0:0:0:0:
176,175,167688,1,0,0:0:0:0:
165,109,168488,1,8,0:0:0:0:
173,122,168788,1,8,0:0:0:0:
144,175,169088,1,0,0:0:0:0:
159,125,169288,1,8,0:0:0:0:
156,122,169554,1,8,0:0:0:0:
185,106,169688,1,8,0:0:0:0:
177,100,170088,1,8,0:0:0:0:
179,92,170388,1,8,0:0:0:0:
181,93,170688,1,8,0:0:0:0:
156,136,170888,1,0,0:0:0:0:
152,75,171688,1,8,0:0:0:0:
161,120,171988,1,8,0:0:0:0:
164,113,172288,1,0,0:0:0:0:
180,130,172488,1,8,0:0:0:0:
158,122,172754,1,8,0:0:0:0:
159,103,172888,1,8,0:0:0:0:
175,149,173288,1,8,0:0:0:0:
185,142,173588,1,8,0:0:0:0:
187,81,173888,1,8,0:0:0:0:
161,139,174088,1,0,0:0:0:0:
165,109,174888,1,8,0:0:0:0:
173,122,175188,1,8,0:0:0:0:
144,175,175488,5,0,0:0:0:0:
166,117,175688,1,8,0:0:0:0:
183,152,176488,5,12,0:0:0:0:
176,175,177088,5,8,0:0:0:0:
180,176,177288,1,0,0:0:0:0:
154,190,177688,1,0,0:0:0:0:
184,138,177888,1,0,0:0:0:0:
187,132,178088,1,8,0:0:0:0:
256,192,179688,12,0,186088,0:0:0:0:
