osu file format v14

[General]
AudioFilename: audio.mp3
AudioLeadIn: 0
PreviewTime: 38943
Countdown: 0
SampleSet: Soft
StackLeniency: 0
Mode: 0
LetterboxInBreaks: 0
WidescreenStoryboard: 1

[Editor]
Bookmarks: 13343,26143,38943,51743,58143,70943,96543,109343,112543
DistanceSpacing: 1
BeatDivisor: 4
GridSize: 4
TimelineZoom: 1.5

[Metadata]
Title:Period. ~ Seishin no Kousoku to Jiyuu o Tsukamu Jouka (Cut Ver.)
TitleUnicode:Period. ~ 精神ノ拘束ト自由ヲ掴ム浄化 (Cut Ver.)
Artist:tsunamix_underground
ArtistUnicode:tsunamix_underground
Creator:bob
Version:hidden extra.
Source:東方Project
Tags:Touhou 水斎 -Prism- Suisai TOCD-0035 C-CLAYS 大空魔術 ~ Magical Astronomy ZUN Greenwich in the sky 天空のグリニッジ chai the tea electronic instrumental
BeatmapID:3257371
BeatmapSetID:1594769

[Difficulty]
HPDrainRate:6
CircleSize:3.2
OverallDifficulty:9
ApproachRate:8.5
SliderMultiplier:1.8
SliderTickRate:1

[Events]
//Background and Video events
0,0,"96871290_p.jpg",0,0
//Break Periods
//Storyboard Layer 0 (Background)
//Storyboard Layer 1 (Fail)
//Storyboard Layer 2 (Pass)
//Storyboard Layer 3 (Foreground)
//Storyboard Layer 4 (Overlay)
//Storyboard Sound Samples

[TimingPoints]
543,400,4,2,2,60,1,0
11743,-100,4,2,7,70,0,0
13343,-100,4,2,7,70,0,0
24609,-100,4,2,7,5,0,0
26143,-100,4,2,3,80,0,0
26743,-66.6666666666667,4,2,3,80,0,0
28543,-55.5555555555556,4,2,3,80,0,0
28943,-66.6666666666667,4,2,3,80,0,0
34943,-55.5555555555556,4,2,3,80,0,0
35343,-66.6666666666667,4,2,3,80,0,0
38943,-50,4,2,2,100,0,0
41343,-43.4782608695652,4,2,2,100,0,0
41743,-50,4,2,2,100,0,0
47743,-43.4782608695652,4,2,2,100,0,0
48143,-50,4,2,2,100,0,0
51743,-50,4,2,14,70,0,0
52143,-71.4285714285714,4,2,14,70,0,0
52543,-90.9090909090909,4,2,14,70,0,0
52843,-71.4285714285714,4,2,14,70,0,0
53343,-90.9090909090909,4,2,14,70,0,0
54943,-71.4285714285714,4,2,14,70,0,0
55743,-62.5,4,2,14,70,0,0
58143,-50,4,2,4,80,0,0
58743,-62.5,4,2,4,80,0,0
60943,-50,4,2,4,80,0,0
63543,-62.5,4,2,4,80,0,0
64143,-50,4,2,4,80,0,0
66743,-62.5,4,2,4,80,0,0
67343,-50,4,2,4,80,0,0
68343,-62.5,4,2,4,80,0,0
69943,-55.5555555555556,4,2,4,80,0,0
70143,-45.4545454545455,4,2,4,80,0,0
70943,-45.4545454545455,4,2,2,85,0,0
83743,-45.4545454545455,4,2,4,85,0,0
84343,-41.6666666666667,4,2,4,85,0,0
85343,-45.4545454545455,4,2,4,85,0,0
85943,-38.4615384615385,4,2,4,85,0,0
86943,-45.4545454545455,4,2,4,85,0,0
87543,-41.6666666666667,4,2,4,85,0,0
90143,-45.4545454545455,4,2,4,85,0,0
90743,-41.6666666666667,4,2,4,85,0,0
91743,-45.4545454545455,4,2,4,85,0,0
92343,-38.4615384615385,4,2,4,85,0,0
93343,-45.4545454545455,4,2,4,85,0,0
93943,-41.6666666666667,4,2,4,85,0,0
94943,-45.4545454545455,4,2,4,85,0,0
96343,-45.4545454545455,4,2,5,100,0,0
96543,-45.4545454545455,4,2,5,100,0,0
108343,-38.4615384615385,4,2,5,100,0,0
108943,-38.4615384615385,4,2,2,80,0,0

[Colours]
Combo1 : 255,255,224
Combo2 : 0,0,255
Combo3 : 135,206,250
Combo4 : 255,0,0
Combo5 : 240,128,128
Combo6 : 255,255,0

[HitObjects]
256,192,13343,5,2,3:3:0:0:
256,192,13443,1,2,0:3:0:0:
348,264,13643,1,2,0:3:0:0:
348,264,13843,1,2,0:3:0:0:
404,196,14043,1,2,0:3:0:0:
448,156,14143,5,2,3:2:0:0:
448,168,14243,1,2,0:2:0:0:
492,276,14443,1,2,0:2:0:0:
372,320,14743,1,2,0:2:0:0:
272,264,14943,1,2,3:2:0:0:
272,252,15043,1,2,0:2:0:0:
308,160,15243,1,2,0:2:0:0:
224,80,15543,1,2,0:2:0:0:
160,152,15743,1,2,3:2:0:0:
160,164,15943,1,2,0:2:0:0:
160,176,16143,1,10,3:2:0:0:
160,188,16343,1,2,0:2:0:0:
56,304,16543,5,2,3:3:0:0:
56,304,16643,1,2,0:3:0:0:
24,180,16843,1,2,0:3:0:0:
24,180,17043,1,2,0:3:0:0:
84,96,17243,1,2,0:3:0:0:
48,52,17343,5,2,3:2:0:0:
48,64,17443,1,2,0:2:0:0:
172,84,17643,1,2,0:2:0:0:
280,28,17943,1,2,0:2:0:0:
352,128,18143,1,2,3:2:0:0:
352,116,18243,1,2,0:2:0:0:
280,200,18443,1,2,0:2:0:0:
408,272,18743,1,2,0:2:0:0:
296,336,18943,1,2,3:2:0:0:
280,336,19043,1,8,0:0:0:0:
264,336,19143,1,2,0:2:0:0:
248,336,19343,1,10,3:2:0:0:
232,336,19543,1,2,0:2:0:0:
48,220,19743,5,2,3:3:0:0:
48,220,19843,1,2,0:3:0:0:
184,240,20043,1,2,0:3:0:0:
184,240,20243,1,2,0:3:0:0:
276,136,20443,1,2,0:3:0:0:
312,88,20543,5,2,3:2:0:0:
312,104,20643,1,2,0:2:0:0:
400,176,20843,1,2,0:2:0:0:
512,96,21143,1,2,0:2:0:0:
508,212,21343,1,2,3:2:0:0:
508,224,21443,1,2,0:2:0:0:
420,320,21643,1,2,0:2:0:0:
288,236,21943,1,2,0:2:0:0:
184,304,22143,1,2,3:2:0:0:
184,288,22343,1,2,0:2:0:0:
184,272,22543,1,10,3:2:0:0:
184,256,22743,1,2,0:2:0:0:
84,128,22943,5,2,3:3:0:0:
84,128,23043,1,2,0:3:0:0:
224,148,23243,1,2,0:3:0:0:
328,68,23443,1,2,0:3:0:0:
436,116,23643,1,2,0:3:0:0:
408,68,23743,5,0,3:0:0:0:
408,84,23843,1,2,0:2:0:0:
356,192,24043,1,2,0:2:0:0:
468,256,24343,1,2,0:2:0:0:
468,256,24543,6,0,L|468:288,1,30,0|0,3:0|0:0,0:0:0:0:
468,286,26143,5,2,3:2:0:0:
446,286,26243,1,2,0:2:0:0:
412,192,26443,5,2,0:2:0:0:
412,192,26743,2,0,L|332:192,1,67.5000025749208,2|0,0:2|0:0,0:0:0:0:
260,192,26943,5,2,3:2:0:0:
176,192,27076,5,0,0:2:0:0:
260,192,27209,5,0,0:2:0:0:
176,192,27343,6,0,L|176:284,2,90.0000034332277,2|0|0,3:2|0:2|0:2,0:0:0:0:
68,108,27743,5,2,3:2:0:0:
88,108,27843,1,0,0:0:0:0:
108,108,27943,1,0,0:0:0:0:
128,108,28043,1,2,0:2:0:0:
148,144,28143,6,0,L|148:34,1,67.5000025749208
160,32,28343,1,2,0:2:0:0:
140,32,28443,1,0,0:0:0:0:
70,64,28543,6,0,L|200:64,2,107.999996704102,2|0|0,3:2|0:3|0:0,0:0:0:0:
70,64,28943,5,2,3:2:0:0:
122,196,29143,1,0,3:0:0:0:
122,196,29343,5,2,3:2:0:0:
144,196,29443,1,2,0:2:0:0:
168,244,29543,1,0,0:0:0:0:
190,244,29643,1,2,0:2:0:0:
216,196,29743,1,0,0:0:0:0:
238,196,29843,1,0,0:0:0:0:
284,264,29943,2,0,L|284:356,1,67.5000025749208,2|0,0:2|0:0,0:0:0:0:
372,328,30143,5,2,3:2:0:0:
372,248,30276,5,0,0:2:0:0:
372,328,30409,5,0,0:2:0:0:
372,168,30543,5,2,3:2:0:0:
284,168,30676,5,0,0:2:0:0:
196,168,30809,5,0,0:2:0:0:
196,72,30943,6,0,L|280:72,1,67.5000025749208,2|0,3:2|0:0,0:0:0:0:
308,122,31143,1,0,0:0:0:0:
308,122,31243,1,2,0:2:0:0:
308,54,31343,2,0,L|308:158,1,67.5000025749208
388,124,31543,1,2,0:2:0:0:
388,124,31643,1,0,0:0:0:0:
388,208,31743,5,2,3:2:0:0:
304,208,31876,5,0,0:3:0:0:
200,208,32009,5,0,0:0:0:0:
108,292,32143,6,0,L|108:216,1,67.5000025749208,2|0,3:2|0:0,0:0:0:0:
108,224,32343,1,2,3:2:0:0:
108,208,32443,1,0,0:0:0:0:
28,208,32543,5,2,3:2:0:0:
108,184,32643,2,0,L|208:184,1,67.5000025749208,2|0,0:2|0:0,0:0:0:0:
240,96,32843,1,2,0:2:0:0:
240,72,32943,1,0,0:0:0:0:
264,72,33043,1,0,0:0:0:0:
341,98,33143,2,0,L|233:98,1,67.5000025749208,2|0,0:2|0:0,0:0:0:0:
88,64,33343,5,2,3:2:0:0:
8,64,33476,5,0,0:2:0:0:
8,168,33609,5,0,0:2:0:0:
8,296,33743,6,0,L|128:296,2,90.0000034332277,2|0|0,3:2|0:2|0:2,0:0:0:0:
108,216,34143,5,2,3:2:0:0:
128,216,34243,1,0,0:0:0:0:
148,216,34343,1,0,0:0:0:0:
168,216,34443,1,2,0:2:0:0:
196,184,34543,6,0,L|196:268,1,67.5000025749208
264,256,34743,1,2,0:2:0:0:
244,256,34843,1,0,0:0:0:0:
296,200,34943,6,0,L|168:200,2,107.999996704102,2|0|0,3:2|0:3|0:0,0:0:0:0:
296,200,35343,5,2,3:2:0:0:
432,116,35543,1,0,3:2:0:0:
328,116,35743,5,2,3:2:0:0:
328,93,35843,1,2,0:2:0:0:
304,92,35943,1,0,0:0:0:0:
236,156,36043,2,0,L|140:156,1,67.5000025749208,2|0,0:2|0:0,0:0:0:0:
64,88,36243,1,0,0:0:0:0:
64,108,36343,1,2,0:2:0:0:
64,128,36443,1,0,0:0:0:0:
64,208,36543,5,2,3:2:0:0:
156,208,36676,5,0,0:2:0:0:
248,204,36809,5,0,0:2:0:0:
156,208,36943,6,0,L|156:304,2,90.0000034332277,2|0|0,3:2|0:2|0:2,0:0:0:0:
336,176,37343,6,0,L|236:176,1,67.5000025749208,2|0,3:2|0:0,0:0:0:0:
236,93,37543,1,0,0:0:0:0:
236,93,37643,1,2,0:2:0:0:
236,196,37743,2,0,L|236:94,1,67.5000025749208
236,93,37943,1,2,0:2:0:0:
236,93,38043,1,0,0:0:0:0:
141,93,38143,5,2,3:2:0:0:
37,93,38276,5,0,0:3:0:0:
37,263,38409,5,0,0:0:0:0:
37,93,38543,5,2,3:2:0:0:
141,93,38943,5,6,3:2:0:0:
140,147,39043,1,2,0:0:0:0:
141,93,39243,5,2,0:2:0:0:
140,147,39343,1,10,3:2:0:0:
215,177,39543,2,0,L|215:274,1,90,2|0,0:2|0:0,0:0:0:0:
215,267,39743,5,2,3:2:0:0:
215,177,39876,5,2,0:2:0:0:
304,177,40009,5,2,0:2:0:0:
304,267,40142,5,10,3:2:0:0:
304,177,40276,5,2,0:2:0:0:
215,177,40409,5,2,0:2:0:0:
215,62,40543,5,2,3:2:0:0:
235,62,40643,1,2,0:0:0:0:
255,62,40743,1,2,0:0:0:0:
275,62,40843,1,2,0:2:0:0:
361,104,40943,6,0,L|361:-7,1,90,10|2,3:2|0:0,0:0:0:0:
305,30,41143,1,2,0:2:0:0:
285,30,41243,1,0,0:0:0:0:
215,62,41343,6,0,L|408:64,2,138.000002632141,2|2|2,3:2|0:2|0:2,0:0:0:0:
215,62,41743,5,10,3:2:0:0:
122,196,41943,1,0,0:0:0:0:
122,196,42143,5,2,3:2:0:0:
122,219,42243,1,2,0:0:0:0:
154,219,42343,1,2,0:0:0:0:
222,149,42443,5,2,0:2:0:0:
222,172,42543,1,10,3:2:0:0:
154,219,42643,1,2,0:0:0:0:
218,268,42743,5,2,0:2:0:0:
218,291,42843,1,0,0:0:0:0:
152,340,42943,5,2,3:2:0:0:
284,340,43076,5,2,0:2:0:0:
152,340,43209,5,2,0:2:0:0:
0,340,43343,5,10,3:2:0:0:
0,240,43476,5,2,0:2:0:0:
0,140,43609,5,2,0:2:0:0:
120,140,43743,6,0,L|232:140,1,90,2|2,3:2|0:0,0:0:0:0:
316,140,43943,1,2,0:0:0:0:
316,140,44043,1,2,0:2:0:0:
316,50,44143,2,0,L|316:162,1,90,10|2,3:2|0:0,0:0:0:0:
316,244,44343,1,2,0:2:0:0:
316,244,44443,1,0,0:0:0:0:
236,244,44543,5,2,3:2:0:0:
400,244,44676,5,2,0:2:0:0:
156,244,44809,5,2,0:0:0:0:
480,244,44943,5,10,3:2:0:0:
480,216,45043,1,2,0:0:0:0:
480,188,45143,1,2,3:2:0:0:
480,160,45243,1,2,0:0:0:0:
392,104,45343,5,2,3:2:0:0:
392,184,45443,2,0,L|392:288,1,90,2|2,0:0|0:0,0:0:0:0:
392,352,45643,1,2,0:2:0:0:
392,352,45743,1,10,3:2:0:0:
316,352,45843,1,2,0:0:0:0:
312,272,45943,2,0,L|200:272,1,90,2|0,0:2|0:0,0:0:0:0:
222,272,46143,5,2,3:2:0:0:
132,272,46276,5,2,0:2:0:0:
132,183,46409,5,2,0:2:0:0:
222,183,46542,5,10,3:2:0:0:
132,183,46676,5,2,0:2:0:0:
132,272,46809,5,2,0:2:0:0:
222,272,46943,5,2,3:2:0:0:
242,272,47043,1,2,0:0:0:0:
262,272,47143,1,2,0:0:0:0:
282,272,47243,1,2,0:2:0:0:
368,224,47343,6,0,L|368:314,1,90,10|2,3:2|0:0,0:0:0:0:
424,312,47543,1,2,0:2:0:0:
404,312,47643,1,0,0:0:0:0:
468,240,47743,6,0,L|328:240,2,138.000002632141,2|2|2,3:2|0:2|0:2,0:0:0:0:
468,240,48143,5,10,3:2:0:0:
378,96,48343,1,0,0:0:0:0:
378,96,48543,5,2,3:2:0:0:
378,119,48643,1,2,0:0:0:0:
346,119,48743,1,2,0:0:0:0:
278,49,48843,5,2,0:2:0:0:
278,72,48943,1,10,3:2:0:0:
346,119,49043,1,2,0:0:0:0:
282,168,49143,5,2,0:2:0:0:
282,191,49243,1,0,0:0:0:0:
348,240,49343,5,2,3:2:0:0:
216,240,49476,5,2,0:2:0:0:
348,240,49609,5,2,0:2:0:0:
216,336,49743,5,10,3:2:0:0:
216,240,49876,5,2,0:2:0:0:
216,336,50009,5,2,0:2:0:0:
108,336,50143,6,0,L|-4:336,1,90,2|2,3:2|0:0,0:0:0:0:
108,246,50343,1,2,0:0:0:0:
108,246,50443,1,2,0:2:0:0:
108,336,50543,2,0,L|108:224,1,90,10|2,3:2|0:0,0:0:0:0:
108,152,50743,1,2,0:2:0:0:
108,152,50843,1,8,0:0:0:0:
196,152,50943,5,2,3:2:0:0:
16,152,51076,5,2,0:2:0:0:
304,152,51209,5,2,0:0:0:0:
108,152,51343,5,10,3:2:0:0:
108,152,51543,1,0,0:0:0:0:
311,39,51743,5,6,0:2:0:0:
316,47,51843,1,0,0:0:0:0:
322,55,51943,1,0,0:0:0:0:
327,64,52043,1,0,0:0:0:0:
333,72,52143,2,0,B|321:85|321:85|322:277,1,188.999994232178,2|0,0:0|0:0,0:0:0:0:
321,257,52543,2,0,B|301:237|301:237|202:237,1,99.0000030212403,2|0,0:2|0:0,0:0:0:0:
230,237,52843,2,0,B|199:266|199:266|199:365,1,125.999996154785,2|0,0:2|0:0,0:0:0:0:
321,257,53143,5,2,0:2:0:0:
321,257,53343,2,0,B|362:257|362:257|431:307,1,99.0000030212403,2|0,0:2|0:0,0:0:0:0:
408,291,53643,2,0,B|438:291|438:291|508:238,1,99.0000030212403,2|0,0:2|0:0,0:0:0:0:
493,248,53943,2,0,B|477:231|477:231|477:190,1,49.5000015106202,2|0,0:2|0:0,0:0:0:0:
502,159,54143,6,0,B|461:138|461:138|393:138|393:138|362:158|362:158|304:158,1,198.000006042481,2|2,0:2|0:2,0:0:0:0:
314,158,54643,1,0,0:0:0:0:
314,158,54743,2,0,B|290:158|290:158|257:186,1,49.5000015106202
337,240,54943,2,0,B|363:226|363:226|363:51,1,188.999994232178,2|0,0:2|0:0,0:0:0:0:
329,42,55343,2,0,B|310:54|310:54|310:111,1,62.9999980773926,2|0,0:2|0:0,0:0:0:0:
287,64,55543,2,0,B|268:76|268:76|268:133,1,62.9999980773926,2|0,0:2|0:0,0:0:0:0:
255,232,55743,6,0,B|235:243|235:243|166:243,1,72,2|0,0:2|0:0,0:0:0:0:
84,204,55943,5,2,0:2:0:0:
84,204,56043,1,2,0:0:0:0:
184,100,56243,5,2,0:2:0:0:
184,100,56343,1,2,0:0:0:0:
268,116,56543,5,2,0:2:0:0:
268,116,56643,1,0,0:0:0:0:
296,152,56743,1,0,0:0:0:0:
296,152,56843,1,0,0:0:0:0:
348,160,56943,1,0,0:0:0:0:
348,160,57043,1,0,0:0:0:0:
400,124,57143,1,0,0:0:0:0:
400,124,57243,1,0,0:0:0:0:
480,124,57343,6,0,B|486:151|486:151|470:215,1,72,2|0,0:2|0:0,0:0:0:0:
412,300,57543,1,2,0:2:0:0:
464,312,57643,1,2,0:2:0:0:
412,300,57743,1,2,0:0:0:0:
372,332,57843,1,2,0:2:0:0:
324,312,57943,1,2,0:2:0:0:
276,332,58043,1,2,0:0:0:0:
176,336,58143,5,6,3:2:0:0:
176,252,58243,1,2,0:2:0:0:
92,252,58443,5,2,0:2:0:0:
176,252,58543,1,10,3:2:0:0:
176,108,58743,2,0,L|72:108,1,72,2|0,0:2|0:0,0:0:0:0:
280,180,58943,5,2,3:2:0:0:
372,180,59076,5,2,0:2:0:0:
460,180,59209,5,2,0:2:0:0:
280,180,59343,5,10,3:2:0:0:
460,180,59476,5,2,0:2:0:0:
280,180,59609,5,2,0:2:0:0:
372,180,59743,5,2,3:2:0:0:
372,100,59843,1,2,0:0:0:0:
372,180,60043,5,2,0:2:0:0:
372,260,60143,1,10,3:2:0:0:
216,260,60343,2,0,L|216:352,1,72,2|0,0:2|0:0,0:0:0:0:
136,160,60543,5,2,3:2:0:0:
136,336,60676,5,2,0:2:0:0:
20,336,60809,5,2,0:2:0:0:
16,160,60943,6,0,B|16:88|16:88|160:88|160:88|160:28,1,270,10|0,3:2|0:0,0:0:0:0:
160,34,61343,5,2,3:2:0:0:
248,34,61443,1,2,0:0:0:0:
248,122,61643,5,2,0:2:0:0:
248,34,61743,1,10,3:2:0:0:
248,208,61943,1,2,0:2:0:0:
248,122,62143,5,2,3:2:0:0:
337,122,62276,5,2,0:2:0:0:
425,122,62409,5,2,0:2:0:0:
508,24,62543,5,10,3:2:0:0:
372,24,62676,5,2,0:2:0:0:
236,24,62809,5,2,0:2:0:0:
167,81,62943,5,2,3:2:0:0:
236,24,63043,1,2,0:0:0:0:
167,81,63243,5,2,0:2:0:0:
167,170,63343,1,10,3:2:0:0:
62,241,63543,2,0,L|62:343,1,72,2|0,0:2|0:0,0:0:0:0:
5,122,63743,5,2,3:2:0:0:
5,14,63876,5,2,0:2:0:0:
161,14,64009,5,2,0:0:0:0:
161,266,64143,6,0,B|220:266|220:266|220:162|220:162|381:162,1,270,10|0,3:2|0:0,0:0:0:0:
512,300,64543,5,2,3:2:0:0:
512,216,64643,1,2,0:0:0:0:
428,216,64843,5,2,0:2:0:0:
512,216,64943,1,10,3:2:0:0:
476,92,65143,1,2,0:2:0:0:
316,160,65343,5,2,3:2:0:0:
232,160,65476,5,2,0:2:0:0:
148,160,65609,5,2,0:2:0:0:
316,160,65743,5,10,3:2:0:0:
148,160,65876,5,2,0:2:0:0:
316,160,66009,5,2,0:2:0:0:
232,160,66143,5,2,3:2:0:0:
232,240,66243,1,2,0:0:0:0:
232,160,66443,5,2,0:2:0:0:
232,80,66543,1,10,3:2:0:0:
116,28,66743,2,0,L|28:28,1,72,2|0,0:2|0:0,0:0:0:0:
8,128,66943,5,2,3:2:0:0:
8,248,67076,5,2,0:2:0:0:
180,248,67209,5,2,0:2:0:0:
416,248,67343,6,0,B|528:248|528:248|528:136|528:136|476:136,1,270,10|0,3:2|0:0,0:0:0:0:
288,136,67743,5,2,3:2:0:0:
376,136,67843,1,2,0:0:0:0:
288,136,68043,5,2,0:2:0:0:
200,136,68143,1,10,3:2:0:0:
80,300,68343,2,0,L|80:200,1,72,2|0,0:2|0:0,0:0:0:0:
200,136,68543,5,2,3:2:0:0:
200,52,68676,5,2,0:2:0:0:
200,136,68809,5,2,0:2:0:0:
200,260,68943,5,10,3:2:0:0:
328,260,69076,5,2,0:2:0:0:
456,260,69209,5,2,0:2:0:0:
328,136,69343,5,2,3:2:0:0:
412,136,69443,1,2,0:0:0:0:
328,136,69643,5,2,0:2:0:0:
328,52,69743,1,10,3:2:0:0:
328,52,69843,1,2,0:0:0:0:
244,52,69943,2,0,L|132:52,1,80.9999975280763,2|0,0:2|0:0,0:0:0:0:
16,16,70143,6,0,B|8:64|8:64|56:160|56:160|40:304,1,297.000009063721,2|0,3:2|0:0,0:0:0:0:
40,300,70543,1,10,3:2:0:0:
40,300,70743,1,0,0:0:0:0:
339,339,70943,6,0,P|364:283|342:248,1,99.0000030212403,6|0,3:2|0:0,0:0:0:0:
326,288,71143,2,0,P|317:235|360:197,1,99.0000030212403,2|0,0:0|0:0,0:0:0:0:
461,226,71343,1,10,3:2:0:0:
461,226,71543,5,2,0:0:0:0:
461,226,71643,1,2,0:3:0:0:
446,178,71743,5,2,3:3:0:0:
446,178,71843,1,2,0:3:0:0:
365,157,71943,5,2,0:0:0:0:
365,157,72043,1,2,0:0:0:0:
321,90,72143,5,10,3:2:0:0:
321,90,72243,1,2,0:0:0:0:
267,80,72343,1,2,0:0:0:0:
267,80,72543,6,0,P|230:124|167:104,1,99.0000030212403,2|0,3:2|0:0,0:0:0:0:
214,88,72743,2,0,P|162:93|134:147,1,99.0000030212403,2|0,0:0|0:0,0:0:0:0:
176,244,72943,1,10,3:2:0:0:
176,244,73143,5,2,0:0:0:0:
176,244,73243,1,2,0:3:0:0:
115,253,73343,5,2,3:3:0:0:
115,253,73443,1,2,0:3:0:0:
61,185,73543,5,2,0:2:0:0:
61,185,73643,1,2,0:0:0:0:
51,267,73743,5,10,3:2:0:0:
51,267,73843,1,2,0:2:0:0:
82,311,73943,1,2,0:3:0:0:
82,311,74143,6,0,P|130:298|181:331,1,99.0000030212403,2|0,3:2|0:0,0:0:0:0:
134,343,74343,2,0,P|184:352|230:318,1,99.0000030212403,2|0,0:0|0:0,0:0:0:0:
222,226,74543,1,10,3:2:0:0:
222,226,74743,5,2,0:0:0:0:
222,226,74843,1,2,0:3:0:0:
248,183,74943,5,2,3:3:0:0:
248,183,75043,1,2,0:3:0:0:
331,161,75143,5,2,0:0:0:0:
331,161,75243,1,2,0:0:0:0:
346,239,75343,5,10,3:2:0:0:
346,239,75443,1,2,0:0:0:0:
423,254,75543,1,2,0:0:0:0:
423,254,75743,6,0,B|412:227|412:227|448:57,1,198.000006042481,2|0,3:2|0:0,0:0:0:0:
446,61,76043,1,2,0:0:0:0:
375,122,76143,5,10,3:2:0:0:
375,122,76243,1,0,0:0:0:0:
316,65,76343,2,0,B|335:84|335:84|309:193,1,99.0000030212403,2|2,0:0|0:0,0:0:0:0:
211,242,76543,5,2,3:2:0:0:
243,273,76643,1,10,0:0:0:0:
211,242,76743,1,2,0:2:0:0:
243,273,76843,1,2,0:0:0:0:
141,275,76943,1,10,3:2:0:0:
141,275,77043,1,2,0:0:0:0:
196,343,77143,1,2,0:0:0:0:
243,273,77243,1,2,0:0:0:0:
316,330,77343,6,0,P|368:314|376:265,1,99.0000030212403,2|0,3:2|0:0,0:0:0:0:
326,277,77543,2,0,P|360:225|438:234,1,99.0000030212403,2|0,0:0|0:0,0:0:0:0:
494,326,77743,1,10,3:2:0:0:
494,326,77943,5,2,0:0:0:0:
494,326,78043,1,2,0:3:0:0:
458,283,78143,5,2,3:3:0:0:
458,283,78243,1,2,0:3:0:0:
473,204,78343,5,2,0:0:0:0:
473,204,78443,1,2,0:0:0:0:
430,136,78543,5,10,3:2:0:0:
430,136,78643,1,2,0:0:0:0:
379,171,78743,1,2,0:0:0:0:
379,171,78943,6,0,P|335:150|324:83,1,99.0000030212403,2|0,3:2|0:0,0:0:0:0:
368,121,79143,2,0,P|354:61|287:50,1,99.0000030212403,2|0,0:0|0:0,0:0:0:0:
166,72,79343,1,10,3:2:0:0:
166,72,79543,5,2,0:0:0:0:
166,72,79643,1,2,0:3:0:0:
124,117,79743,5,2,3:3:0:0:
124,117,79843,1,2,0:3:0:0:
37,83,79943,5,2,0:2:0:0:
37,83,80043,1,2,0:0:0:0:
10,165,80143,5,10,3:2:0:0:
10,165,80243,1,2,0:2:0:0:
45,222,80343,1,2,0:3:0:0:
45,222,80543,6,0,P|80:271|67:327,1,99.0000030212403,2|0,3:2|0:0,0:0:0:0:
39,279,80743,2,0,P|49:326|111:342,1,99.0000030212403,2|0,0:0|0:0,0:0:0:0:
208,270,80943,1,10,3:2:0:0:
208,270,81143,5,2,0:0:0:0:
208,270,81243,1,2,0:3:0:0:
225,221,81343,5,2,3:3:0:0:
225,221,81443,1,2,0:3:0:0:
195,163,81543,5,2,0:0:0:0:
195,163,81643,1,2,0:0:0:0:
257,107,81743,5,10,3:2:0:0:
257,107,81843,1,2,0:0:0:0:
309,140,81943,1,2,0:0:0:0:
309,140,82143,6,0,P|309:185|371:209,1,99.0000030212403,2|0,3:2|0:0,0:0:0:0:
344,174,82343,2,0,P|392:206|377:264,1,99.0000030212403,2|0,0:0|0:0,0:0:0:0:
298,332,82543,1,10,3:2:0:0:
87,272,82743,5,2,0:0:0:0:
78,210,82843,1,10,0:0:0:0:
119,163,82943,1,2,3:2:0:0:
119,163,83043,1,10,0:0:0:0:
165,231,83143,2,0,B|196:225|196:225|215:152,1,99.0000030212403,2|2,0:2|0:0,0:0:0:0:
233,54,83343,1,10,3:2:0:0:
292,63,83443,1,2,0:0:0:0:
233,54,83543,1,2,0:0:0:0:
292,63,83643,1,2,0:0:0:0:
233,54,83743,6,0,P|193:64|123:28,1,99.0000030212403,6|0,3:2|0:0,0:0:0:0:
193,32,83943,2,0,P|133:14|66:49,1,99.0000030212403,2|0,0:0|0:0,0:0:0:0:
8,125,84143,1,10,3:2:0:0:
8,125,84343,6,0,B|68:251|150:216|227:186|289:307,1,323.999990112305,2|2,0:0|0:3,0:0:0:0:
392,328,84743,1,2,0:0:0:0:
401,283,84843,1,2,0:0:0:0:
392,328,84943,1,10,3:2:0:0:
401,283,85043,1,2,0:0:0:0:
340,220,85143,5,2,0:0:0:0:
340,220,85243,1,2,0:0:0:0:
415,196,85343,6,0,P|386:149|320:147,1,99.0000030212403,2|0,3:2|0:0,0:0:0:0:
356,187,85543,2,0,P|311:176|308:94,1,99.0000030212403,2|0,0:0|0:0,0:0:0:0:
372,21,85743,1,10,3:2:0:0:
372,21,85943,6,0,B|220:2|235:105|254:229|72:200,1,350.999983932496,2|2,0:0|0:3,0:0:0:0:
50,125,86343,1,2,0:2:0:0:
73,82,86443,1,2,0:0:0:0:
50,125,86543,1,10,3:2:0:0:
73,82,86643,1,2,0:2:0:0:
154,65,86743,5,2,0:3:0:0:
154,65,86843,1,2,0:3:0:0:
152,142,86943,6,0,P|180:200|246:205,1,99.0000030212403,2|0,3:2|0:0,0:0:0:0:
201,158,87143,2,0,P|250:182|257:240,1,99.0000030212403,2|0,0:0|0:0,0:0:0:0:
189,354,87343,1,10,3:2:0:0:
189,354,87543,6,0,B|99:254|148:214|215:162|40:61,1,323.999990112305,2|2,0:0|0:3,0:0:0:0:
211,37,87943,1,2,0:0:0:0:
255,47,88043,1,2,0:0:0:0:
211,37,88143,1,10,3:2:0:0:
255,47,88243,1,2,0:0:0:0:
298,125,88343,5,2,0:0:0:0:
298,125,88443,1,2,0:0:0:0:
284,219,88543,6,0,B|285:259|285:259|327:263|327:263|400:324|400:324|463:266|463:266|449:177,1,323.999990112305,2|2,3:2|0:0,0:0:0:0:
420,122,88943,1,10,3:2:0:0:
498,105,89043,1,0,0:0:0:0:
450,72,89143,1,2,0:0:0:0:
465,156,89243,1,2,0:0:0:0:
381,123,89343,1,2,3:2:0:0:
301,139,89443,1,2,0:0:0:0:
283,58,89543,6,0,B|268:34|268:34|164:107,1,107.999996704102,2|2,0:2|0:0,0:0:0:0:
3,258,89743,2,0,B|29:243|29:243|56:167,1,107.999996704102,10|2,3:2|0:0,0:0:0:0:
226,214,89943,1,2,0:0:0:0:
260,258,90043,1,2,0:0:0:0:
256,317,90143,6,0,P|298:338|351:310,1,99.0000030212403,2|0,3:2|0:0,0:0:0:0:
303,291,90343,2,0,P|342:279|410:321,1,99.0000030212403,2|0,0:0|0:0,0:0:0:0:
500,360,90543,1,10,3:2:0:0:
500,360,90743,6,0,B|475:208|394:237|295:272|281:60,1,323.999990112305,2|2,0:0|0:3,0:0:0:0:
153,60,91143,1,2,0:0:0:0:
188,32,91243,1,2,0:0:0:0:
153,60,91343,1,10,3:2:0:0:
188,32,91443,1,2,0:0:0:0:
189,134,91543,5,2,0:0:0:0:
189,134,91643,1,2,0:2:0:0:
153,60,91743,6,0,P|121:67|79:134,1,99.0000030212403,2|0,3:2|0:0,0:0:0:0:
122,97,91943,2,0,P|118:130|59:166,1,99.0000030212403,2|0,0:0|0:0,0:0:0:0:
3,277,92143,1,10,3:2:0:0:
3,277,92343,6,0,B|99:151|151:221|216:303|316:136,1,350.999983932496,2|2,0:0|0:3,0:0:0:0:
399,32,92743,1,2,0:2:0:0:
447,42,92843,1,2,0:0:0:0:
399,32,92943,1,10,3:2:0:0:
447,42,93043,1,2,0:2:0:0:
391,110,93143,5,2,0:3:0:0:
391,110,93243,1,2,0:3:0:0:
447,42,93343,6,0,P|432:83|472:142,1,99.0000030212403,2|0,3:2|0:0,0:0:0:0:
476,88,93543,2,0,P|502:125|482:189,1,99.0000030212403,2|0,0:0|0:0,0:0:0:0:
394,287,93743,1,10,3:2:0:0:
394,287,93943,6,0,B|288:187|248:239|201:307|83:168,1,323.999990112305,2|2,0:0|0:3,0:0:0:0:
49,71,94343,1,2,0:0:0:0:
90,52,94443,1,2,0:0:0:0:
49,71,94543,1,10,3:2:0:0:
90,52,94643,1,2,0:0:0:0:
108,132,94743,5,2,0:0:0:0:
108,132,94843,1,2,0:2:0:0:
90,52,94943,6,0,P|148:81|200:60,1,99.0000030212403,2|0,3:2|0:0,0:0:0:0:
145,42,95143,2,0,P|193:25|251:47,1,99.0000030212403,2|0,0:0|0:0,0:0:0:0:
372,140,95343,1,10,3:2:0:0:
372,140,95543,6,0,B|381:159|381:159|292:243,1,99.0000030212403,2|10,0:0|0:0,0:0:0:0:
190,259,95743,1,2,3:2:0:0:
227,187,95843,1,10,0:0:0:0:
279,253,95943,2,0,B|278:277|278:277|387:312,1,99.0000030212403,2|0,0:2|0:0,0:0:0:0:
480,272,96143,5,10,3:2:0:0:
504,224,96243,1,2,0:0:0:0:
496,172,96343,1,2,0:0:0:0:
464,132,96443,1,2,0:0:0:0:
348,92,96543,6,0,L|240:92,1,99.0000030212403,6|2,3:2|0:2,0:0:0:0:
128,92,96743,1,2,0:0:0:0:
128,92,96843,1,2,0:2:0:0:
172,168,96943,2,0,L|172:268,1,99.0000030212403,10|2,3:2|0:0,0:0:0:0:
172,348,97143,1,2,0:2:0:0:
172,348,97243,1,2,0:0:0:0:
88,348,97343,5,2,3:2:0:0:
88,244,97476,5,2,0:2:0:0:
256,244,97609,5,2,0:2:0:0:
256,348,97743,5,10,3:2:0:0:
256,244,97876,5,2,0:2:0:0:
88,244,98009,5,2,0:2:0:0:
348,240,98143,5,2,3:2:0:0:
348,220,98243,1,2,0:0:0:0:
348,200,98343,1,2,0:0:0:0:
348,180,98443,1,2,0:2:0:0:
306,94,98543,6,0,L|422:94,1,99.0000030212403,10|2,3:2|0:0,0:0:0:0:
380,150,98743,1,2,0:2:0:0:
380,170,98843,1,0,0:0:0:0:
348,240,98943,6,0,L|348:92,2,132.00000402832,2|2|2,3:2|0:2|0:2,0:0:0:0:
348,240,99343,2,0,B|248:240|248:240|248:348,1,198.000006042481,10|0,3:2|0:0,0:0:0:0:
124,336,99743,5,2,3:2:0:0:
40,336,99843,1,2,0:0:0:0:
40,256,100043,5,2,0:2:0:0:
124,256,100143,1,10,3:2:0:0:
124,240,100243,1,2,0:0:0:0:
124,160,100343,2,0,L|240:160,1,99.0000030212403,2|2,0:2|0:0,0:0:0:0:
416,160,100543,5,2,3:2:0:0:
320,160,100676,5,2,0:2:0:0:
223,160,100809,5,2,0:2:0:0:
416,160,100943,5,10,3:2:0:0:
124,160,101076,5,2,0:2:0:0:
320,160,101209,5,2,0:2:0:0:
223,160,101343,6,0,L|224:288,1,99.0000030212403,2|2,3:2|0:0,0:0:0:0:
228,364,101543,1,2,0:0:0:0:
248,364,101643,1,2,0:2:0:0:
304,300,101743,1,10,3:2:0:0:
324,300,101843,1,2,0:0:0:0:
344,300,101943,2,0,L|452:300,1,99.0000030212403,2|0,0:2|0:0,0:0:0:0:
512,188,102143,5,2,3:2:0:0:
512,72,102276,5,2,0:2:0:0:
336,72,102409,5,2,0:0:0:0:
108,72,102543,6,0,L|108:300,1,198.000006042481,10|0,3:2|0:0,0:0:0:0:
216,344,102943,5,2,3:2:0:0:
308,344,103043,1,2,0:0:0:0:
308,260,103243,5,2,0:2:0:0:
216,260,103343,1,10,3:2:0:0:
216,236,103443,1,2,0:0:0:0:
280,176,103543,2,0,L|392:176,1,99.0000030212403,2|2,0:2|0:0,0:0:0:0:
488,68,103743,5,2,3:2:0:0:
492,228,103876,5,2,0:2:0:0:
296,68,104009,5,2,0:2:0:0:
488,68,104143,5,10,3:2:0:0:
492,228,104276,5,2,0:2:0:0:
492,316,104409,5,2,0:2:0:0:
368,320,104543,5,2,3:2:0:0:
368,320,104643,1,2,0:0:0:0:
284,320,104743,2,0,L|284:208,1,99.0000030212403,2|2,0:0|0:2,0:0:0:0:
184,240,104943,1,10,3:2:0:0:
184,240,105043,1,2,0:0:0:0:
185,320,105143,2,0,L|321:320,1,99.0000030212403,2|0,0:2|0:0,0:0:0:0:
284,221,105343,5,2,3:2:0:0:
284,104,105476,5,2,0:2:0:0:
168,104,105609,5,2,0:2:0:0:
368,104,105743,6,0,B|368:4|368:4|264:4,1,198.000006042481,10|0,3:2|0:0,0:0:0:0:
48,104,106143,5,2,3:2:0:0:
48,196,106243,1,2,0:0:0:0:
144,148,106443,5,2,0:2:0:0:
144,240,106543,1,10,3:2:0:0:
124,240,106643,1,2,0:0:0:0:
228,244,106743,2,0,L|352:244,1,99.0000030212403,2|2,0:2|0:0,0:0:0:0:
488,244,106943,5,2,3:2:0:0:
327,244,107076,5,2,0:2:0:0:
488,244,107209,5,2,0:2:0:0:
228,244,107343,5,10,3:2:0:0:
80,244,107476,5,2,0:2:0:0:
80,88,107609,5,2,0:2:0:0:
228,88,107743,5,2,3:2:0:0:
256,88,107843,1,2,0:0:0:0:
284,88,107943,1,2,0:0:0:0:
312,88,108043,1,2,0:2:0:0:
344,160,108143,2,0,L|344:44,1,99.0000030212403,10|2,3:2|0:0,0:0:0:0:
204,180,108343,6,0,B|172:180|172:180|172:304,1,116.999994644165,2|0,0:2|0:0,0:0:0:0:
124,352,108543,1,2,3:2:0:0:
216,352,108643,1,8,0:0:0:0:
308,352,108743,1,0,0:0:0:0:
400,352,108943,5,2,0:2:0:0:
400,340,109009,5,2,0:0:0:0:
400,328,109076,5,2,0:0:0:0:
400,316,109143,5,2,0:2:0:0:
400,300,109209,5,2,0:0:0:0:
458,226,109343,5,2,0:1:0:0:
