osu file format v14

[General]
AudioFilename: audio.mp3
AudioLeadIn: 0
PreviewTime: 38943
Countdown: 0
SampleSet: Soft
StackLeniency: 0.7
Mode: 0
LetterboxInBreaks: 0
WidescreenStoryboard: 1

[Editor]
Bookmarks: 13343,26143,38943,51743,58143,70943,96543,109343,112543
DistanceSpacing: 1
BeatDivisor: 4
GridSize: 4
TimelineZoom: 1.6

[Metadata]
Title:Period. ~ Seishin no Kousoku to Jiyuu o Tsukamu Jouka (Cut Ver.)
TitleUnicode:Period. ~ 精神ノ拘束ト自由ヲ掴ム浄化 (Cut Ver.)
Artist:tsunamix_underground
ArtistUnicode:tsunamix_underground
Creator:bob
Version:hard.
Source:東方Project
Tags:Touhou 水斎 -Prism- Suisai TOCD-0035 C-CLAYS 大空魔術 ~ Magical Astronomy ZUN Greenwich in the sky 天空のグリニッジ chai the tea electronic instrumental
BeatmapID:3361531
BeatmapSetID:1594769

[Difficulty]
HPDrainRate:4.4
CircleSize:3.6
OverallDifficulty:6.5
ApproachRate:7.5
SliderMultiplier:1.6
SliderTickRate:1

[Events]
//Background and Video events
0,0,"96871290_p.jpg",0,0
//Break Periods
//Storyboard Layer 0 (Background)
//Storyboard Layer 1 (Fail)
//Storyboard Layer 2 (Pass)
//Storyboard Layer 3 (Foreground)
//Storyboard Layer 4 (Overlay)
//Storyboard Sound Samples

[TimingPoints]
543,400,4,2,2,60,1,0
11743,-100,4,2,7,70,0,0
26143,-100,4,2,3,80,0,0
38943,-83.3333333333333,4,2,2,90,0,0
51743,-125,4,2,14,70,0,0
52143,-90.9090909090909,4,2,14,70,0,0
52543,-125,4,2,14,70,0,0
52843,-90.9090909090909,4,2,14,70,0,0
53343,-125,4,2,14,70,0,0
54143,-142.857142857143,4,2,14,70,0,0
54943,-100,4,2,14,70,0,0
55743,-100,4,2,14,70,0,0
58143,-83.3333333333333,4,2,4,90,0,0
70143,-90.9090909090909,4,2,4,90,0,0
70943,-100,4,2,2,80,0,0
75743,-83.3333333333333,4,2,2,80,0,0
77343,-100,4,2,2,80,0,0
83743,-100,4,2,4,80,0,0
88543,-83.3333333333333,4,2,4,80,0,0
90143,-100,4,2,4,80,0,0
96343,-100,4,2,5,90,0,0
96543,-83.3333333333333,4,2,5,90,0,0
108943,-83.3333333333333,4,2,2,90,0,0

[Colours]
Combo1 : 255,255,224
Combo2 : 0,0,255
Combo3 : 135,206,250
Combo4 : 255,0,0
Combo5 : 240,128,128
Combo6 : 255,255,0

[HitObjects]
332,149,13343,6,0,P|330:171|313:193,1,40,8|8,3:3|0:3,0:0:0:0:
220,219,13643,1,8,0:3:0:0:
179,282,13843,1,8,0:3:0:0:
104,273,14043,2,0,P|79:284|64:312,2,40,8|2|2,0:3|3:2|0:2,0:0:0:0:
35,218,14443,5,2,0:2:0:0:
41,208,14543,2,0,P|59:174|32:118,1,80,10|2,3:2|0:2,0:0:0:0:
35,44,14943,1,2,3:2:0:0:
38,33,15043,2,0,P|73:26|144:60,1,80,2|2,0:2|0:2,0:0:0:0:
154,76,15343,5,10,3:2:0:0:
236,62,15543,1,2,0:2:0:0:
311,134,15743,2,0,B|328:151|328:151|399:156,1,80,2|2,3:2|0:2,0:0:0:0:
469,138,16143,2,0,B|452:121|452:121|375:115,1,80,10|2,3:2|0:2,0:0:0:0:
355,236,16543,6,0,P|358:269|381:296,1,40,8|8,3:3|0:3,0:0:0:0:
477,316,16843,1,8,0:3:0:0:
416,361,17043,1,8,0:3:0:0:
339,354,17243,2,0,P|321:354|293:379,2,40,8|2|2,0:3|3:2|0:2,0:0:0:0:
249,304,17643,5,2,0:2:0:0:
240,311,17743,2,0,P|275:271|277:225,1,80,10|2,3:2|0:2,0:0:0:0:
330,172,18143,1,2,3:2:0:0:
333,161,18243,2,0,P|280:141|228:160,1,80,2|2,0:2|0:2,0:0:0:0:
220,188,18543,5,10,3:2:0:0:
153,135,18743,1,2,0:2:0:0:
140,259,18943,2,0,B|126:257|126:257|81:273,2,40,2|8|2,3:2|0:0|0:2,0:0:0:0:
62,242,19343,2,0,P|30:191|49:142,1,80,10|2,3:2|0:2,0:0:0:0:
126,64,19743,6,0,P|139:94|137:113,1,40,8|8,3:3|0:3,0:0:0:0:
225,163,20043,1,8,0:3:0:0:
292,118,20243,1,8,0:3:0:0:
270,41,20443,2,0,P|281:26|320:20,2,40,8|2|2,0:3|3:2|0:2,0:0:0:0:
363,67,20843,5,2,0:2:0:0:
366,78,20943,2,0,P|392:139|427:154,1,80,10|2,3:2|0:2,0:0:0:0:
493,138,21343,1,2,3:2:0:0:
490,149,21443,2,0,P|463:210|429:225,1,80,2|2,0:2|0:2,0:0:0:0:
441,268,21743,5,10,3:2:0:0:
361,288,21943,1,2,0:2:0:0:
286,216,22143,2,0,B|269:199|269:199|192:193,1,80,2|2,3:2|0:2,0:0:0:0:
128,212,22543,2,0,B|145:229|145:229|222:235,1,80,10|2,3:2|0:2,0:0:0:0:
233,112,22943,6,0,P|228:78|215:66,1,40,8|8,3:3|0:3,0:0:0:0:
123,29,23243,1,8,0:3:0:0:
57,67,23443,1,8,0:3:0:0:
41,143,23643,2,0,P|38:168|19:195,2,40,8|2|2,0:3|3:2|0:2,0:0:0:0:
121,217,24043,5,2,0:2:0:0:
129,227,24143,1,10,3:2:0:0:
218,219,24343,1,2,0:2:0:0:
185,149,24543,5,2,3:2:0:0:
185,149,26143,5,2,3:2:0:0:
175,173,26243,1,2,0:2:0:0:
218,242,26443,1,2,0:2:0:0:
129,297,26743,1,2,0:2:0:0:
64,243,26943,6,0,P|39:264|30:304,2,53.3333333333333,2|0|0,3:2|0:2|0:2,0:0:0:0:
100,158,27343,2,0,P|132:186|136:228,2,53.3333333333333,2|0|0,3:2|0:2|0:2,0:0:0:0:
10,122,27743,5,2,3:2:0:0:
92,59,28043,1,2,0:2:0:0:
190,93,28343,1,2,0:2:0:0:
264,54,28543,5,2,3:2:0:0:
280,57,28676,5,0,0:3:0:0:
293,67,28809,5,0,0:0:0:0:
298,120,28943,5,2,3:2:0:0:
198,246,29343,6,0,B|199:265|199:265|221:286,2,40,2|2|0,3:2|0:2|0:0,0:0:0:0:
295,262,29643,2,0,B|318:265|318:265|342:291,2,40,2|0|0,0:2|0:0|0:0,0:0:0:0:
293,354,29943,1,2,0:2:0:0:
424,306,30143,6,0,P|433:270|421:235,2,53.3333333333333,2|0|0,3:2|0:2|0:2,0:0:0:0:
415,209,30543,2,0,P|450:196|482:214,2,53.3333333333333,2|0|0,3:2|0:2|0:2,0:0:0:0:
307,186,30943,5,2,3:2:0:0:
360,97,31243,1,2,0:2:0:0:
463,110,31543,1,2,0:2:0:0:
493,35,31743,5,2,3:2:0:0:
480,25,31876,5,0,0:3:0:0:
464,22,32009,5,0,0:0:0:0:
411,38,32143,6,0,B|398:40|398:40|358:33,1,40,2|0,3:2|0:0,0:0:0:0:
319,66,32343,2,0,B|307:64|307:64|247:85,1,40,2|0,3:2|0:0,0:0:0:0:
269,170,32543,1,2,3:2:0:0:
170,140,32843,1,2,0:2:0:0:
86,201,33143,1,2,0:2:0:0:
154,240,33343,6,0,P|143:268|97:293,2,53.3333333333333,2|0|0,3:2|0:2|0:2,0:0:0:0:
214,171,33743,2,0,P|225:199|271:228,2,53.3333333333333,2|0|0,3:2|0:2|0:2,0:0:0:0:
324,170,34143,5,2,3:2:0:0:
373,261,34443,1,2,0:2:0:0:
295,329,34743,1,2,0:2:0:0:
227,279,34943,5,2,3:2:0:0:
211,282,35076,5,0,0:3:0:0:
198,292,35209,5,0,0:0:0:0:
193,345,35343,5,2,3:2:0:0:
18,351,35743,6,0,B|5:337|5:337|4:298,2,40,2|2|0,3:2|0:2|0:0,0:0:0:0:
75,271,36043,2,0,B|89:254|89:254|87:219,2,40,2|0|0,0:2|0:0|0:0,0:0:0:0:
8,207,36343,1,2,0:2:0:0:
130,143,36543,6,0,P|160:154|182:190,2,53.3333333333333,2|0|0,3:2|0:2|0:2,0:0:0:0:
195,196,36943,2,0,P|240:172|247:142,2,53.3333333333333,2|0|0,3:2|0:2|0:2,0:0:0:0:
166,302,37343,5,2,3:2:0:0:
261,343,37643,1,2,0:2:0:0:
345,282,37943,1,2,0:2:0:0:
327,196,38143,5,2,3:2:0:0:
347,178,38276,5,0,0:3:0:0:
373,178,38409,5,0,0:0:0:0:
403,222,38543,5,2,3:2:0:0:
144,139,38943,5,6,3:2:0:0:
68,63,39243,1,2,0:2:0:0:
73,44,39343,1,8,3:2:0:0:
7,108,39543,1,2,0:2:0:0:
44,209,39743,5,2,3:2:0:0:
61,223,39876,5,2,0:2:0:0:
83,222,40009,5,2,0:2:0:0:
117,177,40143,6,0,P|129:204|118:264,2,63.9999980468751,10|2|2,3:2|0:2|0:2,0:0:0:0:
76,315,40543,6,0,B|82:336|82:336|119:358,2,47.9999985351563,2|0|0,3:2|0:0|0:0,0:0:0:0:
150,342,40843,1,2,0:2:0:0:
160,333,40943,1,8,3:2:0:0:
247,363,41143,1,2,0:2:0:0:
338,296,41343,5,2,3:2:0:0:
350,269,41476,5,2,0:2:0:0:
347,240,41609,5,2,0:2:0:0:
295,216,41743,5,10,3:2:0:0:
459,117,42143,6,0,B|453:99|453:99|475:53,2,47.9999985351563,2|2|0,3:2|0:2|0:0,0:0:0:0:
427,37,42443,1,2,0:2:0:0:
414,41,42543,1,8,3:2:0:0:
352,108,42743,1,2,0:2:0:0:
251,70,42943,5,2,3:2:0:0:
229,67,43076,5,2,0:2:0:0:
211,80,43209,5,2,0:2:0:0:
207,136,43343,6,0,P|182:119|157:62,2,63.9999980468751,10|2|2,3:2|0:2|0:2,0:0:0:0:
248,226,43743,6,0,B|247:246|247:246|222:275,2,47.9999985351563,2|0|0,3:2|0:0|0:0,0:0:0:0:
171,269,44043,1,2,0:2:0:0:
161,260,44143,1,8,3:2:0:0:
110,336,44343,1,2,0:2:0:0:
216,354,44543,6,0,B|256:366|298:336,2,63.9999980468751,2|2|2,3:2|0:2|0:0,0:0:0:0:
325,290,44943,5,10,3:2:0:0:
335,284,45043,1,0,0:0:0:0:
348,283,45143,2,0,P|376:291|407:281,1,47.9999985351563,2|0,3:2|0:0,0:0:0:0:
444,305,45343,2,0,B|443:320|443:320|486:347,2,47.9999985351563,2|2|0,3:2|0:2|0:0,0:0:0:0:
483,242,45643,2,0,B|474:228|474:228|494:181,2,47.9999985351563,2|8|0,0:2|3:2|0:0,0:0:0:0:
447,162,45943,1,2,0:2:0:0:
490,69,46143,5,2,3:2:0:0:
487,46,46276,5,2,0:2:0:0:
469,32,46409,5,2,0:2:0:0:
423,67,46543,6,0,P|393:67|346:28,2,63.9999980468751,10|2|2,3:2|0:2|0:2,0:0:0:0:
334,140,46943,6,0,B|328:161|328:161|289:184,2,47.9999985351563,2|0|0,3:2|0:0|0:0,0:0:0:0:
260,167,47243,1,2,0:2:0:0:
250,158,47343,1,8,3:2:0:0:
268,68,47543,1,2,0:2:0:0:
161,31,47743,5,2,3:2:0:0:
134,44,47876,5,2,0:2:0:0:
119,69,48009,5,2,0:2:0:0:
145,120,48143,5,10,3:2:0:0:
33,246,48543,6,0,B|26:265|26:265|34:316,2,47.9999985351563,2|2|0,3:2|0:2|0:0,0:0:0:0:
74,319,48843,1,2,0:2:0:0:
86,312,48943,1,8,3:2:0:0:
167,355,49143,1,2,0:2:0:0:
251,287,49343,5,2,3:2:0:0:
258,265,49476,5,2,0:2:0:0:
248,244,49609,5,2,0:2:0:0:
196,222,49743,6,0,P|166:222|120:183,2,63.9999980468751,10|2|2,3:2|0:2|0:2,0:0:0:0:
243,130,50143,6,0,B|268:118|268:118|308:124,2,47.9999985351563,2|0|0,3:2|0:0|0:0,0:0:0:0:
316,172,50443,1,2,0:2:0:0:
327,180,50543,1,8,3:2:0:0:
384,108,50743,1,2,0:2:0:0:
475,185,50943,5,2,3:2:0:0:
475,217,51076,5,2,0:2:0:0:
457,244,51209,5,2,0:0:0:0:
403,228,51343,5,10,3:2:0:0:
147,271,51743,6,0,P|102:267|78:207,1,96,6|0,0:2|0:0,0:0:0:0:
97,211,52143,2,0,B|139:161|92:128|144:79,1,132.00000402832
147,115,52543,2,0,P|176:124|215:102,1,64,2|0,0:2|0:0,0:0:0:0:
220,89,52843,6,0,B|232:34|304:33,1,88.000002685547,2|0,0:2|0:0,0:0:0:0:
351,85,53143,1,2,0:2:0:0:
351,85,53343,2,0,P|371:116|424:123,1,64,2|0,0:2|0:0,0:0:0:0:
398,138,53643,2,0,P|391:168|352:197,1,64,2|0,0:2|0:0,0:0:0:0:
364,235,53943,1,2,0:2:0:0:
364,235,54143,2,0,B|317:214|267:256|215:230,1,139.999995727539,2|0,0:2|0:0,0:0:0:0:
182,250,54743,5,0,0:0:0:0:
129,193,54943,2,0,P|63:187|42:244,1,120,2|0,0:2|0:0,0:0:0:0:
76,269,55343,5,2,0:2:0:0:
96,343,55543,1,2,0:2:0:0:
172,330,55743,2,0,P|215:323|253:348,1,80,2|2,0:2|0:2,0:0:0:0:
320,358,56043,2,0,P|363:365|401:340,1,80,0|2,0:0|0:2,0:0:0:0:
466,271,56343,2,0,B|447:266|447:266|415:270,1,40
347,280,56543,5,2,0:2:0:0:
347,68,57343,5,2,0:2:0:0:
237,91,57543,2,0,B|245:105|245:105|245:149,1,40,2|0,0:2|0:0,0:0:0:0:
205,161,57743,2,0,B|197:175|197:175|197:219,1,40,2|0,0:0|0:0,0:0:0:0:
227,240,57943,2,0,B|235:254|235:254|235:299,1,40,2|0,0:2|0:0,0:0:0:0:
197,323,58143,5,6,3:2:0:0:
189,334,58243,1,2,0:2:0:0:
112,288,58443,1,2,0:2:0:0:
109,275,58543,1,8,3:2:0:0:
31,219,58743,2,0,P|35:185|60:159,1,47.9999985351563,2|0,0:2|0:0,0:0:0:0:
69,117,58943,6,0,P|95:139|146:145,2,63.9999980468751,2|2|2,3:3|0:2|0:2,0:0:0:0:
175,121,59343,2,0,P|183:160|173:191,2,63.9999980468751,10|2|2,3:2|0:2|0:2,0:0:0:0:
251,72,59743,5,2,3:2:0:0:
261,63,59843,1,0,0:0:0:0:
339,115,60043,1,2,0:2:0:0:
335,102,60143,1,8,3:2:0:0:
405,43,60343,1,2,0:2:0:0:
460,123,60543,5,2,3:2:0:0:
462,144,60676,5,2,0:2:0:0:
457,164,60809,5,2,0:2:0:0:
410,198,60943,6,0,B|373:212|374:258|332:273,1,95.9999970703126,10|0,3:2|0:0,0:0:0:0:
231,251,61343,5,2,3:2:0:0:
220,259,61443,1,2,0:2:0:0:
259,342,61643,1,2,0:2:0:0:
267,331,61743,1,8,3:2:0:0:
369,341,61943,2,0,P|397:339|430:359,1,47.9999985351563,2|0,0:2|0:0,0:0:0:0:
469,329,62143,6,0,P|494:287|483:246,2,63.9999980468751,2|2|2,3:2|0:2|0:2,0:0:0:0:
441,257,62543,2,0,P|397:250|366:212,2,63.9999980468751,10|2|2,3:2|0:2|0:2,0:0:0:0:
484,183,62943,5,2,3:2:0:0:
487,170,63043,1,0,0:0:0:0:
408,123,63243,1,2,0:2:0:0:
403,110,63343,1,8,3:2:0:0:
457,36,63543,1,2,0:2:0:0:
350,24,63743,5,2,3:2:0:0:
330,39,63876,5,2,0:2:0:0:
305,35,64009,5,2,0:0:0:0:
258,90,64143,6,0,B|224:140|251:197,1,95.9999970703126,10|2,3:2|3:2,0:0:0:0:
189,269,64543,5,2,3:2:0:0:
185,282,64643,1,2,0:2:0:0:
101,246,64843,1,2,0:2:0:0:
97,233,64943,1,8,3:2:0:0:
153,154,65143,2,0,P|149:112|128:93,1,47.9999985351563,2|0,0:2|0:0,0:0:0:0:
91,95,65343,6,0,P|53:91|18:56,2,63.9999980468751,2|2|2,3:2|0:2|0:2,0:0:0:0:
180,29,65743,2,0,P|149:20|118:24,2,63.9999980468751,10|2|2,3:2|0:2|0:2,0:0:0:0:
233,99,66143,5,2,3:2:0:0:
246,94,66243,1,0,0:0:0:0:
332,135,66443,1,2,0:2:0:0:
338,147,66543,1,8,3:2:0:0:
258,190,66743,1,2,0:2:0:0:
153,169,66943,5,2,3:2:0:0:
140,185,67076,5,2,0:2:0:0:
134,205,67209,5,2,0:2:0:0:
164,244,67343,6,0,B|166:303|234:312,1,95.9999970703126,10|0,3:2|0:0,0:0:0:0:
312,248,67743,5,2,3:2:0:0:
321,239,67843,1,2,0:2:0:0:
381,308,68043,1,2,0:2:0:0:
392,316,68143,1,8,3:2:0:0:
432,233,68343,2,0,P|442:199|435:173,1,47.9999985351563,2|0,0:2|0:0,0:0:0:0:
387,157,68543,6,0,P|421:134|465:149,2,63.9999980468751,2|2|2,3:2|0:2|0:2,0:0:0:0:
475,98,68943,2,0,P|463:70|473:27,2,63.9999980468751,10|2|2,3:2|0:2|0:2,0:0:0:0:
419,21,69343,5,2,3:2:0:0:
406,25,69443,1,0,0:0:0:0:
346,94,69643,1,2,0:2:0:0:
334,88,69743,1,8,3:2:0:0:
232,35,69943,6,0,P|207:43|190:84,1,47.9999985351563,2|0,0:2|0:0,0:0:0:0:
211,107,70143,2,0,B|175:146|120:121|120:121|73:131|58:199,1,176.000005371094,2|10,3:2|3:2,0:0:0:0:
224,339,70943,5,6,3:2:0:0:
297,316,71143,1,2,0:0:0:0:
319,201,71343,1,10,3:2:0:0:
384,241,71543,2,0,P|425:206|398:121,1,120,2|0,0:0|0:0,0:0:0:0:
365,135,71943,5,2,0:0:0:0:
354,115,72043,1,2,0:0:0:0:
358,93,72143,2,0,B|361:79|361:79|346:44,2,40,10|2|2,3:2|0:0|0:0,0:0:0:0:
254,80,72543,5,2,3:2:0:0:
197,29,72743,1,2,0:0:0:0:
160,140,72943,1,10,3:2:0:0:
85,154,73143,2,0,P|42:189|51:267,1,120,2|0,0:0|0:0,0:0:0:0:
87,255,73543,6,0,B|110:256|110:256|130:292,1,40,2|2,0:2|0:0,0:0:0:0:
120,317,73743,1,10,3:2:0:0:
128,328,73843,1,2,0:2:0:0:
290,295,74143,5,2,3:2:0:0:
322,226,74343,1,2,0:0:0:0:
253,133,74543,1,10,3:2:0:0:
325,108,74743,2,0,P|348:63|411:98,1,120,2|0,0:0|0:0,0:0:0:0:
414,132,75143,5,2,0:0:0:0:
423,152,75243,1,2,0:0:0:0:
442,163,75343,2,0,B|449:180|449:180|443:212,2,40,10|2|2,3:2|0:0|0:0,0:0:0:0:
372,345,75743,6,0,P|339:347|269:290,1,95.9999970703126,2|0,3:2|0:0,0:0:0:0:
297,268,76043,1,2,0:0:0:0:
295,254,76143,2,0,B|284:243|284:243|225:239,1,47.9999985351563,10|0,3:2|0:0,0:0:0:0:
198,299,76343,2,0,B|183:294|183:294|150:245,1,47.9999985351563,2|2,0:0|0:0,0:0:0:0:
186,170,76543,2,0,B|167:167|167:167|117:189,1,47.9999985351563,2|10,3:2|0:0,0:0:0:0:
85,262,76743,1,2,0:2:0:0:
3,159,76943,6,0,B|20:138|20:138|16:100,2,47.9999985351563,10|0|2,3:2|0:0|0:0,0:0:0:0:
52,28,77343,5,2,3:2:0:0:
113,74,77543,1,2,0:0:0:0:
220,30,77743,1,10,3:2:0:0:
251,100,77943,2,0,P|308:98|342:26,1,120,2|0,0:0|0:0,0:0:0:0:
393,62,78343,5,2,0:0:0:0:
415,62,78443,1,2,0:0:0:0:
432,76,78543,2,0,B|442:85|442:85|479:90,2,40,10|2|2,3:2|0:0|0:0,0:0:0:0:
398,171,78943,5,2,3:2:0:0:
419,245,79143,1,2,0:0:0:0:
304,226,79343,1,10,3:2:0:0:
247,175,79543,2,0,P|202:191|159:262,1,120,2|0,0:0|0:0,0:0:0:0:
107,255,79943,6,0,B|88:258|88:258|46:232,1,40,2|2,0:2|0:0,0:0:0:0:
46,204,80143,1,10,3:2:0:0:
54,193,80243,1,2,0:2:0:0:
13,358,80543,5,2,3:2:0:0:
85,333,80743,1,2,0:0:0:0:
198,362,80943,1,10,3:2:0:0:
235,295,81143,2,0,P|296:297|336:359,1,120,2|0,0:0|0:0,0:0:0:0:
383,363,81543,5,2,0:0:0:0:
403,354,81643,1,2,0:0:0:0:
414,335,81743,2,0,B|431:328|431:328|465:335,2,40,10|2|2,3:2|0:0|0:0,0:0:0:0:
387,244,82143,5,2,3:2:0:0:
443,192,82343,1,2,0:0:0:0:
428,76,82543,1,10,3:2:0:0:
354,108,82743,6,0,B|347:126|347:126|346:159,1,40,2|10,0:0|0:0,0:0:0:0:
231,72,83043,2,0,B|231:52|231:52|220:22,1,40,10|2,0:0|0:2,0:0:0:0:
117,133,83343,6,0,P|103:151|97:183,1,40,10|0,3:2|0:0,0:0:0:0:
129,205,83543,2,0,P|130:222|109:257,1,40,2|2,0:0|0:0,0:0:0:0:
69,265,83743,5,6,3:2:0:0:
115,326,83943,1,2,0:0:0:0:
226,288,84143,1,10,3:2:0:0:
245,362,84343,2,0,P|297:354|313:278,1,120,2|0,0:0|0:0,0:0:0:0:
354,253,84743,6,0,B|363:242|363:242|418:245,1,40,2|2,0:0|0:0,0:0:0:0:
439,231,84943,1,10,3:2:0:0:
452,213,85043,1,2,0:0:0:0:
451,191,85143,1,2,0:0:0:0:
390,129,85343,5,2,3:2:0:0:
450,83,85543,1,2,0:0:0:0:
346,29,85743,1,10,3:2:0:0:
298,89,85943,2,0,P|247:121|185:85,1,120,2|0,0:0|0:0,0:0:0:0:
191,48,86343,6,0,B|185:36|185:36|140:18,2,40,2|2|10,0:2|0:0|3:2,0:0:0:0:
110,40,86643,1,2,0:2:0:0:
44,182,86943,5,2,3:2:0:0:
101,233,87143,1,2,0:0:0:0:
206,181,87343,1,10,3:2:0:0:
271,222,87543,2,0,P|310:260|255:304,1,120,2|0,0:0|0:0,0:0:0:0:
231,336,87943,6,0,B|211:328|211:328|162:342,1,40,2|2,0:0|0:0,0:0:0:0:
142,366,88143,1,10,3:2:0:0:
125,353,88243,1,2,0:0:0:0:
121,332,88343,1,2,0:0:0:0:
46,240,88543,6,0,P|60:210|143:196,1,95.9999970703126,2|0,3:2|0:0,0:0:0:0:
150,213,88843,1,2,0:0:0:0:
163,218,88943,2,0,B|178:213|178:213|209:167,1,47.9999985351563,10|0,3:2|0:0,0:0:0:0:
171,102,89143,2,0,B|187:89|187:89|240:99,1,47.9999985351563,2|2,0:0|0:0,0:0:0:0:
298,168,89343,2,0,B|312:155|312:155|328:104,1,47.9999985351563,2|2,3:2|0:0,0:0:0:0:
264,26,89543,1,2,0:2:0:0:
375,24,89743,5,10,3:2:0:0:
383,36,89843,1,0,0:0:0:0:
383,50,89943,1,2,0:0:0:0:
448,124,90143,5,2,3:2:0:0:
405,187,90343,1,2,0:0:0:0:
488,269,90543,1,10,3:2:0:0:
412,277,90743,2,0,P|358:271|332:338,1,120,2|0,0:0|0:0,0:0:0:0:
270,318,91143,6,0,B|253:317|253:317|229:293,1,40,2|2,0:0|0:0,0:0:0:0:
246,248,91343,1,10,3:2:0:0:
242,227,91443,1,2,0:0:0:0:
229,210,91543,1,2,0:0:0:0:
139,218,91743,5,2,3:2:0:0:
155,143,91943,1,2,0:0:0:0:
121,31,92143,1,10,3:2:0:0:
58,75,92343,2,0,P|29:123|36:208,1,120,2|0,0:0|0:0,0:0:0:0:
79,199,92743,6,0,B|90:204|90:204|111:247,2,40,2|2|10,0:2|0:0|3:2,0:0:0:0:
96,276,93043,1,2,0:2:0:0:
239,339,93343,5,2,3:2:0:0:
283,276,93543,1,2,0:0:0:0:
388,327,93743,1,10,3:2:0:0:
376,251,93943,2,0,P|402:204|479:220,1,120,2|0,0:0|0:0,0:0:0:0:
469,149,94343,6,0,B|478:130|478:130|463:93,1,40,2|2,0:0|0:0,0:0:0:0:
414,91,94543,1,10,3:2:0:0:
404,72,94643,1,2,0:0:0:0:
408,51,94743,1,2,0:0:0:0:
329,110,94943,5,2,3:2:0:0:
272,59,95143,1,2,0:0:0:0:
225,166,95343,1,10,3:2:0:0:
256,248,95543,5,2,0:0:0:0:
251,260,95643,2,0,P|198:285|145:273,1,80,10|10,0:0|0:0,0:0:0:0:
151,252,95943,1,2,0:2:0:0:
63,183,96143,5,10,3:2:0:0:
71,162,96243,1,2,0:0:0:0:
93,155,96343,1,2,0:0:0:0:
191,95,96543,5,6,3:2:0:0:
302,148,96843,1,2,0:2:0:0:
319,140,96943,1,8,3:2:0:0:
312,236,97143,1,2,0:2:0:0:
410,286,97343,5,2,3:2:0:0:
426,295,97476,5,2,0:2:0:0:
442,287,97609,5,2,0:2:0:0:
446,258,97743,5,10,3:2:0:0:
456,239,97876,5,2,0:2:0:0:
475,229,98009,5,2,0:2:0:0:
458,174,98143,6,0,P|459:146|437:106,1,47.9999985351563,2|0,3:2|0:0,0:0:0:0:
351,183,98443,1,2,0:2:0:0:
337,177,98543,1,8,3:2:0:0:
235,273,98743,2,0,B|230:298|230:298|189:322,1,47.9999985351563,2|0,0:2|0:0,0:0:0:0:
135,328,98943,5,2,3:2:0:0:
116,314,99076,5,2,0:2:0:0:
93,319,99209,5,2,0:2:0:0:
72,266,99343,6,0,P|121:236|182:247,1,95.9999970703126,10|0,3:2|0:0,0:0:0:0:
224,162,99743,5,2,3:2:0:0:
268,276,100043,1,2,0:2:0:0:
273,262,100143,1,8,3:2:0:0:
368,246,100343,1,2,0:2:0:0:
401,141,100543,5,2,3:2:0:0:
415,130,100676,5,2,0:2:0:0:
432,137,100809,5,2,0:2:0:0:
444,163,100943,5,10,3:2:0:0:
449,184,101076,5,2,0:2:0:0:
469,192,101209,5,2,0:2:0:0:
482,248,101343,6,0,P|449:246|422:269,1,47.9999985351563,2|0,3:2|0:0,0:0:0:0:
318,234,101643,1,2,0:2:0:0:
305,228,101743,1,8,3:2:0:0:
205,325,101943,2,0,B|196:313|196:313|199:240,1,47.9999985351563,2|0,0:2|0:0,0:0:0:0:
148,200,102143,5,2,3:2:0:0:
177,185,102276,5,2,0:2:0:0:
184,153,102409,5,2,0:0:0:0:
251,125,102543,6,0,B|294:100|313:137|363:109,1,95.9999970703126,10|0,3:2|0:0,0:0:0:0:
449,145,102943,5,2,3:2:0:0:
387,39,103243,1,2,0:2:0:0:
378,23,103343,1,8,3:2:0:0:
284,43,103543,1,2,0:2:0:0:
175,25,103743,5,2,3:2:0:0:
159,34,103876,5,2,0:2:0:0:
157,52,104009,5,2,0:2:0:0:
181,70,104143,5,10,3:2:0:0:
191,89,104276,5,2,0:2:0:0:
190,110,104409,5,2,0:2:0:0:
145,144,104543,6,0,P|127:159|115:200,1,47.9999985351563,2|0,3:2|0:0,0:0:0:0:
15,245,104843,1,2,0:2:0:0:
21,258,104943,1,8,3:2:0:0:
156,290,105143,2,0,B|173:302|173:302|192:357,1,47.9999985351563,2|0,0:2|0:0,0:0:0:0:
259,339,105343,5,2,3:2:0:0:
282,342,105476,5,2,0:2:0:0:
304,334,105609,5,2,0:2:0:0:
322,283,105743,6,0,P|345:271|432:291,1,95.9999970703126,10|0,3:2|0:0,0:0:0:0:
490,203,106143,5,2,3:2:0:0:
448,89,106443,1,2,0:2:0:0:
437,99,106543,1,8,3:2:0:0:
393,184,106743,1,2,0:2:0:0:
295,133,106943,5,2,3:2:0:0:
281,122,107076,5,2,0:2:0:0:
264,129,107209,5,2,0:2:0:0:
252,155,107343,5,10,3:2:0:0:
247,176,107476,5,2,0:2:0:0:
227,184,107609,5,2,0:2:0:0:
171,167,107743,6,0,P|149:150|117:152,1,47.9999985351563,2|0,3:2|0:0,0:0:0:0:
63,236,108043,1,2,0:2:0:0:
49,232,108143,1,8,3:2:0:0:
24,95,108343,6,0,B|46:86|46:86|74:45,1,47.9999985351563,2|0,0:2|0:0,0:0:0:0:
72,23,108543,2,0,B|137:22|125:84|237:60,1,143.999995605469,2|0,3:2|0:0,0:0:0:0:
289,49,108943,2,0,B|293:66|293:66|279:97,4,31.9999990234375,2|2|2|2|2,0:2|0:0|0:0|0:2|0:0,0:0:0:0:
215,114,109343,5,2,0:1:0:0:
