osu file format v14

[General]
AudioFilename: audio.mp3
AudioLeadIn: 0
PreviewTime: 38943
Countdown: 0
SampleSet: Soft
StackLeniency: 0.7
Mode: 0
LetterboxInBreaks: 0
WidescreenStoryboard: 1

[Editor]
Bookmarks: 13343,26143,38943,51743,58143,70943,96543,109343,112543
DistanceSpacing: 1
BeatDivisor: 4
GridSize: 4
TimelineZoom: 1.2

[Metadata]
Title:Period. ~ Seishin no Kousoku to Jiyuu o Tsukamu Jouka (Cut Ver.)
TitleUnicode:Period. ~ 精神ノ拘束ト自由ヲ掴ム浄化 (Cut Ver.)
Artist:tsunamix_underground
ArtistUnicode:tsunamix_underground
Creator:bob
Version:expert.
Source:東方Project
Tags:Touhou 水斎 -Prism- Suisai TOCD-0035 C-CLAYS 大空魔術 ~ Magical Astronomy ZUN Greenwich in the sky 天空のグリニッジ chai the tea electronic instrumental
BeatmapID:3257370
BeatmapSetID:1594769

[Difficulty]
HPDrainRate:5.6
CircleSize:4
OverallDifficulty:8.6
ApproachRate:9.3
SliderMultiplier:1.8
SliderTickRate:1

[Events]
//Background and Video events
0,0,"96871290_p.jpg",0,0
//Break Periods
2,24743,25573
//Storyboard Layer 0 (Background)
//Storyboard Layer 1 (Fail)
//Storyboard Layer 2 (Pass)
//Storyboard Layer 3 (Foreground)
//Storyboard Layer 4 (Overlay)
//Storyboard Sound Samples

[TimingPoints]
543,400,4,2,2,60,1,0
11743,-100,4,2,7,70,0,0
13343,-100,4,2,7,70,0,0
26143,-100,4,2,3,80,0,0
26743,-66.6666666666667,4,2,3,80,0,0
28943,-83.3333333333333,4,2,3,80,0,0
29943,-66.6666666666667,4,2,3,80,0,0
35343,-83.3333333333333,4,2,3,80,0,0
36343,-66.6666666666667,4,2,3,80,0,0
38943,-66.6666666666667,4,2,2,100,0,0
39343,-55.5555555555556,4,2,2,100,0,0
41943,-71.4285714285714,4,2,2,100,0,0
42543,-55.5555555555556,4,2,2,100,0,0
48343,-71.4285714285714,4,2,2,100,0,0
48943,-55.5555555555556,4,2,2,100,0,0
51343,-45.4545454545455,4,2,2,100,0,0
51743,-45.4545454545455,4,2,14,70,0,0
52143,-83.3333333333333,4,2,14,70,0,0
52843,-71.4285714285714,4,2,14,70,0,0
53143,-83.3333333333333,4,2,14,70,0,0
54743,-71.4285714285714,4,2,14,70,0,0
55343,-62.5,4,2,14,70,0,0
55743,-55.5555555555556,4,2,14,70,0,0
56043,-50,4,2,14,70,0,0
57943,-50,4,2,14,70,0,0
58143,-50,4,2,4,80,0,0
60543,-66.6666666666667,4,2,4,80,0,0
60609,-66.6666666666667,4,2,4,5,0,0
60676,-62.5,4,2,4,80,0,0
60743,-66.6666666666667,4,2,4,5,0,0
60809,-58.8235294117647,4,2,4,80,0,0
60876,-66.6666666666667,4,2,4,5,0,0
60943,-55.5555555555556,4,2,4,80,0,0
61943,-50,4,2,4,80,0,0
63743,-58.8235294117647,4,2,4,80,0,0
63809,-58.8235294117647,4,2,4,5,0,0
63876,-55.5555555555556,4,2,4,80,0,0
63943,-55.5555555555556,4,2,4,5,0,0
64009,-52.6315789473684,4,2,4,80,0,0
64076,-52.6315789473684,4,2,4,5,0,0
64143,-45.4545454545455,4,2,4,80,0,0
65143,-50,4,2,4,80,0,0
66943,-66.6666666666667,4,2,4,80,0,0
67009,-66.6666666666667,4,2,4,5,0,0
67076,-62.5,4,2,4,80,0,0
67143,-62.5,4,2,4,5,0,0
67209,-58.8235294117647,4,2,4,80,0,0
67276,-58.8235294117647,4,2,4,5,0,0
67343,-55.5555555555556,4,2,4,80,0,0
68343,-50,4,2,4,80,0,0
69743,-62.5,4,2,4,80,0,0
70943,-71.4285714285714,4,2,2,85,0,0
71343,-45.4545454545455,4,2,2,85,0,0
72543,-71.4285714285714,4,2,2,85,0,0
72943,-45.4545454545455,4,2,2,85,0,0
74143,-71.4285714285714,4,2,2,85,0,0
74543,-45.4545454545455,4,2,2,85,0,0
75743,-50,4,2,2,85,0,0
77343,-71.4285714285714,4,2,2,85,0,0
77743,-45.4545454545455,4,2,2,85,0,0
78943,-71.4285714285714,4,2,2,85,0,0
79343,-45.4545454545455,4,2,2,85,0,0
80543,-71.4285714285714,4,2,2,85,0,0
80943,-45.4545454545455,4,2,2,85,0,0
82143,-71.4285714285714,4,2,2,85,0,0
82543,-45.4545454545455,4,2,2,85,0,0
83743,-62.5,4,2,4,85,0,0
84143,-45.4545454545455,4,2,4,85,0,0
84343,-55.5555555555556,4,2,4,85,0,0
85343,-62.5,4,2,4,85,0,0
85743,-45.4545454545455,4,2,4,85,0,0
85943,-50,4,2,4,85,0,0
86943,-62.5,4,2,4,85,0,0
87343,-45.4545454545455,4,2,4,85,0,0
87543,-55.5555555555556,4,2,4,85,0,0
88543,-45.4545454545455,4,2,4,85,0,0
90143,-62.5,4,2,4,85,0,0
90543,-45.4545454545455,4,2,4,85,0,0
90743,-55.5555555555556,4,2,4,85,0,0
91743,-62.5,4,2,4,85,0,0
92143,-45.4545454545455,4,2,4,85,0,0
92343,-50,4,2,4,85,0,0
93343,-62.5,4,2,4,85,0,0
93743,-45.4545454545455,4,2,4,85,0,0
93943,-55.5555555555556,4,2,4,85,0,0
94943,-62.5,4,2,4,85,0,0
95343,-45.4545454545455,4,2,4,85,0,0
95543,-50,4,2,4,85,0,0
96343,-50,4,2,5,100,0,0
99343,-62.5,4,2,5,100,0,0
100543,-50,4,2,5,100,0,0
102543,-55.5555555555556,4,2,5,100,0,0
103743,-50,4,2,5,100,0,0
105743,-62.5,4,2,5,100,0,0
106943,-50,4,2,5,100,0,0
108943,-50,4,2,2,80,0,0

[Colours]
Combo1 : 255,255,224
Combo2 : 0,0,255
Combo3 : 135,206,250
Combo4 : 255,0,0
Combo5 : 240,128,128
Combo6 : 255,255,0

[HitObjects]
182,269,11743,6,0,P|167:248|168:217,1,45,0|0,0:3|0:0,0:0:0:0:
210,137,12043,1,0,0:0:0:0:
276,245,12343,1,0,0:0:0:0:
353,178,12543,5,0,0:0:0:0:
376,173,12743,1,0,0:0:0:0:
320,103,12943,1,0,0:0:0:0:
297,108,13143,1,0,0:0:0:0:
230,163,13343,5,2,3:3:0:0:
218,161,13443,2,0,P|222:214|255:245,1,90,2|2,0:3|0:3,0:0:0:0:
369,281,13743,1,8,3:2:0:0:
375,270,13843,2,0,B|376:216|330:196,1,90,2|2,0:3|0:3,0:0:0:0:
385,104,14143,5,2,3:2:0:0:
377,114,14243,1,2,0:2:0:0:
291,69,14443,1,2,0:2:0:0:
183,125,14743,1,2,0:2:0:0:
100,82,14943,1,2,3:2:0:0:
105,69,15043,2,0,P|111:113|86:154,1,90,2|2,0:2|0:2,0:0:0:0:
14,159,15343,1,8,3:2:0:0:
56,246,15543,1,2,0:2:0:0:
197,199,15743,5,2,3:2:0:0:
238,193,15943,1,2,0:2:0:0:
242,299,16143,1,10,3:2:0:0:
283,303,16343,1,2,0:2:0:0:
419,245,16543,5,2,3:3:0:0:
428,257,16643,1,2,0:3:0:0:
489,171,16843,1,2,0:3:0:0:
487,159,16943,2,0,B|505:143|505:143|512:92,1,45,8|2,3:2|0:3,0:0:0:0:
406,44,17243,1,2,0:3:0:0:
406,55,17343,1,2,3:2:0:0:
406,66,17443,2,0,P|372:50|323:68,1,90,2|2,0:2|0:2,0:0:0:0:
278,167,17743,5,8,3:2:0:0:
364,150,17943,1,2,0:2:0:0:
186,132,18143,1,2,3:2:0:0:
182,117,18243,1,2,0:2:0:0:
116,195,18443,1,2,0:2:0:0:
123,181,18543,1,8,3:2:0:0:
212,205,18743,1,2,0:2:0:0:
113,8,18943,5,2,3:2:0:0:
118,27,19043,1,8,0:0:0:0:
124,46,19143,1,2,0:2:0:0:
19,63,19343,1,10,3:2:0:0:
8,103,19543,1,2,0:2:0:0:
95,181,19743,5,2,3:3:0:0:
88,171,19843,1,2,0:3:0:0:
25,255,20043,1,2,0:3:0:0:
27,267,20143,2,0,B|9:283|9:283|2:334,1,45,8|2,3:2|0:3,0:0:0:0:
100,361,20443,1,2,0:3:0:0:
110,357,20543,1,2,3:2:0:0:
119,352,20643,2,0,P|153:368|202:350,1,90,2|2,0:2|0:2,0:0:0:0:
241,252,20943,5,8,3:2:0:0:
295,324,21143,1,2,0:2:0:0:
407,252,21343,1,2,3:2:0:0:
410,264,21443,2,0,P|413:210|382:183,1,90,2|2,0:2|0:2,0:0:0:0:
269,201,21743,1,8,3:2:0:0:
206,112,21943,1,2,0:2:0:0:
180,232,22143,5,2,3:2:0:0:
140,220,22343,1,2,0:2:0:0:
135,332,22543,1,10,3:2:0:0:
94,336,22743,1,2,0:2:0:0:
32,249,22943,5,2,3:3:0:0:
20,251,23043,2,0,P|24:198|57:167,1,90,2|2,0:3|0:3,0:0:0:0:
169,133,23343,1,8,3:2:0:0:
177,142,23443,2,0,B|175:200|136:222,1,90,2|2,0:3|0:3,0:0:0:0:
52,148,23743,5,0,3:0:0:0:
50,134,23843,1,2,0:2:0:0:
101,63,24043,1,2,0:2:0:0:
229,80,24343,1,2,0:2:0:0:
214,105,24543,5,0,3:0:0:0:
214,105,26143,5,2,3:2:0:0:
187,149,26243,1,2,0:2:0:0:
273,158,26443,1,2,0:2:0:0:
290,238,26643,1,0,0:0:0:0:
328,208,26743,2,0,B|337:202|337:202|394:210,1,67.5000025749208,2|0,0:2|0:0,0:0:0:0:
447,282,26943,5,2,3:2:0:0:
490,221,27076,5,0,0:2:0:0:
456,290,27209,5,0,0:2:0:0:
483,211,27343,6,0,P|476:188|412:170,2,90.0000034332277,2|0|0,3:2|0:2|0:2,0:0:0:0:
413,329,27743,5,2,3:2:0:0:
384,321,27843,1,0,0:0:0:0:
353,325,27943,1,0,0:0:0:0:
283,344,28043,1,2,0:2:0:0:
284,360,28143,2,0,P|260:332|257:297,1,67.5000025749208
297,180,28343,2,0,P|334:201|343:258,1,67.5000025749208,2|0,0:2|0:0,0:0:0:0:
176,233,28543,5,2,3:2:0:0:
104,278,28676,5,0,0:3:0:0:
44,210,28809,5,0,0:0:0:0:
17,304,28943,6,0,B|42:295|42:295|136:348,1,107.999996704102,2|0,3:2|3:0,0:0:0:0:
226,292,29343,5,2,3:2:0:0:
241,274,29443,1,2,0:2:0:0:
236,251,29543,1,0,0:0:0:0:
309,253,29643,1,2,0:2:0:0:
327,238,29743,1,0,0:0:0:0:
350,243,29843,1,0,0:0:0:0:
395,303,29943,6,0,B|390:277|390:277|415:218,1,67.5000025749208,2|0,0:2|0:0,0:0:0:0:
389,80,30143,5,2,3:2:0:0:
324,116,30276,5,0,0:2:0:0:
387,67,30409,5,0,0:2:0:0:
328,127,30543,5,2,3:2:0:0:
251,131,30676,5,0,0:2:0:0:
221,201,30809,5,0,0:2:0:0:
282,255,30943,5,2,3:2:0:0:
287,280,31043,1,0,0:0:0:0:
283,306,31143,1,0,0:0:0:0:
208,320,31243,1,2,0:2:0:0:
200,306,31343,2,0,P|182:334|194:374,1,67.5000025749208
383,320,31543,2,0,P|401:292|389:252,1,67.5000025749208,2|0,0:2|0:0,0:0:0:0:
238,182,31743,5,2,3:2:0:0:
212,104,31876,5,0,0:3:0:0:
153,162,32009,5,0,0:0:0:0:
294,123,32143,5,2,3:2:0:0:
298,109,32243,1,0,0:0:0:0:
296,94,32343,1,2,3:2:0:0:
292,80,32443,1,0,0:0:0:0:
219,98,32543,5,2,3:2:0:0:
196,88,32643,1,2,0:2:0:0:
190,65,32743,1,0,0:0:0:0:
160,133,32843,1,2,0:2:0:0:
137,143,32943,1,0,0:0:0:0:
131,166,33043,1,0,0:0:0:0:
91,187,33143,6,0,B|112:177|112:177|188:222,1,67.5000025749208,2|0,0:2|0:0,0:0:0:0:
214,313,33343,5,2,3:2:0:0:
139,322,33476,5,0,0:2:0:0:
215,299,33609,5,0,0:2:0:0:
138,334,33743,6,0,P|86:332|30:394,2,90.0000034332277,2|0|0,3:2|0:2|0:2,0:0:0:0:
255,325,34143,5,2,3:2:0:0:
268,294,34243,1,0,0:0:0:0:
268,260,34343,1,0,0:0:0:0:
193,270,34443,1,2,0:2:0:0:
186,256,34543,2,0,P|144:222|151:181,1,67.5000025749208
254,81,34743,2,0,P|296:115|289:156,1,67.5000025749208,2|0,0:2|0:0,0:0:0:0:
132,124,34943,5,2,3:2:0:0:
60,169,35076,5,0,0:3:0:0:
0,101,35209,5,0,0:0:0:0:
0,220,35343,6,0,B|25:211|25:211|36:123,1,107.999996704102,2|0,3:2|3:2,0:0:0:0:
0,11,35743,5,2,3:2:0:0:
19,24,35843,1,2,0:2:0:0:
20,47,35943,1,0,0:0:0:0:
90,25,36043,1,2,0:2:0:0:
111,35,36143,1,0,0:0:0:0:
132,23,36243,1,0,0:0:0:0:
178,85,36343,2,0,B|164:68|164:68|222:62,1,67.5000025749208,2|0,0:2|0:0,0:0:0:0:
303,144,36543,5,2,3:2:0:0:
346,82,36676,5,0,0:2:0:0:
312,154,36809,5,0,0:2:0:0:
338,73,36943,5,2,3:2:0:0:
397,119,37076,5,0,0:2:0:0:
443,61,37209,5,0,0:2:0:0:
507,100,37343,5,2,3:2:0:0:
512,125,37443,1,0,0:0:0:0:
508,151,37543,1,0,0:0:0:0:
433,165,37643,1,2,0:2:0:0:
425,151,37743,2,0,P|407:179|415:219,1,67.5000025749208
418,321,37943,1,2,0:2:0:0:
404,310,38043,1,0,0:0:0:0:
387,310,38143,5,2,3:2:0:0:
315,348,38276,5,0,0:3:0:0:
231,298,38409,5,0,0:0:0:0:
115,351,38543,5,2,3:2:0:0:
96,344,38943,5,6,3:2:0:0:
114,273,39043,1,2,0:0:0:0:
109,330,39243,5,2,0:2:0:0:
127,259,39343,2,0,P|146:215|129:157,1,80.9999975280763,10|2,3:2|0:0,0:0:0:0:
40,124,39543,1,2,0:2:0:0:
46,102,39643,1,0,0:0:0:0:
66,89,39743,5,2,3:2:0:0:
148,105,39876,5,2,0:2:0:0:
188,31,40009,5,2,0:2:0:0:
260,75,40143,5,10,3:2:0:0:
241,157,40276,5,2,0:2:0:0:
324,146,40409,5,2,0:2:0:0:
369,74,40543,5,2,3:2:0:0:
404,51,40643,1,2,0:0:0:0:
444,64,40743,1,2,0:0:0:0:
469,134,40843,1,2,0:2:0:0:
398,132,40943,1,10,3:2:0:0:
387,158,41043,1,2,0:0:0:0:
388,186,41143,1,2,0:2:0:0:
406,208,41243,1,0,0:0:0:0:
480,209,41343,5,2,3:2:0:0:
405,327,41476,5,2,0:2:0:0:
512,279,41609,5,2,0:2:0:0:
322,257,41743,6,0,B|314:231|314:231|250:204,1,80.9999975280763,10|0,3:2|0:0,0:0:0:0:
216,237,41943,2,0,B|247:226|255:184,1,62.9999980773926
337,83,42143,5,2,3:2:0:0:
314,61,42243,1,2,0:0:0:0:
282,57,42343,1,2,0:0:0:0:
204,89,42443,1,2,0:2:0:0:
208,106,42543,2,0,P|172:102|156:32,1,80.9999975280763,10|2,3:2|0:0,0:0:0:0:
49,22,42743,5,2,0:2:0:0:
45,34,42843,1,0,0:0:0:0:
99,85,42943,5,2,3:2:0:0:
41,146,43076,5,2,0:2:0:0:
119,176,43209,5,2,0:2:0:0:
140,258,43343,5,10,3:2:0:0:
218,226,43476,5,2,0:2:0:0:
236,144,43609,5,2,0:2:0:0:
324,162,43743,5,2,3:2:0:0:
349,194,43843,1,2,0:0:0:0:
389,202,43943,1,2,0:0:0:0:
429,136,44043,1,2,0:2:0:0:
361,159,44143,1,10,3:2:0:0:
359,188,44243,1,2,0:0:0:0:
372,214,44343,1,2,0:2:0:0:
398,227,44443,1,0,0:0:0:0:
475,158,44543,5,2,3:2:0:0:
365,88,44676,5,2,0:2:0:0:
306,201,44809,5,2,0:0:0:0:
273,24,44943,5,10,3:2:0:0:
262,37,45043,1,2,0:0:0:0:
265,54,45143,1,2,3:2:0:0:
281,59,45243,1,2,0:0:0:0:
335,10,45343,5,2,3:2:0:0:
299,0,45443,1,2,0:0:0:0:
263,11,45543,1,2,0:0:0:0:
201,54,45643,1,2,0:2:0:0:
195,36,45743,2,0,P|217:60|213:121,1,80.9999975280763,10|2,3:2|0:0,0:0:0:0:
118,190,45943,1,2,0:2:0:0:
123,180,46043,1,0,0:0:0:0:
65,122,46143,5,2,3:2:0:0:
145,98,46276,5,2,0:2:0:0:
218,139,46409,5,2,0:2:0:0:
265,69,46543,5,10,3:2:0:0:
320,133,46676,5,2,0:2:0:0:
305,216,46809,5,2,0:2:0:0:
390,212,46943,5,2,3:2:0:0:
427,228,47043,1,2,0:0:0:0:
439,267,47143,1,2,0:0:0:0:
380,314,47243,1,2,0:2:0:0:
440,353,47343,1,10,3:2:0:0:
415,333,47443,1,2,0:0:0:0:
383,335,47543,1,2,0:2:0:0:
357,354,47643,1,0,0:0:0:0:
303,304,47743,5,2,3:2:0:0:
205,290,47876,5,2,0:2:0:0:
377,257,48009,5,2,0:2:0:0:
164,358,48143,6,0,B|178:340|178:340|153:275,1,80.9999975280763,10|0,3:2|0:0,0:0:0:0:
107,254,48343,2,0,P|136:263|166:255,1,62.9999980773926
218,123,48543,1,2,3:2:0:0:
247,136,48643,1,2,0:0:0:0:
259,165,48743,1,2,0:0:0:0:
259,249,48843,1,2,0:2:0:0:
268,237,48943,2,0,B|301:230|301:230|367:273,1,80.9999975280763,10|2,3:2|0:0,0:0:0:0:
454,177,49143,5,2,0:2:0:0:
459,165,49243,1,0,0:0:0:0:
482,251,49343,5,2,3:2:0:0:
403,221,49476,5,2,0:2:0:0:
391,138,49609,5,2,0:2:0:0:
307,152,49743,5,10,3:2:0:0:
278,231,49876,5,2,0:2:0:0:
195,216,50009,5,2,0:2:0:0:
203,132,50143,5,2,3:2:0:0:
218,94,50243,1,2,0:0:0:0:
200,58,50343,1,2,0:0:0:0:
148,112,50443,1,2,0:2:0:0:
211,145,50543,1,10,3:2:0:0:
236,128,50643,1,2,0:0:0:0:
246,98,50743,1,2,0:2:0:0:
235,68,50843,1,8,0:0:0:0:
309,57,50943,5,2,3:2:0:0:
147,18,51076,5,2,0:2:0:0:
223,134,51209,5,2,0:0:0:0:
419,78,51343,6,0,B|435:96|435:96|401:194,1,99.0000030212403,10|0,3:2|0:0,0:0:0:0:
285,340,51743,5,6,0:2:0:0:
274,327,51843,1,0,0:0:0:0:
273,310,51943,1,0,0:0:0:0:
280,294,52043,1,0,0:0:0:0:
293,282,52143,2,0,P|303:245|222:169,1,161.999995056153,2|0,0:0|0:0,0:0:0:0:
164,218,52543,2,0,B|124:206|124:206|97:115,1,107.999996704102,2|0,0:2|0:0,0:0:0:0:
193,142,52843,6,0,P|236:102|319:125,1,125.999996154785,2|0,0:2|0:0,0:0:0:0:
352,251,53143,2,0,B|338:244|338:244|328:203,1,53.9999983520508,2|0,0:2|0:0,0:0:0:0:
339,188,53343,2,0,B|402:162|370:73,1,107.999996704102,2|0,0:2|0:0,0:0:0:0:
315,52,53643,2,0,P|364:70|425:19,1,107.999996704102,2|0,0:2|0:0,0:0:0:0:
455,50,53943,2,0,B|465:64|465:64|459:100,1,53.9999983520508,2|0,0:2|0:0,0:0:0:0:
472,183,54143,5,2,0:2:0:0:
448,205,54243,1,0,0:0:0:0:
417,208,54343,1,0,0:0:0:0:
386,214,54443,1,0,0:0:0:0:
369,241,54543,1,2,0:2:0:0:
378,270,54643,1,0,0:0:0:0:
424,290,54743,6,0,P|417:326|435:358,1,62.9999980773926
346,347,54943,2,0,P|292:328|280:241,1,125.999996154785,2|0,0:2|0:0,0:0:0:0:
236,164,55243,1,0,0:0:0:0:
225,170,55343,2,0,B|203:170|203:170|174:233,1,72,2|0,0:2|0:0,0:0:0:0:
294,232,55543,2,0,B|316:232|316:232|345:169,1,72,2|0,0:2|0:0,0:0:0:0:
271,81,55743,6,0,P|231:57|186:68,1,80.9999975280763,2|0,0:2|0:0,0:0:0:0:
136,123,55943,1,2,0:2:0:0:
127,136,56043,2,0,P|123:78|79:55,1,90,2|0,0:0|0:0,0:0:0:0:
38,136,56243,1,2,0:2:0:0:
47,123,56343,2,0,P|8:152|8:196,1,90,2|0,0:0|0:0,0:0:0:0:
104,257,56543,5,2,0:2:0:0:
105,283,56643,1,0,0:0:0:0:
90,309,56743,1,0,0:0:0:0:
98,343,56843,1,0,0:0:0:0:
132,362,56943,1,0,0:0:0:0:
168,335,57043,1,0,0:0:0:0:
216,339,57143,1,0,0:0:0:0:
267,312,57243,1,0,0:0:0:0:
272,251,57343,6,0,P|276:214|328:179,1,90,2|0,0:2|0:0,0:0:0:0:
464,97,57543,1,2,0:2:0:0:
480,83,57643,1,2,0:2:0:0:
423,38,57743,1,2,0:0:0:0:
417,59,57843,1,2,0:2:0:0:
373,93,57943,2,0,B|343:96|343:96|294:42,1,90,2|2,0:2|0:0,0:0:0:0:
124,22,58143,5,6,3:2:0:0:
84,55,58243,1,2,0:2:0:0:
143,116,58443,5,2,0:2:0:0:
148,167,58543,1,10,3:2:0:0:
157,158,58643,1,0,0:0:0:0:
201,177,58743,2,0,B|221:169|221:169|293:221,1,90,2|0,0:2|0:0,0:0:0:0:
288,314,58943,5,2,3:2:0:0:
394,261,59076,5,2,0:2:0:0:
371,340,59209,5,2,0:2:0:0:
317,232,59342,5,10,3:2:0:0:
230,221,59476,5,2,0:2:0:0:
213,135,59609,5,2,0:2:0:0:
300,122,59743,5,2,3:2:0:0:
276,74,59843,1,2,0:0:0:0:
381,91,60043,5,2,0:2:0:0:
401,139,60143,1,10,3:2:0:0:
300,235,60343,1,2,0:2:0:0:
322,123,60543,6,0,P|298:104|257:107,1,45.0000017166138,2|0,3:2|0:0,0:0:0:0:
134,155,60676,6,0,P|156:158|180:152,1,48,2|0,0:2|0:0,0:0:0:0:
344,277,60809,6,0,P|332:259|332:229,1,51.0000009727478,2|0,0:2|0:0,0:0:0:0:
214,222,60943,6,0,B|166:232|135:202|135:202|131:151|85:124|85:124|35:126|17:171,1,242.999992584229,10|0,3:2|0:0,0:0:0:0:
0,277,61343,5,2,3:2:0:0:
24,325,61443,1,2,0:0:0:0:
103,295,61643,5,2,0:2:0:0:
152,283,61743,1,10,3:2:0:0:
149,295,61843,1,2,0:0:0:0:
191,331,61943,2,0,B|180:312|180:312|257:237,1,90,2|0,0:2|0:0,0:0:0:0:
237,162,62143,5,2,3:2:0:0:
187,56,62276,5,2,0:2:0:0:
156,133,62409,5,2,0:2:0:0:
265,81,62542,5,10,3:2:0:0:
344,122,62676,5,2,0:2:0:0:
414,70,62809,5,2,0:2:0:0:
457,147,62943,5,2,3:2:0:0:
440,197,63043,1,2,0:0:0:0:
386,271,63243,5,2,0:2:0:0:
363,224,63343,1,10,3:2:0:0:
273,350,63543,1,2,0:2:0:0:
262,243,63743,6,0,B|272:239|272:239|318:271,1,51.0000009727478,2|0,3:2|0:0,0:0:0:0:
172,287,63876,6,0,B|161:288|161:288|121:245,1,53.9999983520508,2|0,0:2|0:0,0:0:0:0:
154,88,64009,6,0,B|164:90|164:90|189:148,1,56.9999984779358,2|0,0:0|0:0,0:0:0:0:
38,254,64143,6,0,B|61:208|61:208|85:173|136:152|136:152|179:164|226:156|226:156|244:122|297:96,1,297.000009063721,10|0,3:2|0:0,0:0:0:0:
195,5,64543,5,2,3:2:0:0:
178,55,64643,1,2,0:0:0:0:
88,88,64843,5,2,0:2:0:0:
111,136,64943,1,10,3:2:0:0:
119,128,65043,1,2,0:0:0:0:
102,164,65143,2,0,B|71:164|71:164|22:207,1,90,2|0,0:2|0:0,0:0:0:0:
104,285,65343,5,2,3:2:0:0:
214,324,65476,5,2,0:2:0:0:
181,248,65609,5,2,0:2:0:0:
141,362,65742,5,10,3:2:0:0:
226,333,65876,5,2,0:2:0:0:
311,358,66009,5,2,0:2:0:0:
297,270,66143,5,2,3:2:0:0:
314,220,66243,1,2,0:0:0:0:
215,170,66443,5,2,0:2:0:0:
232,220,66543,1,10,3:2:0:0:
373,262,66743,1,2,0:2:0:0:
452,178,66943,6,0,P|482:188|519:165,1,45.0000017166138,2|0,3:2|0:0,0:0:0:0:
333,127,67076,6,0,P|356:108|358:69,1,48,2|0,0:2|0:0,0:0:0:0:
512,68,67209,6,0,P|499:90|508:135,1,51.0000009727478,2|0,0:2|0:0,0:0:0:0:
494,262,67343,6,0,B|478:155|343:195|348:63,1,242.999992584229,10|0,3:2|0:0,0:0:0:0:
217,11,67743,5,2,3:2:0:0:
193,58,67843,1,2,0:0:0:0:
279,85,68043,5,2,0:2:0:0:
306,129,68143,1,10,3:2:0:0:
311,119,68243,1,2,0:0:0:0:
271,152,68343,2,0,B|250:152|250:152|222:249,1,90,2|0,0:2|0:0,0:0:0:0:
119,313,68543,5,2,3:2:0:0:
9,274,68676,5,2,0:2:0:0:
46,351,68809,5,2,0:2:0:0:
86,237,68942,5,10,3:2:0:0:
38,162,69076,5,2,0:2:0:0:
126,166,69209,5,2,0:2:0:0:
174,91,69343,5,2,3:2:0:0:
212,129,69443,1,2,0:0:0:0:
322,86,69643,5,2,0:2:0:0:
270,73,69743,2,0,B|292:77|292:77|328:31,1,72,10|2,3:2|0:0,0:0:0:0:
456,46,69943,5,2,0:2:0:0:
474,66,70043,1,0,0:0:0:0:
468,142,70143,1,2,3:2:0:0:
443,163,70243,1,8,0:0:0:0:
462,189,70343,1,0,0:0:0:0:
428,263,70543,5,10,3:2:0:0:
484,347,70743,1,0,0:0:0:0:
487,334,70943,6,0,P|452:304|409:305,1,62.9999980773926,6|0,3:2|0:0,0:0:0:0:
274,328,71143,2,0,P|271:286|302:247,1,62.9999980773926,2|0,0:0|0:0,0:0:0:0:
389,126,71343,2,0,P|393:83|317:75,1,99.0000030212403,10|0,3:2|0:0,0:0:0:0:
221,125,71543,5,2,0:0:0:0:
218,116,71643,1,2,0:3:0:0:
188,90,71743,1,2,3:3:0:0:
158,92,71843,1,2,0:3:0:0:
144,118,71943,1,2,0:0:0:0:
110,139,72043,1,2,0:0:0:0:
76,131,72143,1,10,3:2:0:0:
65,103,72243,1,2,0:0:0:0:
76,81,72343,1,2,0:0:0:0:
91,78,72443,1,2,0:0:0:0:
160,96,72543,6,0,P|196:89|216:45,1,62.9999980773926,2|0,3:2|0:0,0:0:0:0:
355,79,72743,2,0,P|397:72|431:90,1,62.9999980773926,2|0,0:0|0:0,0:0:0:0:
358,259,72943,2,0,P|322:290|247:247,1,99.0000030212403,10|0,3:2|0:0,0:0:0:0:
86,262,73143,5,2,0:0:0:0:
77,266,73243,1,2,0:3:0:0:
66,309,73343,1,2,3:3:0:0:
86,337,73443,1,2,0:3:0:0:
120,331,73543,1,2,0:2:0:0:
157,355,73643,1,2,0:0:0:0:
196,347,73743,1,10,3:2:0:0:
207,314,73843,1,2,0:2:0:0:
235,303,73943,1,2,0:3:0:0:
251,315,74043,1,2,0:3:0:0:
306,362,74143,6,0,P|345:343|352:323,1,62.9999980773926,2|0,3:2|0:0,0:0:0:0:
501,346,74343,2,0,P|477:312|477:280,1,62.9999980773926,2|0,0:0|0:0,0:0:0:0:
261,121,74543,2,0,P|215:131|203:177,1,99.0000030212403,10|0,3:2|0:0,0:0:0:0:
347,273,74743,5,2,0:0:0:0:
356,270,74843,1,2,0:3:0:0:
395,276,74943,1,2,3:3:0:0:
415,303,75043,1,2,0:3:0:0:
433,275,75143,1,2,0:0:0:0:
467,256,75243,1,2,0:0:0:0:
459,222,75343,1,10,3:2:0:0:
430,217,75443,1,2,0:0:0:0:
414,236,75543,1,2,0:0:0:0:
418,250,75643,1,2,0:2:0:0:
501,265,75743,6,0,P|514:194|338:196,1,270,2|2,3:2|0:0,0:0:0:0:
292,248,76143,1,10,3:2:0:0:
265,269,76243,1,0,0:0:0:0:
233,259,76343,1,2,0:0:0:0:
183,312,76443,1,2,0:0:0:0:
178,295,76543,2,0,B|187:273|187:273|132:204,1,90,2|10,3:2|0:0,0:0:0:0:
0,183,76743,1,2,0:2:0:0:
36,152,76843,1,2,0:0:0:0:
17,106,76943,2,0,P|66:150|122:118,1,90,10|2,3:2|0:0,0:0:0:0:
208,73,77143,1,2,0:0:0:0:
206,86,77243,1,2,0:0:0:0:
152,26,77343,6,0,P|182:16|231:50,1,62.9999980773926,2|0,3:2|0:0,0:0:0:0:
288,164,77543,2,0,P|334:140|339:112,1,62.9999980773926,2|0,0:0|0:0,0:0:0:0:
512,0,77743,2,0,P|484:37|569:111,1,99.0000030212403,10|0,3:2|0:0,0:0:0:0:
512,283,77943,5,2,0:0:0:0:
507,291,78043,1,2,0:3:0:0:
472,311,78143,1,2,3:3:0:0:
443,303,78243,1,2,0:3:0:0:
435,275,78343,1,2,0:0:0:0:
405,248,78443,1,2,0:0:0:0:
370,249,78543,1,10,3:2:0:0:
354,274,78643,1,2,0:0:0:0:
361,298,78743,1,2,0:0:0:0:
375,304,78843,1,2,0:0:0:0:
444,287,78943,6,0,P|463:266|443:213,1,62.9999980773926,2|0,3:2|0:0,0:0:0:0:
377,108,79143,2,0,P|358:129|365:164,1,62.9999980773926,2|0,0:0|0:0,0:0:0:0:
156,335,79343,2,0,P|175:268|115:225,1,99.0000030212403,10|0,3:2|0:0,0:0:0:0:
20,159,79543,5,2,0:0:0:0:
11,155,79643,1,2,0:3:0:0:
0,112,79743,1,2,3:3:0:0:
20,84,79843,1,2,0:3:0:0:
54,90,79943,1,2,0:2:0:0:
91,66,80043,1,2,0:0:0:0:
130,74,80143,1,10,3:2:0:0:
141,107,80243,1,2,0:2:0:0:
169,118,80343,1,2,0:3:0:0:
185,106,80443,1,2,0:3:0:0:
193,34,80543,6,0,P|238:25|267:44,1,62.9999980773926,2|0,3:2|0:0,0:0:0:0:
331,153,80743,2,0,P|354:116|349:86,1,62.9999980773926,2|0,0:0|0:0,0:0:0:0:
71,171,80943,2,0,P|43:208|125:214,1,99.0000030212403,10|0,3:2|0:0,0:0:0:0:
225,323,81143,5,2,0:0:0:0:
232,315,81243,1,2,0:3:0:0:
244,278,81343,1,2,3:3:0:0:
229,248,81443,1,2,0:3:0:0:
262,244,81543,1,2,0:0:0:0:
295,223,81643,1,2,0:0:0:0:
321,245,81743,1,10,3:2:0:0:
313,274,81843,1,2,0:0:0:0:
287,279,81943,1,2,0:0:0:0:
278,269,82043,1,2,0:2:0:0:
329,220,82143,6,0,P|367:216|394:241,1,62.9999980773926,2|0,3:2|0:0,0:0:0:0:
221,351,82343,2,0,P|265:366|295:338,1,62.9999980773926,2|0,0:0|0:0,0:0:0:0:
491,258,82543,2,0,P|514:202|482:155,1,99.0000030212403,10|0,3:2|0:0,0:0:0:0:
316,17,82743,5,2,0:0:0:0:
312,6,82843,2,0,B|291:32|291:32|314:97,1,99.0000030212403,10|2,0:0|3:2,0:0:0:0:
397,172,83043,1,10,0:0:0:0:
395,160,83143,2,0,B|416:186|416:186|393:251,1,99.0000030212403,2|2,0:2|0:0,0:0:0:0:
304,344,83343,5,10,3:2:0:0:
248,341,83443,1,2,0:0:0:0:
207,304,83543,1,2,0:0:0:0:
201,248,83643,1,2,0:0:0:0:
223,198,83743,2,0,P|249:158|237:126,1,72,6|0,3:2|0:0,0:0:0:0:
0,189,83943,2,0,P|30:166|77:179,1,72,2|0,0:0|0:0,0:0:0:0:
256,0,84143,2,0,P|245:32|182:62,1,99.0000030212403,10|0,3:2|0:0,0:0:0:0:
51,19,84343,6,0,B|29:67|29:67|69:77|69:77|116:163|116:163|115:227,1,242.999992584229,2|2,0:0|0:3,0:0:0:0:
16,341,84743,1,2,0:0:0:0:
14,330,84843,1,2,0:0:0:0:
57,347,84943,1,10,3:2:0:0:
100,330,85043,1,2,0:0:0:0:
146,328,85143,1,2,0:0:0:0:
183,355,85243,1,2,0:0:0:0:
229,352,85343,6,0,P|280:333|289:293,1,72,2|0,3:2|0:0,0:0:0:0:
351,172,85543,2,0,P|323:164|280:185,1,72,2|0,0:0|0:0,0:0:0:0:
474,353,85743,2,0,P|516:319|510:273,1,99.0000030212403,10|0,3:2|0:0,0:0:0:0:
506,135,85943,2,0,B|487:96|487:96|469:149|469:149|385:163|385:163|300:133,1,270,2|2,0:0|0:3,0:0:0:0:
149,25,86343,1,2,0:2:0:0:
159,16,86443,1,2,0:0:0:0:
213,73,86543,1,10,3:2:0:0:
180,104,86643,1,2,0:2:0:0:
135,105,86743,1,2,0:3:0:0:
100,77,86843,1,2,0:3:0:0:
54,70,86943,6,0,P|21:77|-18:47,1,72,2|0,3:2|0:0,0:0:0:0:
86,221,87143,2,0,P|124:233|147:275,1,72,2|0,0:0|0:0,0:0:0:0:
301,30,87343,2,0,P|315:81|276:150,1,99.0000030212403,10|0,3:2|0:0,0:0:0:0:
277,295,87543,2,0,B|259:258|259:258|316:226|316:226|386:256|386:256|495:261,1,242.999992584229,2|2,0:0|0:3,0:0:0:0:
512,357,87943,1,2,0:0:0:0:
501,361,88043,1,2,0:0:0:0:
507,315,88143,1,10,3:2:0:0:
481,278,88243,1,2,0:0:0:0:
467,234,88343,1,2,0:0:0:0:
485,191,88443,1,2,0:0:0:0:
475,109,88543,6,0,P|447:61|302:167,1,297.000009063721,2|2,3:2|0:0,0:0:0:0:
332,319,88943,1,10,3:2:0:0:
290,351,89043,1,0,0:0:0:0:
243,326,89143,1,2,0:0:0:0:
284,263,89243,1,2,0:0:0:0:
297,257,89343,2,0,B|259:258|259:258|188:202,1,99.0000030212403,2|2,3:2|0:0,0:0:0:0:
54,153,89543,1,2,0:2:0:0:
0,200,89643,1,2,0:0:0:0:
22,269,89743,2,0,B|88:269|104:327,1,99.0000030212403,10|2,3:2|0:0,0:0:0:0:
187,229,89943,1,2,0:0:0:0:
192,217,90043,1,2,0:0:0:0:
156,145,90143,6,0,B|181:111|247:122,1,72,2|0,3:2|0:0,0:0:0:0:
395,187,90343,2,0,P|438:185|478:155,1,72,2|0,0:0|0:0,0:0:0:0:
219,14,90543,2,0,P|186:47|211:140,1,99.0000030212403,10|0,3:2|0:0,0:0:0:0:
283,265,90743,2,0,B|257:227|257:227|234:273|234:273|145:308|145:308|58:289,1,242.999992584229,2|2,0:0|0:3,0:0:0:0:
12,206,91143,1,2,0:0:0:0:
0,204,91243,1,2,0:0:0:0:
30,168,91343,1,10,3:2:0:0:
27,122,91443,1,2,0:0:0:0:
39,78,91543,1,2,0:0:0:0:
76,51,91643,1,2,0:2:0:0:
124,51,91743,6,0,P|161:73|174:106,1,72,2|0,3:2|0:0,0:0:0:0:
147,247,91943,2,0,P|194:256|223:236,1,72,2|0,0:0|0:0,0:0:0:0:
331,40,92143,2,0,P|358:12|418:47,1,99.0000030212403,10|0,3:2|0:0,0:0:0:0:
421,279,92343,2,0,B|443:315|443:315|460:277|460:277|433:220|433:220|296:152,1,270,2|2,0:0|0:3,0:0:0:0:
189,250,92743,1,2,0:2:0:0:
199,258,92843,1,2,0:0:0:0:
128,211,92943,1,10,3:2:0:0:
107,251,93043,1,2,0:2:0:0:
117,295,93143,1,2,0:3:0:0:
154,321,93243,1,2,0:3:0:0:
200,319,93343,6,0,P|242:299|280:308,1,72,2|0,3:2|0:0,0:0:0:0:
363,363,93543,2,0,P|410:357|431:336,1,72,2|0,0:0|0:0,0:0:0:0:
459,70,93743,2,0,P|409:94|393:157,1,99.0000030212403,10|0,3:2|0:0,0:0:0:0:
502,245,93943,2,0,B|465:225|465:225|412:249|412:249|327:227|327:227|271:158,1,242.999992584229,2|2,0:0|0:3,0:0:0:0:
108,153,94343,1,2,0:0:0:0:
97,147,94443,1,2,0:0:0:0:
135,121,94543,1,10,3:2:0:0:
145,77,94643,1,2,0:0:0:0:
169,37,94743,1,2,0:0:0:0:
213,22,94843,1,2,0:2:0:0:
257,32,94943,6,0,P|282:54|282:107,1,72,2|0,3:2|0:0,0:0:0:0:
231,210,95143,2,0,P|244:242|299:264,1,72,2|0,0:0|0:0,0:0:0:0:
512,289,95343,2,0,P|488:255|410:236,1,99.0000030212403,10|0,3:2|0:0,0:0:0:0:
182,358,95543,2,0,B|221:340|221:340|264:277|264:277|246:195|246:195|274:126,1,270,2|10,0:0|0:0,0:0:0:0:
429,59,95943,2,0,B|405:80|405:80|329:62,1,90,2|0,0:2|0:0,0:0:0:0:
133,56,96143,1,10,3:2:0:0:
81,66,96243,1,2,0:0:0:0:
50,109,96343,1,2,0:0:0:0:
57,162,96443,1,2,0:0:0:0:
151,148,96543,5,6,3:2:0:0:
168,173,96643,1,2,0:2:0:0:
167,206,96743,1,2,0:0:0:0:
124,278,96843,1,2,0:2:0:0:
108,271,96943,2,0,P|106:307|156:338,1,90,10|2,3:2|0:0,0:0:0:0:
241,281,97143,1,2,0:2:0:0:
249,270,97243,1,2,0:0:0:0:
305,322,97343,5,2,3:2:0:0:
348,247,97476,5,2,0:2:0:0:
423,290,97609,5,2,0:2:0:0:
437,204,97743,5,10,3:2:0:0:
380,140,97876,5,2,0:2:0:0:
465,160,98009,5,2,0:2:0:0:
381,229,98143,5,2,3:2:0:0:
340,233,98243,1,2,0:0:0:0:
306,211,98343,1,2,0:0:0:0:
330,137,98443,1,2,0:2:0:0:
379,192,98543,1,10,3:2:0:0:
365,218,98643,1,2,0:0:0:0:
340,233,98743,1,2,0:2:0:0:
311,233,98843,1,0,0:0:0:0:
258,178,98943,5,2,3:2:0:0:
289,304,99076,5,2,0:2:0:0:
322,82,99209,5,2,0:2:0:0:
174,207,99343,6,0,B|153:197|153:197|164:131|164:131|83:16,1,216,10|0,3:2|0:0,0:0:0:0:
5,105,99743,1,2,3:2:0:0:
0,151,99843,1,2,0:0:0:0:
45,259,100043,1,2,0:2:0:0:
50,213,100143,1,10,3:2:0:0:
56,217,100243,1,2,0:0:0:0:
100,232,100343,1,2,0:2:0:0:
125,227,100443,1,2,0:0:0:0:
187,264,100543,5,2,3:2:0:0:
237,191,100676,5,2,0:2:0:0:
323,170,100809,5,2,0:2:0:0:
314,259,100943,5,10,3:2:0:0:
397,290,101076,5,2,0:2:0:0:
419,204,101209,5,2,0:2:0:0:
494,155,101343,5,2,3:2:0:0:
507,115,101443,1,2,0:0:0:0:
497,77,101543,1,2,0:0:0:0:
430,116,101643,1,2,0:2:0:0:
428,42,101743,1,10,3:2:0:0:
398,44,101843,1,2,0:0:0:0:
374,63,101943,1,2,0:2:0:0:
366,92,102043,1,0,0:0:0:0:
299,124,102143,5,2,3:2:0:0:
129,147,102276,5,2,0:2:0:0:
293,242,102409,5,2,0:0:0:0:
187,43,102543,6,0,B|96:94|220:195|105:271,1,242.999992584229,10|0,3:2|0:0,0:0:0:0:
179,358,102943,1,2,3:2:0:0:
213,328,103043,1,2,0:0:0:0:
254,217,103243,1,2,0:2:0:0:
219,248,103343,1,10,3:2:0:0:
227,246,103443,1,2,0:0:0:0:
276,265,103543,1,2,0:2:0:0:
297,253,103643,1,2,0:0:0:0:
369,273,103743,5,2,3:2:0:0:
385,186,103876,5,2,0:2:0:0:
309,140,104009,5,2,0:2:0:0:
306,51,104143,5,10,3:2:0:0:
227,91,104276,5,2,0:2:0:0:
218,179,104409,5,2,0:2:0:0:
143,131,104543,5,2,3:2:0:0:
103,115,104643,1,2,0:0:0:0:
65,122,104743,1,2,0:0:0:0:
103,189,104843,1,2,0:2:0:0:
170,157,104943,1,10,3:2:0:0:
176,131,105043,1,2,0:0:0:0:
168,102,105143,1,2,0:2:0:0:
147,81,105243,1,0,0:0:0:0:
77,110,105343,5,2,3:2:0:0:
122,0,105476,5,2,0:2:0:0:
231,106,105609,5,2,0:2:0:0:
0,31,105743,6,0,B|22:58|22:58|11:110|11:110|83:158|83:158|119:223,1,216,10|0,3:2|0:0,0:0:0:0:
255,230,106143,1,2,3:2:0:0:
262,184,106243,1,2,0:0:0:0:
335,92,106443,1,2,0:2:0:0:
328,138,106543,1,10,3:2:0:0:
334,136,106643,1,2,0:0:0:0:
381,134,106743,1,2,0:2:0:0:
403,145,106843,1,2,0:0:0:0:
473,127,106943,5,2,3:2:0:0:
445,211,107076,5,2,0:2:0:0:
362,242,107209,5,2,0:2:0:0:
403,321,107343,5,10,3:2:0:0:
491,317,107476,5,2,0:2:0:0:
405,294,107609,5,2,0:2:0:0:
325,334,107743,5,2,3:2:0:0:
285,350,107843,1,2,0:0:0:0:
247,343,107943,1,2,0:0:0:0:
287,277,108043,1,2,0:2:0:0:
266,198,108143,1,10,3:2:0:0:
297,206,108243,1,2,0:0:0:0:
230,235,108343,6,0,B|241:206|241:206|310:168,1,90,2|0,0:2|0:0,0:0:0:0:
429,146,108543,1,2,3:2:0:0:
442,96,108643,1,8,0:0:0:0:
415,53,108743,1,0,0:0:0:0:
286,77,108943,5,2,0:2:0:0:
260,85,109009,5,2,0:0:0:0:
233,86,109076,5,2,0:0:0:0:
206,79,109143,5,2,0:2:0:0:
183,66,109209,5,2,0:0:0:0:
102,150,109343,5,2,0:1:0:0:
