osu file format v14

[General]
AudioFilename: audio.mp3
AudioLeadIn: 0
PreviewTime: 58045
Countdown: 0
SampleSet: Normal
StackLeniency: 0.4
Mode: 0
LetterboxInBreaks: 0
WidescreenStoryboard: 1

[Editor]
Bookmarks: 38889,58489,70889,83745,96489
DistanceSpacing: 0.6
BeatDivisor: 4
GridSize: 8
TimelineZoom: 1.8

[Metadata]
Title:Period. ~ Seishin no Kousoku to Jiyuu o Tsukamu Jouka (Cut Ver.)
TitleUnicode:Period. ~ 精神ノ拘束ト自由ヲ掴ム浄化 (Cut Ver.)
Artist:tsunamix_underground
ArtistUnicode:tsunamix_underground
Creator:Skubi
Version:Insane
Source:東方Project
Tags:Touhou Celestian C-CLAYS 天空のグリニッジ 水斎 -Prism- Greenwich In The Sky Usami Renko Maribel Hearn Han Team Shanghai Alice ZUN 大空魔術 ~ Magical Astronomy 上海アリス幻樂団 Techno Suisai c82 comic market comiket コミックマーケット82 コミケット マエリベリー・ハーン 宇佐見蓮子 K2 SOUND Haan Celestial Wizardry Oozora Majutsu electronic instrumental video game CptSqBany Chanmann
BeatmapID:3573117
BeatmapSetID:1742131

[Difficulty]
HPDrainRate:4
CircleSize:4
OverallDifficulty:7
ApproachRate:8.7
SliderMultiplier:1.7
SliderTickRate:1

[Events]
//Background and Video events
0,0,"bgupx.jpg",0,0
//Break Periods
2,51755,56555
//Storyboard Layer 0 (Background)
//Storyboard Layer 1 (Fail)
//Storyboard Layer 2 (Pass)
//Storyboard Layer 3 (Foreground)
//Storyboard Layer 4 (Overlay)
//Storyboard Sound Samples

[TimingPoints]
550,400,4,1,1,40,1,0
550,-133.333333333333,4,1,1,40,0,0
13350,-100,4,1,1,40,0,0
24550,-142.857142857143,4,1,1,40,0,0
38950,-83.3333333333333,4,1,1,60,0,1
41750,-166.666666666667,4,1,1,60,0,1
42150,-83.3333333333333,4,1,1,60,0,1
48150,-166.666666666667,4,1,1,60,0,1
48550,-83.3333333333333,4,1,1,60,0,1
51750,-133.333333333333,4,1,1,45,0,0
58150,-83.3333333333333,4,1,1,70,0,1
60950,-166.666666666667,4,1,1,70,0,1
61350,-83.3333333333333,4,1,1,70,0,1
67350,-166.666666666667,4,1,1,70,0,1
67750,-83.3333333333333,4,1,1,70,0,1
70950,-83.3333333333333,4,1,1,75,0,0
75750,-71.4285714285714,4,1,1,75,0,0
77350,-83.3333333333333,4,1,1,75,0,0
88550,-71.4285714285714,4,1,1,75,0,0
90150,-83.3333333333333,4,1,1,75,0,0
96550,-83.3333333333333,4,1,1,90,0,1
99350,-166.666666666667,4,1,1,90,0,1
99750,-83.3333333333333,4,1,1,90,0,1
105750,-166.666666666667,4,1,1,90,0,1
106150,-83.3333333333333,4,1,1,90,0,1
109350,-83.3333333333333,4,1,1,40,0,0

[Colours]
Combo1 : 192,192,192
Combo2 : 255,255,0
Combo3 : 255,255,128
Combo4 : 128,64,64
Combo5 : 200,145,145
Combo6 : 83,83,255
Combo7 : 160,66,255
Combo8 : 128,128,128

[HitObjects]
38,107,550,102,0,L|43:155,1,31.8750012159348
106,45,850,2,0,L|205:31,1,95.6250036478044
115,120,1350,6,0,L|120:168,1,31.8750012159348
183,58,1650,2,0,L|282:44,1,95.6250036478044
192,133,2150,102,0,L|197:181,1,31.8750012159348
260,71,2450,2,0,L|359:57,1,95.6250036478044
269,146,2950,6,0,L|279:217,1,63.7500024318696
346,159,3350,2,0,L|356:230,1,63.7500024318696
486,292,3750,102,0,L|481:334,1,31.8750012159348
418,230,4050,1,0,0:0:0:0:
418,230,4150,2,0,L|332:218,1,63.7500024318696,8|0,0:2|0:0,0:0:0:0:
409,305,4550,6,0,L|404:347,1,31.8750012159348
341,243,4850,1,0,0:0:0:0:
341,243,4950,2,0,L|273:234,1,63.7500024318696,8|0,0:2|0:0,0:0:0:0:
332,318,5350,102,0,L|327:366,1,31.8750012159348
264,256,5650,1,0,0:0:0:0:
264,256,5750,2,0,L|194:246,1,63.7500024318696,8|0,0:2|0:0,0:0:0:0:
183,384,6150,6,0,L|172:312,1,63.7500024318696
106,371,6550,2,0,L|95:299,1,63.7500024318696,8|0,0:2|0:0,0:0:0:0:
40,141,6950,102,0,L|45:189,1,31.8750012159348,0|0,3:0|0:0,0:0:0:0:
106,45,7250,1,0,0:0:0:0:
106,45,7350,2,0,L|191:33,1,63.7500024318696,8|0,3:2|0:0,0:0:0:0:
117,154,7750,6,0,L|122:202,1,31.8750012159348,0|0,3:0|0:0,0:0:0:0:
183,58,8050,1,0,0:0:0:0:
183,58,8150,2,0,L|250:49,1,63.7500024318696,4|0,3:3|0:0,0:0:0:0:
194,167,8550,102,0,L|199:215,1,31.8750012159348,0|0,3:0|0:0,0:0:0:0:
260,71,8850,1,0,0:0:0:0:
260,71,8950,2,0,L|329:61,1,63.7500024318696,4|0,3:3|0:0,0:0:0:0:
271,180,9350,6,0,L|278:244,1,63.7500024318696,0|0,3:0|0:0,0:0:0:0:
348,193,9750,2,0,L|355:257,1,63.7500024318696,4|0,3:3|0:0,0:0:0:0:
455,313,10150,102,0,L|450:361,1,31.8750012159348,0|0,3:0|0:0,0:0:0:0:
379,193,10450,1,0,0:0:0:0:
379,193,10550,2,0,L|293:181,1,63.7500024318696,4|0,3:3|0:0,0:0:0:0:
366,321,10950,6,0,L|358:380,1,31.8750012159348,0|0,3:0|0:0,0:0:0:0:
302,206,11250,1,0,0:0:0:0:
302,206,11350,2,0,L|216:194,1,63.7500024318696,4|0,3:3|0:0,0:0:0:0:
289,334,11750,102,0,L|281:393,1,31.8750012159348,0|0,3:0|0:0,0:0:0:0:
225,219,12050,2,0,L|120:205,1,95.6250036478044
183,384,12550,6,0,L|172:312,1,63.7500024318696
106,371,12950,2,0,L|95:299,1,63.7500024318696
42,165,13350,53,2,3:1:0:0:
42,165,13450,2,0,L|55:60,2,85,2|2|2,0:1|0:0|0:0,0:0:0:0:
130,29,14050,37,2,0:0:0:0:
130,29,14150,2,0,L|172:23,1,42.5,0|0,3:0|0:0,0:0:0:0:
185,118,14450,1,0,0:0:0:0:
185,118,14550,2,0,L|173:202,1,85,8|0,3:2|0:0,0:0:0:0:
246,52,14950,6,0,L|288:46,1,42.5,0|0,3:0|0:0,0:0:0:0:
301,141,15250,1,0,0:0:0:0:
301,141,15350,2,0,L|289:225,1,85,8|0,3:2|0:0,0:0:0:0:
362,75,15750,102,0,L|453:61,1,85,0|0,3:0|0:0,0:0:0:0:
399,151,16150,2,0,L|490:137,1,85,8|0,3:2|0:0,0:0:0:0:
505,300,16550,69,2,3:1:0:0:
505,300,16650,2,0,L|491:195,2,85,2|2|2,0:0|0:0|0:0,0:0:0:0:
417,164,17250,53,2,0:0:0:0:
417,164,17350,2,0,L|375:158,1,42.5,0|0,3:0|0:0,0:0:0:0:
362,253,17650,1,0,0:0:0:0:
362,253,17750,2,0,L|373:337,1,85,8|0,3:2|0:0,0:0:0:0:
301,187,18150,102,0,L|259:181,1,42.5,0|0,3:0|0:0,0:0:0:0:
246,276,18450,1,0,0:0:0:0:
246,276,18550,2,0,L|257:360,1,85,8|0,3:2|0:0,0:0:0:0:
183,229,18950,6,0,L|141:223,2,42.5,0|8|0,3:0|0:0|0:0,0:0:0:0:
130,299,19350,2,0,L|46:288,1,85,8|0,3:2|0:0,0:0:0:0:
42,165,19750,53,2,3:1:0:0:
42,165,19850,2,0,L|55:60,2,85,2|2|2,0:0|0:0|0:0,0:0:0:0:
132,48,20450,54,0,L|174:42,2,42.5,2|0|0,0:0|3:0|0:0,0:0:0:0:
185,118,20850,1,0,0:0:0:0:
185,118,20950,2,0,L|173:202,1,85,8|0,3:2|0:0,0:0:0:0:
246,52,21350,102,0,L|288:46,1,42.5,0|0,3:0|0:0,0:0:0:0:
298,126,21650,1,0,0:0:0:0:
298,126,21750,2,0,L|286:210,1,85,8|0,3:2|0:0,0:0:0:0:
360,56,22150,6,0,L|453:42,1,85,0|0,3:0|0:0,0:0:0:0:
411,132,22550,2,0,L|497:119,1,85,8|0,3:2|0:0,0:0:0:0:
497,339,22950,53,2,3:1:0:0:
497,339,23050,2,0,L|484:234,2,85,2|2|2,0:0|0:0|0:0,0:0:0:0:
430,176,23650,53,2,0:0:0:0:
430,176,23750,2,0,L|374:167,1,42.5,0|0,3:0|0:0,0:0:0:0:
362,253,24050,1,0,0:0:0:0:
362,253,24150,2,0,L|373:337,1,85,8|0,3:2|0:0,0:0:0:0:
301,187,24550,102,0,L|199:173,1,89.2499972763062
245,178,26150,38,0,L|274:182,1,29.7499990921021,6|2,3:1|0:0,0:0:0:0:
207,33,26450,22,0,L|194:127,1,89.2499972763062,2|2,0:0|0:0,0:0:0:0:
187,265,26950,6,0,L|229:259,2,39.6666654561361,2|2|2,0:0|0:0|0:0,0:0:0:0:
137,322,27350,2,0,L|127:391,2,39.6666654561361,2|2|2,0:0|0:0|0:0,0:0:0:0:
112,250,27750,69,2,0:0:0:0:
109,230,27850,1,2,0:0:0:0:
107,210,27950,1,2,0:0:0:0:
105,190,28050,1,2,0:0:0:0:
103,170,28150,2,0,L|99:126,2,29.7499990921021,2|2|2,0:0|0:0|0:0,0:0:0:0:
7,226,28550,54,0,L|12:282,2,39.6666654561361,2|2|2,0:0|0:0|0:0,0:0:0:0:
3,191,28950,1,2,0:0:0:0:
198,120,29350,53,2,0:0:0:0:
201,140,29450,1,2,0:0:0:0:
203,160,29550,1,2,0:0:0:0:
205,180,29650,1,2,0:0:0:0:
208,200,29750,2,0,L|210:229,1,29.7499990921021,2|2,0:0|0:0,0:0:0:0:
213,254,29950,1,2,0:0:0:0:
246,325,30150,38,0,L|203:355,2,39.6666654561361,2|2|2,0:0|0:0|0:0,0:0:0:0:
290,262,30550,2,0,L|284:210,2,39.6666654561361,2|2|2,0:0|0:0|0:0,0:0:0:0:
324,334,30950,69,2,0:0:0:0:
344,337,31050,1,2,0:0:0:0:
364,339,31150,1,2,0:0:0:0:
384,341,31250,1,2,0:0:0:0:
404,343,31350,2,0,L|448:347,2,29.7499990921021,2|2|2,0:0|0:0|0:0,0:0:0:0:
403,231,31750,38,0,L|363:234,2,39.6666654561361,2|2|2,0:0|0:0|0:0,0:0:0:0:
449,137,32150,101,2,0:0:0:0:
429,135,32250,1,2,0:0:0:0:
409,133,32350,2,0,L|365:129,1,29.7499990921021,2|2,0:0|0:0,0:0:0:0:
309,156,32550,86,0,L|305:185,2,29.7499990921021,2|2|2,0:0|0:0|0:0,0:0:0:0:
321,80,32850,2,0,L|324:50,2,29.7499990921021,2|2|2,0:0|0:0|0:0,0:0:0:0:
250,107,33150,1,2,0:0:0:0:
105,126,33350,38,0,L|36:136,2,39.6666654561361,2|2|2,0:0|0:0|0:0,0:0:0:0:
151,66,33750,2,0,L|156:21,2,39.6666654561361,2|2|2,0:0|0:0|0:0,0:0:0:0:
180,135,34150,69,2,0:0:0:0:
183,155,34250,1,2,0:0:0:0:
185,175,34350,1,2,0:0:0:0:
187,195,34450,1,2,0:0:0:0:
189,215,34550,2,0,L|193:259,2,29.7499990921021,2|2|2,0:0|0:0|0:0,0:0:0:0:
250,107,34950,38,0,L|245:62,2,39.6666654561361,2|2|2,0:0|0:0|0:0,0:0:0:0:
255,144,35350,1,2,0:0:0:0:
448,214,35750,69,2,0:0:0:0:
428,217,35850,1,2,0:0:0:0:
408,219,35950,1,2,0:0:0:0:
388,221,36050,1,2,0:0:0:0:
368,224,36150,2,0,L|324:228,1,29.7499990921021,2|2,0:0|0:0,0:0:0:0:
310,230,36350,1,2,0:0:0:0:
197,258,36550,38,0,L|202:302,2,39.6666654561361,2|2|2,0:0|0:0|0:0,0:0:0:0:
145,202,36950,2,0,L|103:196,2,39.6666654561361,2|2|2,0:0|0:0|0:0,0:0:0:0:
218,187,37350,69,2,0:0:0:0:
221,167,37450,1,2,0:0:0:0:
223,147,37550,1,2,0:0:0:0:
225,127,37650,1,2,0:0:0:0:
228,107,37750,2,0,L|230:77,2,29.7499990921021,2|2|2,0:0|0:0|0:0,0:0:0:0:
340,127,38150,53,2,0:0:0:0:
365,123,38283,101,2,0:0:0:0:
362,98,38416,5,2,0:0:0:0:
337,102,38550,101,2,0:0:0:0:
81,290,38950,53,6,3:1:0:0:
81,290,39050,2,0,L|132:298,1,50.9999984436036,2|0,0:0|0:0,0:0:0:0:
151,378,39250,1,2,0:0:0:0:
205,269,39450,1,0,0:0:0:0:
205,269,39550,2,0,L|197:218,1,50.9999984436036,2|0,0:0|0:0,0:0:0:0:
106,159,39750,54,0,L|117:91,2,67.9999979248048,10|2|2,3:0|0:0|0:0,0:0:0:0:
22,179,40150,2,0,L|11:245,2,67.9999979248048,8|0|0,0:1|0:0|0:0,0:0:0:0:
37,103,40550,53,10,3:0:0:0:
41,78,40650,1,2,0:0:0:0:
45,54,40750,1,2,0:0:0:0:
49,30,40850,1,2,0:0:0:0:
53,6,40950,2,0,L|2:14,2,50.9999984436036,10|2|2,0:1|0:0|0:0,0:0:0:0:
201,77,41350,54,0,L|212:9,2,67.9999979248048,10|2|2,3:0|0:0|0:0,0:0:0:0:
130,30,41750,1,10,0:1:0:0:
273,108,42150,54,0,L|278:166,1,50.9999984436036,10|2,3:0|0:0,0:0:0:0:
290,255,42350,1,2,0:0:0:0:
290,255,42450,2,0,L|332:217,1,50.9999984436036,2|10,0:0|0:1,0:0:0:0:
395,160,42650,1,2,0:0:0:0:
395,160,42750,1,2,0:0:0:0:
273,108,42950,54,0,L|279:28,2,67.9999979248048,10|2|2,3:0|0:0|0:0,0:0:0:0:
206,166,43350,2,0,L|212:246,2,67.9999979248048,10|2|2,0:1|0:0|0:0,0:0:0:0:
113,90,43750,53,10,3:0:0:0:
115,110,43850,1,2,0:0:0:0:
117,130,43950,1,2,0:0:0:0:
119,150,44050,1,2,0:0:0:0:
121,170,44150,2,0,L|125:220,1,50.9999984436036,10|2,0:1|0:0,0:0:0:0:
129,248,44350,1,2,0:0:0:0:
91,359,44550,54,0,L|11:353,2,67.9999979248048,10|2|2,3:0|0:0|0:0,0:0:0:0:
163,366,44950,85,10,0:1:0:0:
178,342,45050,1,2,0:0:0:0:
204,330,45150,1,2,0:0:0:0:
232,333,45250,1,2,0:0:0:0:
252,347,45350,86,0,L|302:352,1,50.9999984436036,10|2,3:0|0:0,0:0:0:0:
335,282,45550,1,2,0:0:0:0:
335,282,45650,2,0,L|385:287,1,50.9999984436036,2|10,0:0|0:1,0:0:0:0:
419,365,45850,1,2,0:0:0:0:
419,365,45950,1,2,0:0:0:0:
458,210,46150,54,0,L|467:115,2,67.9999979248048,10|2|2,3:0|0:0|0:0,0:0:0:0:
381,201,46550,2,0,L|390:106,2,67.9999979248048,10|2|2,0:1|0:0|0:0,0:0:0:0:
309,142,46950,53,10,3:0:0:0:
311,118,47050,1,2,0:0:0:0:
314,94,47150,1,2,0:0:0:0:
317,70,47250,1,2,0:0:0:0:
320,46,47350,2,0,L|370:41,2,50.9999984436036,10|2|2,0:1|0:0|0:0,0:0:0:0:
231,118,47750,54,0,L|222:213,2,67.9999979248048,10|2|2,3:0|0:0|0:0,0:0:0:0:
197,53,48150,1,10,0:1:0:0:
344,216,48550,54,0,L|294:212,1,50.9999984436036,10|2,3:0|0:0,0:0:0:0:
291,293,48750,1,2,0:0:0:0:
291,293,48850,2,0,L|240:288,1,50.9999984436036,2|10,0:0|0:1,0:0:0:0:
234,368,49050,1,2,0:0:0:0:
234,368,49150,1,2,0:0:0:0:
83,301,49350,54,0,L|90:368,2,67.9999979248048,10|2|2,3:0|0:0|0:0,0:0:0:0:
62,228,49750,2,0,L|0:201,2,67.9999979248048,10|2|2,0:1|0:0|0:0,0:0:0:0:
134,245,50150,53,10,3:0:0:0:
154,243,50250,1,2,0:0:0:0:
174,241,50350,1,2,0:0:0:0:
194,239,50450,1,2,0:0:0:0:
214,237,50550,2,0,L|264:233,2,50.9999984436036,10|2|2,0:1|0:0|0:0,0:0:0:0:
171,127,50950,69,10,3:0:0:0:
146,123,51083,101,2,0:0:0:0:
149,98,51216,5,2,0:0:0:0:
174,102,51350,101,10,0:1:0:0:
176,231,58150,53,14,3:0:0:0:
209,254,58250,1,2,3:0:0:0:
232,128,58450,5,2,3:0:0:0:
195,145,58550,1,10,3:1:0:0:
293,227,58750,1,2,3:0:0:0:
345,95,58950,38,0,L|351:27,2,67.9999979248048,8|0|0,3:0|3:0|3:0,0:0:0:0:
383,168,59350,2,0,L|451:162,2,67.9999979248048,8|0|0,3:1|3:0|3:0,0:0:0:0:
296,187,59750,53,10,3:0:0:0:
293,227,59850,1,2,3:0:0:0:
195,145,60050,5,2,3:0:0:0:
232,128,60150,1,10,3:1:0:0:
176,231,60350,1,2,3:0:0:0:
92,112,60550,38,0,L|24:106,2,67.9999979248048,8|0|0,3:0|3:0|3:0,0:0:0:0:
108,189,60950,1,8,3:1:0:0:
252,298,61350,53,10,3:0:0:0:
257,334,61450,1,2,3:0:0:0:
335,236,61650,5,2,3:0:0:0:
330,198,61750,1,10,3:1:0:0:
252,298,61950,1,2,3:0:0:0:
169,182,62150,38,0,L|91:174,2,67.9999979248048,8|0|0,3:0|3:0|3:0,0:0:0:0:
230,133,62550,2,0,L|222:55,2,67.9999979248048,8|0|0,3:1|3:0|3:0,0:0:0:0:
239,210,62950,53,10,3:0:0:0:
244,246,63050,1,2,3:0:0:0:
349,326,63250,5,2,3:0:0:0:
344,290,63350,1,10,3:1:0:0:
239,210,63550,1,2,3:0:0:0:
125,293,63750,38,0,L|47:285,2,67.9999979248048,8|0|0,3:0|3:0|3:0,0:0:0:0:
170,357,64150,2,0,L|153:204,1,152.999995330811,8|0,3:1|0:0,0:0:0:0:
209,101,64550,53,10,3:0:0:0:
176,78,64650,1,2,3:0:0:0:
153,204,64850,5,2,3:0:0:0:
190,187,64950,1,10,3:1:0:0:
97,99,65150,1,2,3:0:0:0:
82,245,65350,38,0,L|77:338,2,67.9999979248048,8|0|0,3:0|3:0|3:0,0:0:0:0:
7,179,65750,2,0,L|2:272,2,67.9999979248048,8|0|0,3:1|3:0|3:0,0:0:0:0:
94,139,66150,53,10,3:0:0:0:
97,99,66250,1,2,3:0:0:0:
190,187,66450,5,2,3:0:0:0:
153,204,66550,1,10,3:1:0:0:
209,101,66750,1,2,3:0:0:0:
252,262,66950,38,0,L|260:340,2,67.9999979248048,8|0|0,3:0|3:0|3:0,0:0:0:0:
331,287,67350,1,8,3:1:0:0:
365,164,67750,53,10,3:0:0:0:
405,130,67850,1,2,3:0:0:0:
380,15,68050,5,2,3:0:0:0:
337,46,68150,1,10,3:1:0:0:
365,164,68350,1,2,3:0:0:0:
222,78,68550,38,0,L|141:74,2,67.9999979248048,8|0|0,3:0|3:0|3:0,0:0:0:0:
255,148,68950,2,0,L|259:229,2,67.9999979248048,8|0|0,3:1|3:0|3:0,0:0:0:0:
298,82,69350,69,10,3:0:0:0:
329,125,69450,1,2,3:0:0:0:
447,97,69650,101,2,3:0:0:0:
413,57,69750,1,10,3:1:0:0:
298,82,69950,1,2,3:0:0:0:
404,168,70150,21,8,3:0:0:0:
407,186,70250,1,8,3:1:0:0:
409,205,70350,1,0,3:0:0:0:
472,258,70550,1,8,3:1:0:0:
353,267,70750,1,0,3:0:0:0:
419,320,70950,101,10,3:0:0:0:
360,373,71150,1,2,0:0:0:0:
295,323,71350,1,10,0:0:0:0:
179,371,71550,2,0,L|156:212,1,152.999995330811,10|0,0:0|0:0,0:0:0:0:
131,202,71950,1,2,0:0:0:0:
135,172,72050,1,2,0:0:0:0:
139,142,72150,1,10,0:0:0:0:
143,112,72250,1,2,0:0:0:0:
147,82,72350,1,2,0:0:0:0:
263,23,72550,5,10,3:0:0:0:
323,77,72750,1,2,0:0:0:0:
382,20,72950,1,10,0:0:0:0:
454,142,73150,2,0,L|432:294,1,152.999995330811,2|0,0:0|0:0,0:0:0:0:
403,322,73550,1,2,0:0:0:0:
373,326,73650,1,2,0:0:0:0:
343,330,73750,1,10,0:0:0:0:
339,353,73850,1,2,0:0:0:0:
155,350,74150,101,10,3:0:0:0:
83,311,74350,1,2,0:0:0:0:
19,362,74550,1,10,0:0:0:0:
77,197,74750,2,0,L|228:175,1,152.999995330811,10|0,0:0|0:0,0:0:0:0:
258,147,75150,1,2,0:0:0:0:
262,117,75250,1,2,0:0:0:0:
266,87,75350,1,10,0:0:0:0:
270,57,75450,1,2,0:0:0:0:
274,27,75550,1,2,0:0:0:0:
384,13,75750,6,0,L|362:190,1,178.499994552612,10|2,3:0|0:0,0:0:0:0:
386,231,76150,1,10,0:0:0:0:
380,259,76250,1,2,0:0:0:0:
393,304,76350,85,2,0:0:0:0:
362,314,76450,1,2,0:0:0:0:
332,324,76550,1,10,3:0:0:0:
302,360,76650,21,2,0:0:0:0:
278,339,76750,1,2,0:0:0:0:
255,318,76850,1,2,0:0:0:0:
207,320,76950,85,10,0:0:0:0:
211,300,77050,1,2,0:0:0:0:
216,280,77150,1,2,0:0:0:0:
220,260,77250,1,2,0:0:0:0:
179,261,77350,37,10,3:0:0:0:
201,182,77550,1,2,0:0:0:0:
282,172,77750,1,10,0:0:0:0:
406,94,77950,2,0,L|254:73,1,152.999995330811,10|0,0:0|0:0,0:0:0:0:
223,46,78350,1,2,0:0:0:0:
193,50,78450,1,2,0:0:0:0:
163,54,78550,1,10,0:0:0:0:
133,58,78650,1,2,0:0:0:0:
103,62,78750,1,2,0:0:0:0:
48,198,78950,85,10,3:0:0:0:
0,264,79150,1,2,0:0:0:0:
54,324,79350,1,10,0:0:0:0:
193,381,79550,2,0,L|171:229,1,152.999995330811,2|0,0:0|0:0,0:0:0:0:
199,202,79950,1,2,0:0:0:0:
203,172,80050,1,2,0:0:0:0:
207,142,80150,1,10,0:0:0:0:
203,119,80250,1,2,0:0:0:0:
333,23,80550,5,10,3:0:0:0:
356,101,80750,1,2,0:0:0:0:
436,112,80950,1,10,0:0:0:0:
490,239,81150,2,0,L|339:261,1,152.999995330811,10|0,0:0|0:0,0:0:0:0:
316,295,81550,1,2,0:0:0:0:
286,291,81650,1,2,0:0:0:0:
256,287,81750,1,10,0:0:0:0:
226,283,81850,1,2,0:0:0:0:
196,279,81950,1,2,0:0:0:0:
90,344,82150,101,10,3:0:0:0:
38,280,82350,1,2,0:0:0:0:
79,209,82550,1,10,0:0:0:0:
211,193,82750,5,2,0:0:0:0:
211,193,82850,2,0,L|216:143,1,50.9999984436036,0|8,0:0|3:0,0:0:0:0:
293,171,83050,1,0,0:0:0:0:
293,171,83150,2,0,L|298:121,1,50.9999984436036,2|2,0:0|0:0,0:0:0:0:
371,75,83350,5,10,0:0:0:0:
377,114,83450,1,2,0:0:0:0:
383,152,83550,1,2,0:0:0:0:
388,191,83650,1,2,0:0:0:0:
394,229,83750,70,0,L|401:281,1,50.9999984436036,10|0,3:0|0:0,0:0:0:0:
321,264,83950,2,0,L|328:316,1,50.9999984436036,2|0,0:0|0:0,0:0:0:0:
248,299,84150,2,0,L|255:351,1,50.9999984436036,10|0,0:0|0:0,0:0:0:0:
158,384,84350,2,0,L|180:228,1,152.999995330811,10|0,0:0|0:0,0:0:0:0:
154,207,84750,1,2,0:0:0:0:
149,175,84850,1,2,0:0:0:0:
144,143,84950,1,10,0:0:0:0:
140,111,85050,1,2,0:0:0:0:
135,79,85150,1,2,0:0:0:0:
227,40,85350,22,0,L|220:90,1,50.9999984436036,10|0,3:0|0:0,0:0:0:0:
304,52,85550,2,0,L|297:102,1,50.9999984436036,2|0,0:0|0:0,0:0:0:0:
381,64,85750,2,0,L|374:114,1,50.9999984436036,10|0,0:0|0:0,0:0:0:0:
459,23,85950,2,0,L|481:184,1,152.999995330811,2|0,0:0|0:0,0:0:0:0:
507,196,86350,1,2,0:0:0:0:
503,226,86450,1,2,0:0:0:0:
500,256,86550,1,10,0:0:0:0:
512,278,86650,1,2,0:0:0:0:
441,352,86950,86,0,L|391:345,1,50.9999984436036,10|0,3:0|0:0,0:0:0:0:
421,274,87150,2,0,L|371:266,1,50.9999984436036,2|0,0:0|0:0,0:0:0:0:
401,196,87350,2,0,L|351:188,1,50.9999984436036,10|0,0:0|0:0,0:0:0:0:
289,120,87550,2,0,L|465:94,1,152.999995330811,10|0,0:0|0:0,0:0:0:0:
455,71,87950,1,2,0:0:0:0:
424,66,88050,1,2,0:0:0:0:
392,62,88150,1,10,0:0:0:0:
360,57,88250,1,2,0:0:0:0:
328,52,88350,1,2,0:0:0:0:
191,8,88550,22,0,L|213:185,1,178.499994552612,10|2,3:0|0:0,0:0:0:0:
189,226,88950,1,10,0:0:0:0:
195,254,89050,1,2,0:0:0:0:
182,299,89150,85,2,0:0:0:0:
213,309,89250,1,2,0:0:0:0:
243,319,89350,1,10,3:0:0:0:
273,355,89450,21,2,0:0:0:0:
297,334,89550,1,2,0:0:0:0:
320,313,89650,1,2,0:0:0:0:
368,315,89750,85,10,0:0:0:0:
364,295,89850,1,2,0:0:0:0:
359,275,89950,1,2,0:0:0:0:
355,255,90050,1,2,0:0:0:0:
396,256,90150,22,0,L|446:249,1,50.9999984436036,10|0,3:0|0:0,0:0:0:0:
405,179,90350,2,0,L|455:172,1,50.9999984436036,2|0,0:0|0:0,0:0:0:0:
414,102,90550,2,0,L|464:95,1,50.9999984436036,10|0,0:0|0:0,0:0:0:0:
512,21,90750,2,0,L|360:0,1,152.999995330811,10|0,0:0|0:0,0:0:0:0:
339,22,91150,1,2,0:0:0:0:
308,27,91250,1,2,0:0:0:0:
276,31,91350,1,10,0:0:0:0:
244,36,91450,1,2,0:0:0:0:
212,41,91550,1,2,0:0:0:0:
85,57,91750,86,0,L|78:109,1,50.9999984436036,10|0,3:0|0:0,0:0:0:0:
158,92,91950,2,0,L|151:144,1,50.9999984436036,2|0,0:0|0:0,0:0:0:0:
231,127,92150,2,0,L|224:179,1,50.9999984436036,10|0,0:0|0:0,0:0:0:0:
309,88,92350,2,0,L|332:261,1,152.999995330811,2|0,0:0|0:0,0:0:0:0:
350,262,92750,1,2,0:0:0:0:
380,266,92850,1,2,0:0:0:0:
410,269,92950,1,10,0:0:0:0:
416,290,93050,1,2,0:0:0:0:
308,373,93350,22,0,L|301:323,1,50.9999984436036,10|0,3:0|0:0,0:0:0:0:
225,358,93550,2,0,L|218:308,1,50.9999984436036,2|0,0:0|0:0,0:0:0:0:
142,343,93750,2,0,L|135:293,1,50.9999984436036,10|0,0:0|0:0,0:0:0:0:
68,218,93950,2,0,L|42:394,1,152.999995330811,10|0,0:0|0:0,0:0:0:0:
19,384,94350,1,2,0:0:0:0:
14,353,94450,1,2,0:0:0:0:
10,321,94550,1,10,0:0:0:0:
5,289,94650,1,2,0:0:0:0:
0,257,94750,1,2,0:0:0:0:
82,146,94950,86,0,L|132:139,1,50.9999984436036,10|0,3:0|0:0,0:0:0:0:
154,54,95150,2,0,L|194:84,1,50.9999984436036,2|0,0:0|0:0,0:0:0:0:
265,29,95350,2,0,L|272:79,1,50.9999984436036,10|0,0:0|0:0,0:0:0:0:
357,96,95550,1,2,0:0:0:0:
357,96,95650,2,0,L|326:136,1,50.9999984436036,0|10,0:0|3:0,0:0:0:0:
372,207,95850,1,2,0:0:0:0:
372,207,95950,2,0,L|322:214,1,50.9999984436036,2|2,0:0|0:0,0:0:0:0:
326,290,96150,37,10,0:0:0:0:
291,284,96250,1,2,0:0:0:0:
256,279,96350,1,2,0:0:0:0:
221,274,96450,1,2,0:0:0:0:
186,269,96550,69,10,3:0:0:0:
182,238,96650,2,0,L|175:188,2,50.9999984436036,2|2|2,0:0|0:0|0:0,0:0:0:0:
138,329,96950,1,10,0:0:0:0:
123,330,97050,1,2,0:0:0:0:
109,332,97150,2,0,L|102:382,1,50.9999984436036,2|0,0:0|0:0,0:0:0:0:
104,252,97350,53,10,3:0:0:0:
99,217,97483,1,2,0:0:0:0:
96,184,97616,1,2,0:0:0:0:
67,154,97750,6,0,L|-3:144,2,67.9999979248048,10|2|2,0:0|0:0|0:0,0:0:0:0:
105,139,98150,37,10,3:0:0:0:
125,136,98250,1,2,0:0:0:0:
145,133,98350,1,2,0:0:0:0:
165,130,98450,1,2,0:0:0:0:
185,127,98550,2,0,L|235:120,2,50.9999984436036,10|2|2,0:0|0:0|0:0,0:0:0:0:
166,36,98950,69,10,3:0:0:0:
201,41,99083,1,2,0:0:0:0:
234,44,99216,1,2,0:0:0:0:
267,47,99350,1,10,0:0:0:0:
308,177,99750,37,10,3:0:0:0:
313,208,99850,2,0,L|320:258,2,50.9999984436036,2|2|2,0:0|0:0|0:0,0:0:0:0:
355,98,100150,1,10,0:0:0:0:
372,100,100250,1,2,0:0:0:0:
389,102,100350,2,0,L|396:152,1,50.9999984436036,2|0,0:0|0:0,0:0:0:0:
406,242,100550,53,10,3:0:0:0:
411,275,100683,1,2,0:0:0:0:
416,310,100816,1,2,0:0:0:0:
445,339,100950,6,0,L|515:347,2,67.9999979248048,10|2|2,0:0|0:0|0:0,0:0:0:0:
405,349,101350,37,10,3:0:0:0:
385,352,101450,1,2,0:0:0:0:
365,355,101550,1,2,0:0:0:0:
345,358,101650,1,2,0:0:0:0:
325,361,101750,2,0,L|275:368,2,50.9999984436036,10|2|2,0:0|0:0|0:0,0:0:0:0:
271,286,102150,69,10,3:0:0:0:
238,283,102284,1,2,0:0:0:0:
205,280,102417,1,2,0:0:0:0:
170,275,102550,2,0,L|151:123,1,152.999995330811,10|0,0:0|0:0,0:0:0:0:
143,46,102950,37,10,3:0:0:0:
173,50,103050,2,0,L|223:57,1,50.9999984436036,2|2,0:0|0:0,0:0:0:0:
297,13,103250,1,2,0:0:0:0:
299,43,103350,1,10,0:0:0:0:
301,73,103450,1,2,0:0:0:0:
303,103,103550,2,0,L|306:153,1,50.9999984436036,2|0,0:0|0:0,0:0:0:0:
311,231,103750,53,10,3:0:0:0:
346,236,103883,1,2,0:0:0:0:
379,239,104016,1,2,0:0:0:0:
393,274,104150,5,10,0:0:0:0:
428,279,104283,1,2,0:0:0:0:
461,282,104416,1,2,0:0:0:0:
507,293,104550,37,10,3:0:0:0:
503,263,104650,2,0,L|497:207,1,50.9999984436036,2|2,0:0|0:0,0:0:0:0:
429,176,104850,1,2,0:0:0:0:
427,146,104950,1,10,0:0:0:0:
425,116,105050,1,2,0:0:0:0:
423,86,105150,2,0,L|419:35,1,50.9999984436036,2|0,0:0|0:0,0:0:0:0:
337,61,105350,69,10,3:0:0:0:
302,56,105483,1,2,0:0:0:0:
269,53,105616,1,2,0:0:0:0:
236,50,105750,1,10,0:0:0:0:
112,16,106150,38,0,L|119:67,1,50.9999984436036,10|2,3:0|0:0,0:0:0:0:
183,116,106350,1,2,0:0:0:0:
163,139,106450,1,2,0:0:0:0:
134,148,106550,1,10,0:0:0:0:
103,148,106650,1,2,0:0:0:0:
75,135,106750,1,2,0:0:0:0:
29,220,106950,53,10,3:0:0:0:
34,255,107083,1,2,0:0:0:0:
37,288,107216,1,2,0:0:0:0:
72,302,107350,5,10,0:0:0:0:
77,337,107483,1,2,0:0:0:0:
80,370,107616,1,2,0:0:0:0:
118,382,107750,38,0,L|169:375,1,50.9999984436036,10|2,3:0|0:0,0:0:0:0:
246,384,107950,1,2,0:0:0:0:
251,353,108050,1,2,0:0:0:0:
271,330,108150,1,10,0:0:0:0:
299,319,108250,1,2,0:0:0:0:
329,314,108350,2,0,L|380:307,1,50.9999984436036,2|0,0:0|0:0,0:0:0:0:
411,238,108550,21,10,3:0:0:0:
414,220,108650,1,8,3:1:0:0:
416,201,108750,1,0,3:0:0:0:
479,148,108950,1,8,3:1:0:0:
360,139,109150,1,0,3:0:0:0:
426,86,109350,69,4,3:1:0:0:
256,192,109450,12,4,112550,3:2:0:0:
