osu file format v14

[General]
AudioFilename: audio.mp3
AudioLeadIn: 0
PreviewTime: 58045
Countdown: 0
SampleSet: Normal
StackLeniency: 0.4
Mode: 0
LetterboxInBreaks: 0
WidescreenStoryboard: 1

[Editor]
Bookmarks: 38889,58489,70889,83745,96489,102955
DistanceSpacing: 0.7
BeatDivisor: 4
GridSize: 8
TimelineZoom: 1.8

[Metadata]
Title:Period. ~ Seishin no Kousoku to Jiyuu o Tsukamu Jouka (Cut Ver.)
TitleUnicode:Period. ~ 精神ノ拘束ト自由ヲ掴ム浄化 (Cut Ver.)
Artist:tsunamix_underground
ArtistUnicode:tsunamix_underground
Creator:Skubi
Version:Collab Normal
Source:東方Project
Tags:Touhou Celestian C-CLAYS 天空のグリニッジ 水斎 -Prism- Greenwich In The Sky Usami Renko Maribel Hearn Han Team Shanghai Alice ZUN 大空魔術 ~ Magical Astronomy 上海アリス幻樂団 Techno Suisai c82 comic market comiket コミックマーケット82 コミケット マエリベリー・ハーン 宇佐見蓮子 K2 SOUND Haan Celestial Wizardry Oozora Majutsu electronic instrumental video game CptSqBany Chanmann
BeatmapID:3574789
BeatmapSetID:1742131

[Difficulty]
HPDrainRate:3
CircleSize:3.2
OverallDifficulty:3
ApproachRate:5
SliderMultiplier:1.7
SliderTickRate:1

[Events]
//Background and Video events
0,0,"bgupx.jpg",0,0
//Break Periods
2,51949,56555
//Storyboard Layer 0 (Background)
//Storyboard Layer 1 (Fail)
//Storyboard Layer 2 (Pass)
//Storyboard Layer 3 (Foreground)
//Storyboard Layer 4 (Overlay)
//Storyboard Sound Samples

[TimingPoints]
550,400,4,1,1,40,1,0
550,-200,4,1,1,40,0,0
38950,-200,4,1,1,60,0,1
41750,-200,4,1,1,60,0,1
42150,-200,4,1,1,60,0,1
48150,-200,4,1,1,60,0,1
48550,-200,4,1,1,60,0,1
51750,-200,4,1,1,45,0,0
58150,-200,4,1,1,70,0,1
60950,-200,4,1,1,70,0,1
61350,-200,4,1,1,70,0,1
67350,-200,4,1,1,70,0,1
67750,-200,4,1,1,70,0,1
70950,-200,4,1,1,75,0,0
75750,-200,4,1,1,75,0,0
77350,-200,4,1,1,75,0,0
88550,-200,4,1,1,75,0,0
90150,-200,4,1,1,75,0,0
96550,-200,4,1,1,90,0,1
99350,-200,4,1,1,90,0,1
99750,-200,4,1,1,90,0,1
105750,-200,4,1,1,90,0,1
106150,-200,4,1,1,90,0,1
109350,-200,4,1,1,40,0,0

[Colours]
Combo1 : 192,192,192
Combo2 : 255,255,0
Combo3 : 255,255,128
Combo4 : 128,64,64
Combo5 : 200,145,145
Combo6 : 83,83,255
Combo7 : 160,66,255
Combo8 : 128,128,128

[HitObjects]
32,88,550,101,0,0:0:0:0:
158,74,1350,1,0,0:0:0:0:
284,60,2150,1,0,0:0:0:0:
403,14,2950,2,0,L|390:106,1,85
418,178,3750,6,0,L|325:191,1,85,0|8,0:0|0:2,0:0:0:0:
349,269,4550,2,0,L|256:282,1,85,0|8,0:0|0:2,0:0:0:0:
280,360,5350,2,0,L|187:373,1,85,0|8,0:0|0:2,0:0:0:0:
115,381,6150,1,0,0:0:0:0:
115,381,6550,1,8,0:2:0:0:
46,337,6950,102,0,L|36:249,1,85,0|8,3:0|3:2,0:0:0:0:
117,255,7750,2,0,L|107:167,1,85,0|4,3:0|3:3,0:0:0:0:
188,173,8550,2,0,L|178:85,1,85,0|4,3:0|3:3,0:0:0:0:
174,12,9350,1,0,3:0:0:0:
174,12,9750,1,4,3:3:0:0:
246,47,10150,6,0,L|330:55,1,85,0|4,3:0|3:3,0:0:0:0:
308,133,10950,2,0,L|392:141,1,85,0|4,3:0|3:3,0:0:0:0:
370,219,11750,2,0,L|437:226,1,63.75,0|0,3:0|0:0,0:0:0:0:
259,363,13350,101,2,3:1:0:0:
178,354,13750,2,0,L|73:343,2,85,0|0|8,3:0|3:0|3:2,0:0:0:0:
225,288,14950,2,0,L|213:204,1,85,0|8,3:0|3:2,0:0:0:0:
203,128,15750,1,0,3:0:0:0:
203,128,16150,1,8,3:2:0:0:
236,53,16550,5,2,3:1:0:0:
155,62,16950,2,0,L|50:72,2,85,0|0|8,3:0|3:0|3:2,0:0:0:0:
236,53,18150,2,0,L|320:44,1,85,0|8,3:0|3:2,0:0:0:0:
400,35,18950,1,0,3:0:0:0:
473,178,19750,101,2,3:1:0:0:
464,259,20150,2,0,L|453:363,2,85,0|0|8,3:0|3:0|3:2,0:0:0:0:
398,212,21350,2,0,L|314:224,1,85,0|8,3:0|3:2,0:0:0:0:
256,281,22150,1,0,3:0:0:0:
256,281,22550,1,8,3:2:0:0:
239,201,22950,6,0,L|227:117,1,85,2|0,3:1|3:0,0:0:0:0:
149,140,23750,2,0,L|137:56,1,85,0|8,3:0|3:2,0:0:0:0:
58,36,24550,5,0,0:0:0:0:
255,194,26150,38,0,L|326:204,2,63.75,6|2|2,3:1|0:0|0:0,0:0:0:0:
212,189,26950,2,0,L|224:288,1,85,2|2,0:0|0:0,0:0:0:0:
190,352,27750,2,0,L|126:342,2,63.75,2|2|2,0:0|0:0|0:0,0:0:0:0:
236,363,28550,1,2,0:0:0:0:
236,363,28950,1,2,0:0:0:0:
304,312,29350,86,0,L|317:228,1,85,2|2,0:0|0:0,0:0:0:0:
286,148,30150,2,0,L|369:135,1,85,2|2,0:0|0:0,0:0:0:0:
454,120,30950,2,0,L|463:39,2,63.75,2|2|2,0:0|0:0|0:0,0:0:0:0:
451,162,31750,1,2,0:0:0:0:
302,79,32550,22,0,L|293:6,2,63.75,2|2|2,0:0|0:0|0:0,0:0:0:0:
307,121,33350,1,2,0:0:0:0:
258,190,33750,1,2,0:0:0:0:
195,132,34150,2,0,L|107:120,1,85,2|2,0:0|0:0,0:0:0:0:
31,110,34950,1,2,0:0:0:0:
31,110,35350,1,2,0:0:0:0:
63,188,35750,54,0,L|74:272,1,85,2|2,0:0|0:0,0:0:0:0:
47,352,36550,2,0,L|131:363,1,85,2|2,0:0|0:0,0:0:0:0:
215,376,37350,2,0,L|290:386,2,63.75,2|2|2,0:0|0:0|0:0,0:0:0:0:
205,334,38150,1,2,0:0:0:0:
29,265,38950,6,0,L|18:183,1,63.75,6|2,3:1|0:0,0:0:0:0:
94,169,39550,1,2,0:0:0:0:
97,124,39750,1,10,3:0:0:0:
185,136,40150,1,10,0:1:0:0:
264,96,40550,2,0,L|275:183,1,85,10|10,3:0|0:1,0:0:0:0:
290,270,41350,1,10,3:0:0:0:
303,356,41750,1,10,0:1:0:0:
377,292,42150,6,0,L|388:210,1,63.75,10|2,3:0|0:0,0:0:0:0:
314,192,42750,1,2,0:0:0:0:
308,151,42950,1,10,3:0:0:0:
218,162,43350,1,10,0:1:0:0:
139,123,43750,2,0,L|127:210,1,85,10|10,3:0|0:1,0:0:0:0:
113,297,44550,1,10,3:0:0:0:
100,383,44950,1,10,0:1:0:0:
13,362,45350,6,0,L|24:280,1,63.75,10|2,3:0|0:0,0:0:0:0:
78,241,45950,1,2,0:0:0:0:
67,201,46150,1,10,3:0:0:0:
158,183,46550,1,10,0:1:0:0:
189,98,46950,2,0,L|276:110,1,85,10|10,3:0|0:1,0:0:0:0:
363,124,47750,1,10,3:0:0:0:
449,138,48150,1,10,0:1:0:0:
390,211,48550,6,0,L|308:222,1,63.75,10|2,3:0|0:0,0:0:0:0:
270,280,49150,1,2,0:0:0:0:
230,270,49350,1,10,3:0:0:0:
212,357,49750,1,10,0:1:0:0:
120,378,50150,2,0,L|107:290,1,85,10|10,3:0|0:1,0:0:0:0:
94,204,50950,1,10,3:0:0:0:
80,118,51350,2,0,L|68:30,1,85,10|2,0:1|2:0,0:0:0:0:
53,53,58150,5,14,3:0:0:0:
140,62,58550,1,10,3:1:0:0:
145,151,58950,2,0,L|153:243,1,85,8|8,3:0|3:1,0:0:0:0:
161,324,59750,2,0,L|233:330,1,63.75,10|2,3:0|3:0,0:0:0:0:
300,358,60350,1,2,3:0:0:0:
344,355,60550,1,8,3:0:0:0:
352,266,60950,1,8,3:1:0:0:
409,197,61350,6,0,L|486:191,2,63.75,10|2|2,3:0|3:0|3:0,0:0:0:0:
378,164,62150,2,0,L|371:75,1,85,8|8,3:0|3:1,0:0:0:0:
412,0,62950,1,10,3:0:0:0:
322,5,63350,1,10,3:1:0:0:
232,10,63750,2,0,L|225:94,1,85,8|8,3:0|3:1,0:0:0:0:
217,183,64550,5,10,3:0:0:0:
129,192,64950,1,10,3:1:0:0:
44,162,65350,2,0,L|55:252,1,85,8|8,3:0|3:1,0:0:0:0:
18,328,66150,2,0,L|93:337,1,63.75,10|2,3:0|3:0,0:0:0:0:
157,369,66750,1,2,3:0:0:0:
176,328,66950,2,0,L|265:316,1,85,8|8,3:0|3:1,0:0:0:0:
349,309,67750,6,0,L|340:372,2,63.75,10|2|2,3:0|3:0|3:0,0:0:0:0:
327,269,68550,1,8,3:0:0:0:
367,189,68950,1,8,3:1:0:0:
454,207,69350,2,0,L|462:270,2,63.75,10|2|2,3:0|3:0|3:0,0:0:0:0:
476,167,70150,1,8,3:0:0:0:
334,57,70950,70,0,L|340:9,2,42.5,10|2|10,3:0|0:0|0:0,0:0:0:0:
291,70,71550,1,10,0:0:0:0:
315,155,71950,2,0,L|303:239,1,85,2|2,0:0|0:0,0:0:0:0:
297,283,72550,2,0,L|254:288,1,42.5,10|2,3:0|0:0,0:0:0:0:
211,297,72950,1,10,0:0:0:0:
211,297,73150,1,10,0:0:0:0:
135,248,73550,2,0,L|146:163,1,85,2|0,0:0|0:0,0:0:0:0:
178,132,74150,6,0,L|171:84,2,42.5,10|2|10,3:0|0:0|0:0,0:0:0:0:
221,145,74750,1,10,0:0:0:0:
281,79,75150,2,0,L|365:90,1,85,2|2,0:0|0:0,0:0:0:0:
399,62,75750,21,10,3:0:0:0:
475,108,76150,2,0,L|457:234,1,127.5,10|2,0:0|0:0,0:0:0:0:
450,278,76950,1,10,0:0:0:0:
379,332,77350,70,0,L|385:379,2,42.5,10|2|10,3:0|0:0|0:0,0:0:0:0:
336,319,77950,1,10,0:0:0:0:
360,234,78350,2,0,L|348:149,1,85,2|2,0:0|0:0,0:0:0:0:
355,105,78950,2,0,L|312:99,1,42.5,10|2,3:0|0:0,0:0:0:0:
269,91,79350,1,10,0:0:0:0:
269,91,79550,1,10,0:0:0:0:
193,140,79950,2,0,L|204:224,1,85,2|0,0:0|0:0,0:0:0:0:
166,246,80550,6,0,L|159:293,2,42.5,10|2|10,3:0|0:0|0:0,0:0:0:0:
128,221,81150,1,10,0:0:0:0:
40,236,81550,2,0,L|51:151,1,85,2|2,0:0|0:0,0:0:0:0:
24,116,82150,2,0,L|66:110,1,42.5,10|2,3:0|0:0,0:0:0:0:
110,102,82550,1,10,0:0:0:0:
155,98,82750,2,0,L|239:86,1,85,10|2,0:0|0:0,0:0:0:0:
308,145,83550,1,2,0:0:0:0:
338,177,83750,6,0,L|399:185,2,42.5,10|2|10,3:0|0:0|0:0,0:0:0:0:
302,204,84350,1,10,0:0:0:0:
257,282,84750,2,0,L|250:324,2,42.5,2|10|2,0:0|0:0|0:0,0:0:0:0:
228,247,85350,2,0,L|185:253,1,42.5,10|2,3:0|0:0,0:0:0:0:
145,234,85750,1,10,0:0:0:0:
145,234,85950,2,0,L|59:246,1,85,10|2,0:0|0:0,0:0:0:0:
16,251,86550,1,10,0:0:0:0:
32,163,86950,6,0,L|38:120,1,42.5,10|2,3:0|0:0,0:0:0:0:
43,76,87350,1,10,0:0:0:0:
43,76,87550,2,0,L|131:63,1,85,10|2,0:0|0:0,0:0:0:0:
171,58,88150,1,10,0:0:0:0:
244,6,88550,85,10,3:0:0:0:
323,47,88950,2,0,L|341:179,1,127.5,10|2,0:0|0:0,0:0:0:0:
348,217,89750,1,10,0:0:0:0:
435,235,90150,102,0,L|496:243,2,42.5,10|2|10,3:0|0:0|0:0,0:0:0:0:
408,270,90750,1,10,0:0:0:0:
319,370,91350,1,10,0:0:0:0:
280,289,91750,2,0,L|237:282,1,42.5,10|2,3:0|0:0,0:0:0:0:
197,302,92150,1,10,0:0:0:0:
197,302,92350,2,0,L|111:289,1,85,10|2,0:0|0:0,0:0:0:0:
68,281,92950,1,10,0:0:0:0:
41,195,93350,6,0,L|-1:201,2,42.5,10|2|10,3:0|0:0|0:0,0:0:0:0:
85,189,93950,2,0,L|97:103,1,85,10|2,0:0|0:0,0:0:0:0:
104,60,94550,1,10,0:0:0:0:
191,44,94950,2,0,L|184:1,2,42.5,10|2|10,3:0|0:0|0:0,0:0:0:0:
199,88,95550,1,10,0:0:0:0:
230,120,95750,2,0,L|217:204,1,85,10|10,3:0|0:0,0:0:0:0:
294,292,96550,6,0,L|365:281,1,63.75,10|2,3:0|0:0,0:0:0:0:
436,271,97150,1,2,0:0:0:0:
480,264,97350,2,0,L|472:212,1,42.5,10|0,3:0|0:0,0:0:0:0:
467,177,97750,1,10,0:0:0:0:
415,104,98150,1,10,3:0:0:0:
336,145,98550,1,10,0:0:0:0:
277,77,98950,2,0,L|223:84,1,42.5,10|0,3:0|0:0,0:0:0:0:
190,88,99350,1,10,0:0:0:0:
102,105,99750,86,0,L|112:176,1,63.75,10|2,3:0|0:0,0:0:0:0:
123,247,100350,1,2,0:0:0:0:
130,291,100550,2,0,L|181:283,1,42.5,10|0,3:0|0:0,0:0:0:0:
217,278,100950,1,10,0:0:0:0:
290,226,101350,1,10,3:0:0:0:
249,147,101750,1,10,0:0:0:0:
317,88,102150,2,0,L|370:80,1,42.5,10|0,3:0|0:0,0:0:0:0:
403,77,102550,1,10,0:0:0:0:
488,52,102950,6,0,L|478:114,1,63.75,10|2,3:0|0:0,0:0:0:0:
463,195,103550,1,2,0:0:0:0:
418,201,103750,2,0,L|408:262,1,42.5,10|0,3:0|0:0,0:0:0:0:
406,287,104150,1,10,0:0:0:0:
435,371,104550,2,0,L|497:380,2,63.75,10|2|2,3:0|0:0|0:0,0:0:0:0:
391,379,105350,2,0,L|290:363,1,85,10|10,3:0|0:0,0:0:0:0:
267,285,106150,6,0,L|275:216,2,63.75,10|2|2,3:0|0:0|0:0,0:0:0:0:
232,313,106950,2,0,L|148:299,1,85,10|10,3:0|0:0,0:0:0:0:
60,316,107750,2,0,L|52:379,2,63.75,10|2|2,3:0|0:0|0:0,0:0:0:0:
38,276,108550,2,0,L|51:192,1,85,10|8,3:0|3:1,0:0:0:0:
67,104,109350,53,4,3:1:0:0:
256,192,109450,12,4,112550,3:2:0:0:
