osu file format v14

[General]
AudioFilename: audio.mp3
AudioLeadIn: 0
PreviewTime: 47939
Countdown: 0
SampleSet: Soft
StackLeniency: 0.7
Mode: 0
LetterboxInBreaks: 0
WidescreenStoryboard: 0

[Editor]
Bookmarks: 72745,99067,123841,136228,148615,161002,174937,199711,250807
DistanceSpacing: 1.5
BeatDivisor: 4
GridSize: 32
TimelineZoom: 2.999999

[Metadata]
Title:stella maris
TitleUnicode:stella maris
Artist:tsunamix
ArtistUnicode:tsunamix
Creator:Luscent
Version:lunatic
Source:東方Project
Tags:featured artist fa 葉月ゆら Hatsuki Yura Touhou Project 東方妖々夢 ~ Perfect Cherry Blossom. youyoumu ネクロファンタジア necrofantasia 東方萃夢想 ~ Immaterial and Missing Power. suimusou 夜が降りてくる ~ Evening Star Yoru ga Oritekuru Night Falls 八雲 紫 Yakumo Yukari japanese video game pop electronic AGGRESSIVE GENERATION BEAT CIRCLE
BeatmapID:4456142
BeatmapSetID:2120912

[Difficulty]
HPDrainRate:5
CircleSize:4
OverallDifficulty:8
ApproachRate:8
SliderMultiplier:1.7
SliderTickRate:1

[Events]
//Background and Video events
0,0,"bg.jpg",0,0
//Break Periods
2,124043,135478
2,251011,262444
//Storyboard Layer 0 (Background)
//Storyboard Layer 1 (Fail)
//Storyboard Layer 2 (Pass)
//Storyboard Layer 3 (Foreground)
//Storyboard Layer 4 (Overlay)
//Storyboard Sound Samples

[TimingPoints]
1521,387.096774193548,4,2,1,60,1,0
1521,-111.111111111111,4,2,1,60,0,0
26295,387.096774193548,6,2,1,50,1,0
26295,-200,6,2,1,50,0,0
46423,387.096774193548,4,2,1,50,1,0
47971,387.096774193548,4,1,1,80,1,0
72745,-100,4,2,1,60,0,0
84358,-83.3333333333333,4,2,1,80,0,0
85132,-100,4,2,1,70,0,0
99067,387.096774193548,4,2,1,80,1,0
120357,-133.333333333333,4,2,1,80,0,0
136228,-100,4,2,1,80,0,0
148615,-100,4,2,1,60,0,0
161002,-100,4,2,1,70,0,0
174937,387.096774193548,4,2,1,80,1,0
199711,-100,4,1,1,90,0,1
226033,387.096774193548,4,2,1,80,1,0
227581,-166.666666666667,4,2,1,60,0,0
238420,-100,4,2,1,80,0,0
263194,-100,4,1,1,80,0,0
275968,-100,4,2,1,100,0,0
276065,-100,4,2,1,60,0,0
278678,-100,4,2,1,30,0,0

[Colours]
Combo1 : 220,218,254
Combo2 : 166,204,247
Combo3 : 140,137,243

[HitObjects]
81,230,1521,6,0,B|150:181|236:210,1,153,4|2,2:0|2:0,2:0:0:0:
249,185,2682,1,2,2:0:0:0:
257,163,2779,1,2,2:0:0:0:
265,142,2875,1,0,2:0:0:0:
274,120,2972,1,2,2:0:0:0:
283,98,3069,1,2,2:0:0:0:
389,339,3456,1,2,2:0:0:0:
494,193,4230,5,2,2:0:0:0:
472,201,4327,1,2,2:0:0:0:
450,209,4424,1,0,2:0:0:0:
428,217,4520,1,2,2:0:0:0:
406,226,4617,2,0,B|436:143|394:67,1,153,2|0,2:0|2:0,2:0:0:0:
305,105,5198,1,2,2:0:0:0:
231,54,5391,1,0,2:0:0:0:
319,8,5585,1,2,2:0:0:0:
241,171,5779,5,0,2:0:0:0:
231,191,5875,1,2,2:0:0:0:
225,213,5972,1,0,2:0:0:0:
223,235,6069,1,2,2:0:0:0:
228,257,6166,2,0,B|195:216|148:209,1,76.5000000000001,0|0,2:0|2:0,2:0:0:0:
139,224,6456,1,2,2:0:0:0:
109,236,6553,2,0,B|85:246|51:249,3,38.25,2|0|0|0,2:0|2:0|2:0|2:0,2:0:0:0:
31,171,6940,2,0,B|9:148|14:120,3,38.25,0|2|0|2,2:0|2:0|2:0|2:0,2:0:0:0:
101,68,7327,1,2,2:0:0:0:
114,86,7424,1,2,2:0:0:0:
120,107,7520,1,2,2:0:0:0:
121,129,7617,1,0,2:0:0:0:
112,150,7714,1,6,2:0:0:0:
448,239,8875,5,0,2:0:0:0:
444,261,8972,1,2,2:0:0:0:
445,283,9069,1,0,2:0:0:0:
443,305,9166,1,2,2:0:0:0:
461,333,9262,5,2,2:0:0:0:
274,323,9456,1,2,2:0:0:0:
165,136,10037,2,0,B|194:127|219:128,3,38.25,0|2|2|0,2:0|2:0|2:0|2:0,2:0:0:0:
100,185,10424,2,0,B|71:194|46:193,3,38.25,0|2|2|0,2:0|2:0|2:0|2:0,2:0:0:0:
0,129,10811,5,2,2:0:0:0:
161,229,11585,1,0,2:0:0:0:
184,216,11682,1,0,2:0:0:0:
209,206,11779,1,2,2:0:0:0:
235,200,11875,1,2,2:0:0:0:
261,198,11972,1,0,2:0:0:0:
287,201,12069,1,2,2:0:0:0:
313,207,12166,1,2,2:0:0:0:
339,210,12262,1,2,2:0:0:0:
364,185,12359,6,0,L|352:125,1,38.25,0|0,1:0|1:0,2:0:0:0:
449,133,12553,2,0,L|437:73,1,38.25,0|0,1:0|1:0,2:0:0:0:
385,215,12746,6,0,L|373:155,1,38.25,0|0,1:0|1:0,2:0:0:0:
470,163,12940,2,0,L|458:103,1,38.25,0|0,1:0|1:0,2:0:0:0:
403,253,13133,6,0,L|391:193,1,38.25,0|0,1:0|1:0,2:0:0:0:
488,201,13327,2,0,L|476:141,1,38.25,0|0,1:0|1:0,2:0:0:0:
334,279,13520,5,0,1:0:0:0:
321,302,13617,1,0,1:0:0:0:
308,325,13714,1,0,1:0:0:0:
296,349,13811,1,0,1:0:0:0:
303,384,13908,5,0,1:0:0:0:
104,194,14295,1,2,1:2:0:0:
303,384,14682,1,0,1:0:0:0:
23,250,15069,1,0,1:0:0:0:
49,244,15166,1,2,2:0:0:0:
74,238,15262,1,2,2:0:0:0:
100,232,15359,1,0,2:0:0:0:
137,244,15456,5,0,1:0:0:0:
331,114,15843,1,2,1:2:0:0:
137,244,16230,1,0,1:0:0:0:
390,155,16617,1,0,1:0:0:0:
379,130,16714,1,2,2:0:0:0:
368,105,16811,1,2,2:0:0:0:
358,80,16908,1,0,2:0:0:0:
375,48,17004,5,0,1:2:0:0:
448,256,17391,1,0,1:0:0:0:
313,190,17585,1,2,2:0:0:0:
207,224,17779,1,0,1:0:0:0:
99,122,17972,1,2,2:0:0:0:
42,246,18166,1,0,1:0:0:0:
52,270,18262,1,2,2:0:0:0:
62,294,18359,1,2,2:0:0:0:
72,318,18456,1,0,2:0:0:0:
59,353,18553,5,2,1:2:0:0:
230,294,18746,1,2,2:0:0:0:
254,306,18843,1,2,2:0:0:0:
277,333,18940,5,0,1:0:0:0:
302,323,19037,1,2,2:0:0:0:
327,314,19133,1,2,2:0:0:0:
352,304,19230,1,2,2:0:0:0:
377,294,19327,2,2,L|391:234,3,38.25,0|2|0|0,1:0|2:0|2:0|2:0,2:0:0:0:
461,216,19714,2,0,L|475:156,3,38.25,2|2|0|2,1:2|2:0|2:0|2:0,2:0:0:0:
512,335,20101,5,0,1:0:0:0:
274,236,20488,1,0,1:0:0:0:
512,335,20875,1,0,1:0:0:0:
249,285,21262,1,0,1:0:0:0:
243,256,21359,1,2,2:0:0:0:
237,227,21456,1,0,2:0:0:0:
231,198,21553,1,2,2:0:0:0:
207,172,21650,5,2,1:2:0:0:
178,359,21843,1,2,0:2:0:0:
344,274,22037,1,0,1:0:0:0:
433,247,22230,1,2,2:0:0:0:
422,229,22327,1,2,2:0:0:0:
390,211,22424,5,0,1:0:0:0:
400,186,22520,1,2,2:0:0:0:
411,161,22617,1,0,2:0:0:0:
422,136,22714,1,2,2:0:0:0:
453,114,22811,1,0,1:2:0:0:
444,88,22908,1,0,2:0:0:0:
435,62,23004,1,2,2:0:0:0:
427,36,23101,1,0,2:0:0:0:
399,13,23198,6,0,B|357:29|314:15,1,76.5000000000001,0|0,1:0|1:0,2:0:0:0:
154,119,23585,2,0,B|196:101|239:106,1,76.5000000000001,0|0,1:2|1:0,2:0:0:0:
386,212,23972,2,0,B|342:223|303:202,1,76.5000000000001,0|0,1:0|1:0,2:0:0:0:
117,258,24359,2,0,B|184:282|188:352,1,114.75,0|0,1:0|2:0,2:0:0:0:
269,352,24746,5,2,1:2:0:0:
209,222,24940,1,2,1:2:0:0:
290,125,25133,1,0,1:0:0:0:
317,138,25230,1,2,1:2:0:0:
347,140,25327,1,2,1:2:0:0:
376,131,25424,1,2,1:2:0:0:
400,164,25520,5,0,1:0:0:0:
421,155,25617,1,2,1:2:0:0:
443,150,25714,1,2,1:2:0:0:
465,153,25811,1,2,1:2:0:0:
501,137,25908,6,2,B|493:106|503:75,3,38.25,2|2|2|2,1:2|1:2|1:2|1:2,1:2:0:0:
500,177,26295,6,0,B|537:254|497:359,1,170,6|0,1:2|2:0,2:0:0:0:
328,256,27456,2,0,B|288:279|238:262,2,85,2|0|2,2:0|2:0|2:0,2:0:0:0:
78,293,28617,2,0,B|18:211|65:127,1,170,2|2,2:0|2:0,2:0:0:0:
221,149,29778,1,2,2:0:0:0:
389,165,30165,1,0,2:0:0:0:
459,89,30359,1,2,2:0:0:0:
402,13,30553,1,2,2:0:0:0:
512,203,30940,6,0,B|528:297|432:349,1,170,2|0,2:0|2:0,2:0:0:0:
396,327,31907,1,0,2:0:0:0:
352,311,32101,1,2,2:0:0:0:
306,320,32294,1,0,2:0:0:0:
268,292,32488,2,0,B|229:318|180:314,1,85,0|2,2:0|2:0,2:0:0:0:
144,296,33069,1,0,2:0:0:0:
107,288,33262,1,2,2:0:0:0:
107,288,33456,1,0,2:0:0:0:
107,288,33649,1,2,2:0:0:0:
279,185,34036,1,2,2:0:0:0:
155,55,34424,1,2,2:0:0:0:
136,304,35585,6,0,B|222:320|204:280|307:294,1,170,2|0,2:0|2:0,2:0:0:0:
413,225,36746,2,0,B|392:173|410:124,2,85,2|0|2,2:0|2:0|2:0,2:0:0:0:
240,113,37907,2,0,B|281:25|380:50,1,170,2|0,2:0|2:0,2:0:0:0:
287,242,39069,5,2,2:0:0:0:
149,173,39456,1,0,2:0:0:0:
104,159,39649,1,2,2:0:0:0:
59,144,39843,2,0,B|32:99|53:32,1,85,0|2,2:0|2:0,2:0:0:0:
125,281,41198,6,0,B|96:291|64:292,2,42.5,0|2|0,2:0|2:0|2:0,2:0:0:0:
194,231,41778,2,0,B|204:194|199:160,1,42.5,0|2,2:0|2:0,2:0:0:0:
284,184,42165,2,0,B|290:216|319:244,1,42.5,2|0,2:0|2:0,2:0:0:0:
366,255,42553,1,0,2:0:0:0:
403,227,42746,1,2,2:0:0:0:
449,227,42940,2,0,B|509:160|482:64,1,170,0|2,2:0|2:0,2:0:0:0:
256,192,43907,12,4,46423,1:2:0:0:
186,321,47971,6,2,B|145:259|173:170,1,127.5,6|0,0:0|2:0,0:0:0:0:
143,170,48358,2,0,L|243:153,1,85,10|0,0:0|0:0,0:0:0:0:
342,177,48745,2,0,B|363:131|348:77,1,85,2|0,0:0|0:0,0:0:0:0:
439,297,49132,1,8,0:0:0:0:
512,132,49325,6,0,L|412:152,1,85,2|0,0:0|0:0,0:0:0:0:
263,211,49712,1,0,0:0:0:0:
232,187,49809,1,0,0:0:0:0:
210,155,49906,1,8,0:0:0:0:
201,118,50003,1,0,0:0:0:0:
211,81,50100,1,0,0:0:0:0:
181,279,50293,2,0,B|168:323|121:348,1,85,0|8,0:0|0:0,0:0:0:0:
128,343,50583,1,0,1:0:0:0:
128,343,50680,1,8,0:0:0:0:
21,165,50874,6,2,L|184:145,1,127.5,6|0,0:0|2:0,0:0:0:0:
174,123,51261,2,0,B|197:70|173:15,1,85,0|10,0:0|0:0,0:0:0:0:
303,253,51648,1,0,0:0:0:0:
371,83,51841,2,0,B|321:108|318:165,1,85,2|0,0:0|0:0,0:0:0:0:
230,198,52229,1,10,0:0:0:0:
70,277,52422,2,0,B|114:297|164:272,1,85,2|0,0:0|0:0,0:0:0:0:
285,349,52809,1,2,0:0:0:0:
484,272,53003,6,2,B|473:188|483:99,2,170,10|2|10,0:0|0:0|0:0,0:0:0:0:
129,183,53970,6,2,L|285:164,1,127.5,6|0,0:0|2:0,0:0:0:0:
287,189,54358,1,2,0:0:0:0:
402,109,54551,1,10,0:0:0:0:
300,33,54745,1,0,0:0:0:0:
424,134,54938,2,0,B|402:176|418:240,1,85,2|0,0:0|0:0,0:0:0:0:
481,293,55325,1,10,0:0:0:0:
229,356,55519,6,2,B|276:297|245:218,1,127.5,6|0,0:0|2:0,0:0:0:0:
223,210,55906,1,2,0:0:0:0:
116,281,56100,1,10,0:0:0:0:
0,230,56293,1,0,0:0:0:0:
108,314,56487,1,2,0:0:0:0:
91,182,56680,2,0,B|59:144|77:87,1,85,0|10,0:0|0:0,0:0:0:0:
270,33,57067,6,2,B|317:101|276:198,1,170,6|2,0:0|0:0,0:0:0:0:
277,195,57648,1,10,0:0:0:0:
277,195,58035,1,2,0:0:0:0:
277,195,58422,1,10,0:0:0:0:
327,337,58616,1,2,0:0:0:0:
361,158,58809,5,0,0:0:0:0:
171,215,59003,1,0,0:0:0:0:
141,190,59100,1,0,0:0:0:0:
126,153,59196,1,8,0:0:0:0:
126,115,59293,1,0,0:0:0:0:
142,80,59390,1,0,0:0:0:0:
10,231,59583,1,0,0:0:0:0:
40,254,59680,1,0,0:0:0:0:
59,286,59777,1,0,0:0:0:0:
67,322,59874,1,0,0:0:0:0:
60,359,59970,2,0,L|110:337,1,42.5,8|0,0:0|0:0,0:0:0:0:
303,283,60164,5,8,0:0:0:0:
303,283,60261,1,8,0:0:0:0:
303,283,60358,2,2,B|258:301|204:289,1,85,4|0,0:0|0:0,0:0:0:0:
438,187,60745,2,0,B|472:223|471:283,1,85,10|0,0:0|0:0,0:0:0:0:
278,174,61132,2,2,B|229:119|260:41,1,127.5,2|0,0:0|2:0,0:0:0:0:
225,28,61519,1,8,0:0:0:0:
190,235,61712,1,2,0:0:0:0:
123,81,61906,6,0,B|77:92|27:83,1,85,0|0,0:0|0:0,0:0:0:0:
38,84,62196,1,0,0:0:0:0:
38,84,62293,1,8,0:0:0:0:
171,181,62487,1,0,0:0:0:0:
47,263,62680,1,0,0:0:0:0:
47,263,62777,1,0,0:0:0:0:
47,263,62874,1,0,0:0:0:0:
135,328,63067,1,8,0:0:0:0:
339,240,63261,6,0,B|321:194|337:141,1,85,6|0,0:0|0:0,0:0:0:0:
252,90,63648,1,0,0:0:0:0:
274,320,63841,2,2,B|333:250|433:267,1,170,10|2,0:0|0:0,0:0:0:0:
512,174,64422,1,2,0:0:0:0:
512,346,64616,1,8,0:0:0:0:
512,174,64809,6,0,B|469:187|419:177,1,85,2|4,0:0|0:0,0:0:0:0:
294,212,65196,1,0,0:0:0:0:
211,102,65390,1,14,0:0:0:0:
174,305,65583,1,0,0:0:0:0:
312,239,65777,2,0,B|354:256|406:244,2,85,4|10|8,0:0|0:0|0:0,0:0:0:0:
3,175,66358,6,2,B|86:165|131:223,1,127.5,6|0,0:0|2:0,0:0:0:0:
142,182,66745,1,2,0:0:0:0:
269,370,66938,2,2,B|213:309|241:213,1,127.5,10|0,0:0|2:0,0:0:0:0:
257,221,67325,1,2,0:0:0:0:
397,287,67519,2,0,B|378:243|386:194,1,85,2|8,0:0|0:0,0:0:0:0:
512,360,67906,6,2,B|523:266|487:193,1,170,6|2,0:0|0:0,0:0:0:0:
380,102,68487,2,0,B|327:157|252:125,1,127.5,10|0,0:0|2:0,0:0:0:0:
232,156,68874,1,2,0:0:0:0:
18,100,69067,2,0,L|112:85,1,85,10|0,0:0|0:0,0:0:0:0:
173,0,69454,1,10,0:0:0:0:
128,209,69648,5,0,0:0:0:0:
214,144,69841,1,0,0:0:0:0:
249,128,69938,1,0,0:0:0:0:
286,122,70035,1,8,0:0:0:0:
323,124,70132,1,0,0:0:0:0:
360,130,70229,1,0,0:0:0:0:
327,30,70422,1,0,0:0:0:0:
481,103,70616,1,0,0:0:0:0:
461,136,70712,1,0,0:0:0:0:
453,173,70809,1,8,0:0:0:0:
457,211,70906,1,0,0:0:0:0:
476,243,71003,1,0,0:0:0:0:
366,318,71196,5,0,0:0:0:0:
330,332,71293,1,0,0:0:0:0:
292,334,71390,1,0,0:0:0:0:
254,324,71487,1,0,0:0:0:0:
219,308,71583,1,8,0:0:0:0:
183,294,71680,1,0,0:0:0:0:
145,288,71777,1,0,0:0:0:0:
108,296,71874,1,0,0:0:0:0:
77,319,71970,5,0,0:0:0:0:
63,297,72067,1,8,0:0:0:0:
56,272,72164,1,0,0:0:0:0:
56,246,72261,1,0,0:0:0:0:
64,221,72358,1,8,0:0:0:0:
75,198,72454,1,8,0:0:0:0:
81,173,72551,1,8,0:0:0:0:
82,147,72648,1,8,0:0:0:0:
75,122,72745,6,0,B|119:136|161:124,1,85,4|2,1:2|2:0,2:0:0:0:
249,183,73132,1,0,3:0:0:0:
382,50,73325,1,2,1:2:0:0:
382,50,73712,1,0,1:0:0:0:
485,79,73906,1,2,3:2:0:0:
382,50,74100,2,0,B|362:95|379:150,1,85,0|0,1:0|3:0,2:0:0:0:
462,204,74487,1,0,1:0:0:0:
340,271,74680,1,2,3:2:0:0:
479,315,74874,1,0,1:0:0:0:
479,315,75261,1,2,3:2:0:0:
241,366,75454,1,0,1:0:0:0:
241,366,75841,6,0,B|227:310|243:262,2,85,0|2|0,3:0|2:0|1:0,2:0:0:0:
89,282,76422,2,0,B|151:232|130:151,1,127.5,0|0,2:0|2:0,2:0:0:0:
163,140,76809,1,2,3:2:0:0:
53,66,77003,1,0,1:0:0:0:
114,0,77196,2,0,B|161:-8|222:4,1,85,0|0,2:0|3:0,2:0:0:0:
343,35,77583,5,0,2:0:0:0:
270,155,77777,1,0,1:0:0:0:
143,114,77970,1,2,2:0:0:0:
369,50,78164,2,0,B|424:113|387:218,1,170,0|0,3:2|1:2,2:0:0:0:
320,366,78938,5,0,3:0:0:0:
230,295,79132,1,2,2:0:0:0:
117,321,79325,1,0,1:0:0:0:
117,321,79519,2,0,B|90:270|99:224,1,85,2|0,2:0|3:0,2:0:0:0:
165,94,79906,1,2,2:0:0:0:
6,126,80100,1,0,1:0:0:0:
165,94,80293,2,0,B|192:145|183:191,1,85,0|0,2:0|3:2,2:0:0:0:
183,264,80680,5,2,2:0:0:0:
329,223,80874,2,0,B|346:177|329:128,1,85,0|0,1:0|2:0,2:0:0:0:
498,189,81261,2,0,B|465:261|502:366,1,170,2|0,3:2|1:0,2:0:0:0:
498,355,82035,6,0,L|399:376,1,85,0|0,3:0|2:0,2:0:0:0:
342,308,82422,1,0,1:0:0:0:
173,207,82616,2,0,B|227:243|222:326,1,127.5,0|0,2:0|2:0,2:0:0:0:
203,345,83003,1,0,2:0:0:0:
329,214,83196,1,0,1:0:0:0:
235,113,83390,1,0,2:0:0:0:
303,43,83583,6,0,P|347:50|415:46,1,85,0|0,1:0|1:0,2:0:0:0:
497,23,83970,1,0,1:0:0:0:
446,190,84164,1,0,1:0:0:0:
296,234,84358,2,0,B|224:180|137:206,1,153,4|0,1:2|1:0,2:0:0:0:
151,202,84938,1,0,1:0:0:0:
17,247,85132,6,0,B|-10:201|8:150,1,85,6|0,1:2|2:0,2:0:0:0:
69,99,85519,1,2,1:2:0:0:
227,279,85712,2,0,B|180:293|124:281,1,85,2|0,2:0|2:0,2:0:0:0:
75,357,86100,1,2,2:0:0:0:
340,303,86293,2,0,B|315:243|339:160,1,127.5,0|0,1:0|2:0,2:0:0:0:
313,148,86680,5,2,3:2:0:0:
470,47,86874,2,0,B|486:96|475:149,1,85,0|0,3:0|1:0,2:0:0:0:
442,312,87261,1,2,2:0:0:0:
223,236,87454,2,0,B|268:217|306:226,1,85,0|2,3:0|2:0,2:0:0:0:
400,181,87841,1,0,1:0:0:0:
85,97,88035,5,2,2:0:0:0:
85,97,88132,1,0,2:0:0:0:
85,97,88229,2,0,B|145:156|114:261,1,170,4|0,1:2|1:0,2:0:0:0:
29,310,88809,1,0,3:0:0:0:
29,310,89196,1,0,3:0:0:0:
230,361,89390,2,0,B|197:295|220:229,1,127.5,4|0,1:2|2:0,2:0:0:0:
190,207,89777,6,0,L|289:192,1,85,0|0,3:0|1:0,2:0:0:0:
382,242,90164,1,0,1:0:0:0:
172,186,90358,1,2,2:0:0:0:
172,186,90454,1,2,1:2:0:0:
172,186,90551,2,0,L|73:201,1,85,0|2,3:0|1:2,2:0:0:0:
9,144,90938,1,0,1:0:0:0:
43,288,91132,1,0,2:0:0:0:
260,234,91325,6,0,B|279:178|264:128,1,85,6|0,1:2|2:0,2:0:0:0:
268,150,91616,1,0,2:0:0:0:
268,150,91712,1,2,1:2:0:0:
327,339,91906,1,2,3:2:0:0:
360,201,92100,1,0,3:0:0:0:
202,59,92293,1,2,2:0:0:0:
202,59,92390,1,0,2:0:0:0:
202,59,92487,2,0,B|248:70|296:55,1,85,2|0,1:2|2:0,2:0:0:0:
382,17,92874,5,6,3:2:0:0:
182,157,93067,2,0,B|144:132|65:145,1,85,0|2,3:0|1:2,2:0:0:0:
247,273,93454,1,2,2:0:0:0:
247,273,93551,1,0,2:0:0:0:
247,273,93648,2,0,L|340:259,1,85,0|2,3:0|2:0,2:0:0:0:
464,328,94035,1,2,1:2:0:0:
447,92,94229,5,0,2:0:0:0:
447,92,94325,1,0,2:0:0:0:
447,92,94422,2,0,B|392:144|410:219,1,127.5,4|0,3:2|2:0,2:0:0:0:
437,235,94809,1,0,1:0:0:0:
207,169,95003,1,0,2:0:0:0:
207,169,95100,1,0,2:0:0:0:
207,169,95196,2,0,B|179:121|191:72,1,85,0|2,3:0|2:0,2:0:0:0:
32,51,95583,1,0,1:2:0:0:
101,166,95777,1,0,2:0:0:0:
39,279,95970,5,6,1:2:0:0:
50,292,96551,5,6,1:2:0:0:
62,309,97132,5,6,1:2:0:0:
256,192,97519,12,4,98680,1:0:0:0:
18,239,99067,6,0,B|58:220|105:222,1,85,6|0,1:2|2:0,2:0:0:0:
216,249,99454,2,0,B|177:188|197:121,1,127.5,10|0,1:2|2:0,2:0:0:0:
163,97,99841,1,2,1:2:0:0:
159,325,100034,1,0,2:0:0:0:
315,225,100228,2,0,B|355:243|405:233,1,85,8|2,1:2|2:0,2:0:0:0:
423,217,100518,1,0,2:0:0:0:
448,201,100615,6,0,L|434:302,1,85,0|0,1:0|2:0,2:0:0:0:
356,150,101002,1,8,1:2:0:0:
334,118,101099,1,0,3:0:0:0:
328,80,101196,1,2,3:2:0:0:
337,42,101292,1,0,1:2:0:0:
358,10,101389,1,0,1:2:0:0:
228,124,101583,2,0,B|185:152|132:134,1,85,10|0,3:2|1:2,2:0:0:0:
78,93,101970,6,0,B|135:151|114:242,1,127.5,10|0,1:2|2:0,2:0:0:0:
99,240,102357,1,0,2:0:0:0:
204,355,102550,1,10,1:2:0:0:
191,155,102744,1,0,2:0:0:0:
0,293,102937,2,0,B|37:273|91:275,1,85,2|0,1:2|2:0,2:0:0:0:
319,277,103325,5,10,1:2:0:0:
319,277,103518,2,0,B|374:195|326:97,1,170,10|2,2:0|2:0,2:0:0:0:
245,40,104099,1,8,1:2:0:0:
161,144,104292,1,0,2:0:0:0:
265,216,104486,1,2,1:2:0:0:
483,152,104679,2,0,B|474:109|481:41,1,85,10|8,2:0|1:2,2:0:0:0:
456,182,105067,6,0,B|482:245|453:330,1,127.5,4|0,1:2|2:0,2:0:0:0:
482,340,105454,1,0,2:0:0:0:
341,278,105647,1,10,1:2:0:0:
172,266,105841,2,0,B|208:230|210:170,1,85,0|0,2:0|1:2,2:0:0:0:
131,91,106228,1,10,2:0:0:0:
172,266,106421,1,8,1:2:0:0:
183,35,106615,6,0,B|124:82|47:62,1,127.5,6|0,1:2|2:0,2:0:0:0:
30,41,107002,1,0,1:0:0:0:
118,172,107196,1,10,1:2:0:0:
18,288,107389,2,0,B|57:270|105:273,1,85,0|0,2:0|3:2,2:0:0:0:
222,336,107776,1,10,2:0:0:0:
426,173,107970,5,8,1:2:0:0:
426,173,108066,1,0,2:0:0:0:
426,173,108163,2,0,B|338:204|260:134,1,170,4|0,1:2|2:0,2:0:0:0:
100,201,108744,2,0,B|139:174|180:175,1,85,10|0,1:2|2:0,2:0:0:0:
254,232,109131,1,2,1:2:0:0:
188,13,109325,2,0,B|211:56|185:99,1,85,2|8,1:2|1:2,2:0:0:0:
42,279,109712,5,2,3:2:0:0:
42,279,109808,1,2,3:2:0:0:
42,279,109905,1,0,1:2:0:0:
221,219,110099,1,0,1:2:0:0:
81,155,110292,1,8,1:2:0:0:
196,310,110486,1,8,1:2:0:0:
360,266,110679,1,0,1:2:0:0:
385,237,110776,1,8,1:2:0:0:
397,201,110873,1,0,1:2:0:0:
403,163,110970,1,0,1:2:0:0:
395,125,111066,1,8,1:2:0:0:
378,90,111163,1,8,1:2:0:0:
353,61,111260,1,8,1:2:0:0:
353,61,111357,1,8,1:2:0:0:
370,23,111454,6,0,B|415:36|463:19,1,85,6|0,1:2|2:0,2:0:0:0:
275,171,111841,2,0,B|217:134|140:153,1,127.5,10|0,1:2|2:0,2:0:0:0:
118,168,112228,2,0,B|93:117|103:57,1,85,2|0,1:2|2:0,2:0:0:0:
100,85,112518,1,0,2:0:0:0:
100,85,112615,1,8,1:2:0:0:
36,266,112808,1,2,2:0:0:0:
194,223,113002,5,0,1:0:0:0:
397,254,113196,1,0,2:0:0:0:
397,254,113292,1,2,2:0:0:0:
397,254,113389,2,0,B|370:207|382:158,1,85,8|2,1:2|2:0,2:0:0:0:
462,107,113776,1,0,1:0:0:0:
333,327,113970,1,8,2:0:0:0:
333,327,114066,1,2,2:0:0:0:
333,327,114163,2,0,B|287:303|221:310,1,85,8|2,1:2|2:0,2:0:0:0:
221,319,114454,1,0,2:0:0:0:
188,330,114550,6,0,B|158:291|166:236,1,85,0|0,1:0|2:0,2:0:0:0:
269,36,114937,2,0,B|318:88|281:188,1,127.5,10|0,1:2|2:0,2:0:0:0:
265,180,115325,1,2,1:2:0:0:
53,109,115518,5,0,2:0:0:0:
53,109,115615,1,0,2:0:0:0:
53,109,115712,2,0,B|94:92|153:98,1,85,10|2,1:2|2:0,2:0:0:0:
104,272,116099,2,0,B|70:234|85:172,1,85,0|0,1:0|2:0,2:0:0:0:
199,322,116486,2,0,B|134:382|31:358,1,170,10|0,1:2|1:2,2:0:0:0:
284,264,117066,2,0,B|312:302|297:371,1,85,2|8,1:2|1:2,2:0:0:0:
216,156,117454,5,10,1:2:0:0:
216,156,117550,1,0,2:0:0:0:
216,156,117647,2,2,L|237:53,1,85,6|2,1:2|2:0,2:0:0:0:
238,42,117937,1,2,0:0:0:0:
248,14,118034,2,0,B|287:34|348:17,1,85,8|0,1:2|2:0,2:0:0:0:
377,125,118421,1,0,1:0:0:0:
485,76,118615,1,10,2:0:0:0:
485,76,118712,1,0,2:0:0:0:
485,76,118808,1,8,1:2:0:0:
448,232,119002,5,0,2:0:0:0:
294,184,119196,1,4,1:2:0:0:
166,245,119389,1,2,2:0:0:0:
166,245,119486,1,2,2:0:0:0:
166,245,119583,1,8,1:2:0:0:
58,203,119776,1,0,2:0:0:0:
98,334,119970,5,0,1:0:0:0:
274,253,120163,1,10,2:0:0:0:
147,96,120357,2,0,B|119:159|150:231,1,127.5,8|4,1:2|1:2,2:0:0:0:
256,192,120841,12,4,123841,1:2:0:0:
134,245,136228,6,0,B|198:222|273:241,1,127.5,4|0,1:2|2:0,2:0:0:0:
279,215,136615,2,0,B|262:165|278:105,1,85,10|0,1:2|2:0,2:0:0:0:
436,40,137002,2,0,B|477:98|442:177,1,127.5,2|0,1:2|2:0,2:0:0:0:
421,183,137389,1,10,1:2:0:0:
502,337,137583,1,2,2:0:0:0:
266,255,137776,6,0,B|307:240|363:254,1,85,0|2,1:0|2:0,2:0:0:0:
349,251,138066,1,2,2:0:0:0:
349,251,138163,1,8,1:2:0:0:
205,357,138357,1,2,2:0:0:0:
98,273,138550,1,0,1:2:0:0:
178,204,138744,2,0,B|204:159|192:116,1,85,8|8,1:2|1:2,2:0:0:0:
22,19,139131,6,0,B|-10:81|34:156,1,127.5,2|0,1:2|2:0,2:0:0:0:
10,171,139518,2,0,B|54:153|106:162,2,85,0|10|0,1:0|1:2|2:0,2:0:0:0:
183,97,140099,1,2,1:2:0:0:
264,233,140292,1,2,1:2:0:0:
291,31,140486,1,8,1:2:0:0:
389,277,140679,5,0,1:0:0:0:
389,277,140873,2,0,B|351:230|377:159,1,85,6|0,1:2|2:0,2:0:0:0:
491,70,141260,2,0,B|529:117|503:188,1,85,14|0,1:2|2:0,2:0:0:0:
463,328,141647,1,6,1:2:0:0:
204,261,141841,2,0,B|254:266|301:250,1,85,10|8,2:0|1:2,2:0:0:0:
316,268,142131,1,0,2:0:0:0:
354,286,142228,6,0,B|318:198|346:112,1,170,12|8,1:2|1:0,2:0:0:0:
477,81,142808,1,8,1:2:0:0:
233,27,143002,1,0,2:0:0:0:
233,27,143099,1,0,2:0:0:0:
233,27,143196,2,0,B|219:68|233:129,1,85,0|8,1:0|1:2,2:0:0:0:
90,155,143583,1,0,1:0:0:0:
265,249,143776,1,0,1:0:0:0:
296,237,143873,1,0,2:0:0:0:
328,226,143970,6,0,B|312:174|327:124,1,85,4|0,1:2|2:0,2:0:0:0:
475,105,144357,2,0,B|511:179|477:276,1,170,8|2,1:2|1:2,2:0:0:0:
370,314,144937,2,0,L|278:296,1,85,0|10,1:0|1:2,2:0:0:0:
189,366,145325,1,2,1:2:0:0:
14,295,145518,5,0,1:0:0:0:
124,224,145712,1,0,1:0:0:0:
141,189,145808,1,0,3:0:0:0:
145,150,145905,1,8,1:0:0:0:
139,112,146002,1,0,3:0:0:0:
116,80,146099,1,0,1:0:0:0:
272,174,146292,1,0,1:0:0:0:
306,157,146389,1,0,3:0:0:0:
330,127,146486,1,0,1:0:0:0:
345,91,146583,1,0,3:0:0:0:
346,52,146679,1,8,1:0:0:0:
422,194,146873,1,8,1:0:0:0:
439,228,146970,1,0,3:0:0:0:
470,249,147066,6,0,L|522:241,3,42.5,0|0|0|0,1:0|3:0|1:0|3:0,3:0:0:0:
392,313,147454,2,0,L|349:319,3,42.5,8|0|0|0,1:0|3:0|1:0|3:0,3:0:0:0:
260,363,147841,1,0,1:0:0:0:
232,330,147937,1,8,1:0:0:0:
222,288,148034,1,0,1:0:0:0:
231,246,148131,1,0,1:0:0:0:
254,210,148228,1,8,1:0:0:0:
279,175,148325,1,8,1:0:0:0:
285,132,148421,1,8,1:0:0:0:
274,91,148518,1,8,1:0:0:0:
243,61,148615,6,0,B|199:83|129:66,1,85,6|0,1:2|2:0,2:0:0:0:
20,25,149002,1,2,3:2:0:0:
82,148,149196,1,0,1:0:0:0:
82,148,149583,1,0,1:0:0:0:
185,211,149776,1,2,3:2:0:0:
82,148,149970,2,0,B|65:199|77:245,1,85,0|0,1:0|3:0,2:0:0:0:
9,325,150357,1,0,2:0:0:0:
147,296,150550,1,2,1:2:0:0:
267,363,150744,1,0,1:0:0:0:
267,363,151131,1,0,1:0:0:0:
412,310,151325,2,0,B|400:259|415:198,1,85,2|0,3:2|2:0,2:0:0:0:
289,138,151712,6,0,B|330:154|372:141,2,85,0|2|0,3:0|2:2|1:0,2:0:0:0:
230,50,152292,2,0,B|179:104|106:89,1,127.5,2|0,2:0|2:0,2:0:0:0:
90,121,152679,1,0,2:0:0:0:
203,253,152873,2,0,B|175:207|194:150,1,85,0|2,1:0|2:0,2:0:0:0:
307,291,153260,5,0,3:0:0:0:
142,342,153454,1,2,2:0:0:0:
307,291,153647,2,0,B|356:313|410:299,1,85,0|2,1:0|2:0,2:0:0:0:
498,360,154034,2,0,B|453:287|485:190,1,170,2|0,3:2|1:0,2:0:0:0:
483,196,154808,5,2,3:2:0:0:
394,147,155002,1,0,2:0:0:0:
304,92,155196,1,2,1:2:0:0:
126,234,155389,2,0,B|201:179|296:202,1,170,2|2,2:0|2:0,2:0:0:0:
381,259,155970,1,0,1:0:0:0:
502,169,156163,6,0,B|472:109|489:38,1,127.5,2|0,2:0|2:0,2:0:0:0:
469,9,156550,1,2,2:0:0:0:
371,149,156744,1,2,1:2:0:0:
270,78,156937,1,0,2:0:0:0:
172,109,157131,2,0,B|130:74|138:31,2,85,2|0|0,3:2|2:0|1:0,2:0:0:0:
46,266,157905,6,0,L|139:250,1,85,0|2,3:0|2:0,2:0:0:0:
222,315,158292,1,0,1:0:0:0:
270,100,158486,2,0,B|218:153|243:228,1,127.5,2|0,2:0|2:0,2:0:0:0:
214,239,158873,1,2,2:0:0:0:
340,314,159066,1,0,1:0:0:0:
462,252,159260,1,0,2:0:0:0:
332,165,159454,5,0,1:0:0:0:
354,177,159647,1,0,1:0:0:0:
434,268,159841,5,0,1:0:0:0:
412,280,160034,1,0,1:0:0:0:
257,368,160228,6,0,B|278:300|251:227,1,127.5,4|0,1:2|1:0,2:0:0:0:
256,242,160808,1,0,1:0:0:0:
70,58,161002,6,0,B|54:103|71:156,1,85,6|0,1:2|2:0,2:0:0:0:
0,212,161389,1,2,1:2:0:0:
189,134,161583,2,0,B|234:148|293:130,1,85,2|0,2:2|3:0,2:0:0:0:
354,185,161970,1,2,2:0:0:0:
497,81,162163,2,0,B|473:140|491:219,1,127.5,0|0,1:0|2:0,2:0:0:0:
466,240,162550,5,2,3:2:0:0:
379,335,162744,1,0,2:0:0:0:
251,269,162937,1,2,1:2:0:0:
168,338,163131,1,2,3:2:0:0:
168,338,163228,1,0,3:0:0:0:
168,338,163325,1,0,3:0:0:0:
348,254,163518,1,2,2:2:0:0:
204,185,163712,1,2,1:2:0:0:
204,185,164099,6,0,B|155:122|181:49,1,127.5,6|0,1:2|2:0,2:0:0:0:
150,36,164486,1,0,1:0:0:0:
50,198,164679,2,0,B|63:271|-5:323,1,127.5,6|0,1:2|2:0,2:0:0:0:
27,344,165066,1,0,1:0:0:0:
189,274,165260,2,0,B|279:310|355:267,1,170,6|0,1:2|1:0,2:0:0:0:
484,303,165841,2,0,L|459:213,1,85,0|0,1:0|1:0,2:0:0:0:
353,91,166228,1,0,3:0:0:0:
353,91,166325,1,0,3:0:0:0:
353,91,166421,2,0,B|378:131|359:179,1,85,0|0,1:0|2:0,2:0:0:0:
128,187,166808,1,0,1:0:0:0:
128,187,167196,6,0,B|70:160|64:72|118:42,1,170,2|0,3:2|1:2,2:0:0:0:
270,61,167776,1,2,2:0:0:0:
256,172,167970,1,0,3:0:0:0:
170,111,168163,1,0,2:0:0:0:
236,260,168357,1,2,1:2:0:0:
361,197,168550,5,0,1:0:0:0:
361,197,168647,1,0,3:0:0:0:
361,197,168744,2,0,B|405:212|461:202,1,85,2|0,3:2|2:0,2:0:0:0:
500,279,169131,1,0,1:0:0:0:
424,124,169325,1,2,3:2:0:0:
424,124,169421,1,0,3:0:0:0:
424,124,169518,1,0,3:0:0:0:
287,208,169712,1,0,1:0:0:0:
298,68,169905,1,2,1:2:0:0:
287,208,170099,1,0,1:0:0:0:
169,142,170292,6,0,B|147:97|163:39,1,85,2|0,3:2|2:0,2:0:0:0:
30,294,170679,2,0,B|74:273|129:280,1,85,0|2,1:0|2:2,2:0:0:0:
250,348,171066,1,0,3:0:0:0:
317,251,171260,1,0,1:0:0:0:
317,251,171357,1,0,3:0:0:0:
317,251,171454,1,2,1:2:0:0:
359,140,171647,1,0,1:0:0:0:
397,314,171841,5,4,1:2:0:0:
394,338,172421,5,4,1:2:0:0:
391,364,173002,5,4,1:2:0:0:
256,192,173389,12,4,174550,1:0:0:0:
132,241,174937,6,0,B|192:201|170:126,1,127.5,4|0,1:2|2:0,2:0:0:0:
197,96,175324,1,10,1:2:0:0:
324,200,175517,1,0,2:0:0:0:
264,344,175711,2,0,B|232:307|244:263,1,85,2|0,1:2|2:0,2:0:0:0:
399,281,176098,2,0,L|483:291,1,85,8|2,1:2|2:0,2:0:0:0:
498,156,176485,5,0,1:0:0:0:
374,39,176678,1,0,2:0:0:0:
374,39,176775,1,2,2:0:0:0:
374,39,176872,2,0,B|347:78|359:128,1,85,8|2,1:2|2:0,2:0:0:0:
334,140,177162,1,2,2:0:0:0:
310,165,177259,2,0,L|223:179,1,85,2|0,1:2|1:0,2:0:0:0:
137,124,177646,1,8,1:2:0:0:
22,351,177840,6,0,B|85:307|67:221,1,127.5,2|0,1:2|2:0,2:0:0:0:
42,215,178227,1,0,1:0:0:0:
201,384,178420,2,0,L|163:300,1,85,10|0,1:2|2:0,2:0:0:0:
352,272,178807,2,0,B|319:312|258:305,1,85,2|0,1:2|2:0,2:0:0:0:
190,220,179195,1,10,1:2:0:0:
334,83,179388,5,2,2:0:0:0:
334,83,179485,1,0,2:0:0:0:
334,83,179582,1,0,1:0:0:0:
313,199,179775,1,0,2:0:0:0:
212,129,179969,1,10,1:2:0:0:
313,199,180162,1,0,2:0:0:0:
184,258,180356,1,0,1:0:0:0:
360,311,180549,2,0,B|333:267|347:218,1,85,2|8,1:2|1:2,2:0:0:0:
463,46,180937,6,0,B|506:102|474:168,1,127.5,6|0,1:2|2:0,2:0:0:0:
497,197,181324,1,2,1:2:0:0:
302,133,181517,2,0,B|253:156|192:135,1,85,8|0,1:2|2:0,2:0:0:0:
165,238,181904,1,0,1:0:0:0:
278,304,182098,1,2,1:2:0:0:
373,225,182291,1,8,1:2:0:0:
42,209,182485,6,0,B|82:264|65:348,1,127.5,6|0,1:2|2:0,2:0:0:0:
92,359,182872,1,2,1:2:0:0:
246,228,183066,2,0,B|290:244|362:224,1,85,8|0,1:2|2:0,2:0:0:0:
480,269,183453,1,0,1:0:0:0:
408,162,183646,1,10,1:2:0:0:
479,59,183840,1,8,1:2:0:0:
408,162,184033,6,0,B|372:124|384:72,1,85,4|0,1:2|1:0,2:0:0:0:
301,18,184420,1,2,2:0:0:0:
150,155,184614,2,0,B|89:117|17:135,1,127.5,8|0,1:2|2:0,2:0:0:0:
28,133,185001,2,0,B|-3:83|9:24,1,85,0|2,1:0|2:0,2:0:0:0:
278,137,185388,2,0,B|309:186|296:245,1,85,8|2,1:2|1:2,2:0:0:0:
301,239,185678,1,2,1:2:0:0:
293,258,185775,5,0,1:0:0:0:
340,68,185969,1,0,1:0:0:0:
189,216,186162,1,8,1:0:0:0:
399,169,186356,1,0,1:0:0:0:
217,83,186549,1,0,1:0:0:0:
185,97,186646,1,0,1:0:0:0:
151,103,186743,1,0,1:0:0:0:
117,97,186840,1,0,1:0:0:0:
85,82,186937,5,8,1:0:0:0:
64,77,187033,1,8,1:0:0:0:
43,82,187130,1,8,1:0:0:0:
25,94,187227,1,8,1:0:0:0:
0,81,187324,6,0,B|-21:168|3:251,2,170,6|10|2,1:2|1:2|1:2,2:0:0:0:
79,297,188291,1,0,2:0:0:0:
165,161,188485,1,10,1:2:0:0:
246,216,188678,2,0,B|288:231|340:216,1,85,2|0,2:0|1:0,2:0:0:0:
422,263,189066,5,0,1:0:0:0:
422,263,189162,1,0,2:0:0:0:
422,263,189259,1,8,1:2:0:0:
512,143,189453,1,0,1:2:0:0:
497,338,189646,1,0,1:0:0:0:
497,338,189743,1,0,2:0:0:0:
497,338,189840,1,0,1:0:0:0:
352,294,190033,1,8,1:2:0:0:
221,323,190227,6,0,B|188:286|203:235,1,85,2|0,1:2|0:0,2:0:0:0:
290,57,190614,1,0,1:0:0:0:
290,57,190807,2,0,B|338:110|301:188,1,127.5,10|0,1:2|2:0,2:0:0:0:
322,205,191195,1,2,1:2:0:0:
512,148,191388,2,0,B|471:161|420:148,1,85,2|8,1:2|1:2,2:0:0:0:
218,166,191775,5,0,1:0:0:0:
218,166,191872,1,0,2:0:0:0:
218,166,191969,1,2,1:2:0:0:
149,44,192162,1,0,3:0:0:0:
80,180,192356,1,10,1:2:0:0:
211,261,192549,1,0,1:0:0:0:
334,177,192743,1,2,1:2:0:0:
334,342,192936,2,0,B|298:300|316:258,1,85,0|8,1:0|1:2,2:0:0:0:
479,121,193324,6,0,B|532:215|432:277,1,170,6|0,1:2|2:0,2:0:0:0:
294,23,193904,2,0,B|339:47|345:100,1,85,8|2,1:2|2:0,2:0:0:0:
141,146,194291,2,0,B|187:117|228:129,1,85,0|2,1:0|1:2,2:0:0:0:
332,204,194678,1,10,1:2:0:0:
95,289,194872,6,0,B|19:222|57:132,1,170,6|0,1:2|2:0,2:0:0:0:
266,316,195453,2,0,B|225:354|158:351,1,85,10|0,1:2|2:0,2:0:0:0:
204,171,195840,1,2,1:2:0:0:
367,170,196033,2,0,B|398:209|385:274,1,85,2|8,1:2|1:2,2:0:0:0:
443,73,196420,1,2,0:0:0:0:
322,4,196614,5,0,1:0:0:0:
286,114,196807,1,0,1:0:0:0:
158,82,197001,1,8,1:0:0:0:
197,195,197195,1,0,1:0:0:0:
145,301,197388,5,0,1:0:0:0:
273,282,197582,1,0,1:0:0:0:
371,358,197775,1,8,1:0:0:0:
384,223,197969,1,0,1:0:0:0:
301,165,198162,5,0,1:0:0:0:
279,178,198259,1,0,1:0:0:0:
255,187,198356,1,0,1:0:0:0:
229,188,198453,1,0,1:0:0:0:
203,184,198549,1,8,1:0:0:0:
178,178,198646,1,0,1:0:0:0:
154,169,198743,1,0,1:0:0:0:
128,171,198840,1,0,1:0:0:0:
103,198,198936,5,0,1:0:0:0:
84,159,199033,1,8,1:0:0:0:
92,117,199130,1,0,1:0:0:0:
125,90,199227,1,8,1:0:0:0:
158,63,199324,5,8,1:0:0:0:
191,89,199420,1,8,1:0:0:0:
230,103,199517,1,8,1:0:0:0:
272,96,199614,1,8,1:0:0:0:
320,85,199711,6,2,B|292:171|323:254,1,170,6|8,0:0|0:0,0:0:0:0:
245,351,200291,1,0,0:0:0:0:
468,279,200485,2,0,B|445:220|461:181,1,85,0|2,0:0|0:0,0:0:0:0:
334,278,200872,1,8,0:0:0:0:
66,199,201066,6,2,B|137:236|234:210,1,170,14|2,0:0|0:0,0:0:0:0:
363,96,201646,2,0,B|323:83|273:95,1,85,8|2,0:0|0:0,0:0:0:0:
166,34,202033,1,2,0:0:0:0:
56,336,202420,5,8,0:0:0:0:
56,336,202614,2,2,B|7:254|40:153,1,170,14|2,0:0|0:0,0:0:0:0:
200,110,203195,2,0,B|218:149|199:209,1,85,8|0,0:0|0:0,0:0:0:0:
186,220,203485,1,0,0:0:0:0:
165,248,203582,2,0,B|216:232|259:242,1,85,0|0,0:0|0:0,0:0:0:0:
359,300,203969,1,8,0:0:0:0:
446,99,204162,6,2,B|416:168|331:158,1,127.5,6|0,0:0|2:0,0:0:0:0:
318,183,204549,1,2,0:0:0:0:
500,324,204743,2,0,B|474:279|491:228,1,85,10|0,0:0|0:0,0:0:0:0:
307,329,205130,1,2,0:0:0:0:
417,190,205324,1,0,0:0:0:0:
307,329,205517,1,10,0:0:0:0:
92,285,205711,6,2,B|42:204|81:124,1,170,14|2,0:0|0:0,0:0:0:0:
270,141,206291,2,0,B|228:164|172:152,1,85,10|0,0:0|0:0,0:0:0:0:
182,238,206678,1,2,0:0:0:0:
360,153,206872,1,0,0:0:0:0:
249,56,207066,1,10,0:0:0:0:
328,257,207259,6,2,B|404:211|496:236,1,170,14|2,0:0|0:0,0:0:0:0:
456,50,207840,2,0,B|430:94|452:150,1,85,10|0,0:0|0:0,0:0:0:0:
346,202,208227,1,2,0:0:0:0:
221,114,208420,1,0,0:0:0:0:
303,0,208614,1,10,0:0:0:0:
255,217,208807,5,10,0:0:0:0:
255,217,209001,1,12,0:0:0:0:
262,298,209388,1,10,0:0:0:0:
269,376,209775,1,14,0:0:0:0:
160,313,209969,1,0,0:0:0:0:
345,245,210162,1,8,0:0:0:0:
248,190,210356,1,10,0:0:0:0:
85,211,210549,5,4,0:0:0:0:
97,193,210646,1,0,0:0:0:0:
106,174,210743,1,8,0:0:0:0:
114,154,210840,1,0,0:0:0:0:
119,133,210936,1,8,0:0:0:0:
122,112,211033,1,0,0:0:0:0:
123,91,211130,1,0,0:0:0:0:
123,69,211227,1,0,0:0:0:0:
111,38,211324,5,4,0:0:0:0:
139,47,211420,1,8,0:0:0:0:
168,50,211517,1,0,0:0:0:0:
197,44,211614,1,0,0:0:0:0:
232,57,211711,5,12,0:0:0:0:
272,33,211807,1,8,0:0:0:0:
318,32,211904,1,8,0:0:0:0:
359,53,212001,1,8,0:0:0:0:
375,78,212098,6,2,B|349:159|373:245,1,170,14|10,0:0|0:0,0:0:0:0:
374,345,212678,1,0,0:0:0:0:
257,220,212872,1,0,0:0:0:0:
374,345,213066,2,0,B|416:326|485:333,1,85,2|8,0:0|0:0,0:0:0:0:
197,287,213453,6,2,B|117:333|25:311,1,170,6|2,0:0|0:0,0:0:0:0:
65,207,214033,2,0,B|25:164|47:102,1,85,8|2,0:0|0:0,0:0:0:0:
181,151,214420,2,2,B|244:122|345:156,1,127.5,2|0,0:0|2:0,0:0:0:0:
333,118,214807,1,8,0:0:0:0:
335,336,215001,6,0,L|315:232,1,85,10|0,0:0|0:0,0:0:0:0:
213,277,215388,1,0,0:0:0:0:
444,259,215582,2,2,B|492:177|468:91,1,170,10|2,0:0|0:0,0:0:0:0:
363,60,216162,1,0,0:0:0:0:
252,40,216356,1,8,0:0:0:0:
348,91,216549,1,2,0:0:0:0:
172,197,216743,6,0,B|142:158|156:112,1,85,0|0,0:0|0:0,0:0:0:0:
339,174,217130,2,0,B|357:226|323:268,1,85,8|0,0:0|0:0,0:0:0:0:
309,282,217420,1,0,0:0:0:0:
285,304,217517,2,0,B|237:292|166:300,1,85,0|8,0:0|0:0,0:0:0:0:
399,373,217904,1,0,0:0:0:0:
504,247,218098,6,2,B|482:158|505:68,1,170,14|2,0:0|0:0,0:0:0:0:
353,133,218678,2,0,B|307:154|265:146,1,85,8|2,0:0|0:0,0:0:0:0:
124,274,219066,2,0,B|170:253|212:261,1,85,2|8,0:0|0:0,0:0:0:0:
301,332,219453,1,0,0:0:0:0:
50,354,219646,6,2,B|-8:280|29:186,1,170,14|2,0:0|0:0,0:0:0:0:
165,55,220227,2,0,B|189:96|173:163,1,85,10|0,0:0|0:0,0:0:0:0:
315,270,220614,2,0,B|291:229|307:162,1,85,2|0,0:0|0:0,0:0:0:0:
389,127,221001,1,0,0:0:0:0:
415,320,221195,1,10,0:0:0:0:
389,127,221388,1,4,0:0:0:0:
256,192,221485,12,4,224485,0:0:0:0:
256,192,224582,12,0,225646,0:0:0:0:
256,192,226033,5,6,1:2:0:0:
149,245,227581,6,0,B|72:274|-1:247,2,153,2|2|2,2:0|2:0|2:0,2:0:0:0:
257,301,229129,1,2,2:0:0:0:
475,206,230678,2,0,B|448:139|476:38,2,153,2|2|2,2:0|2:0|2:0,2:0:0:0:
324,180,232226,6,0,B|278:211|205:185,1,102,2|0,2:0|2:0,2:0:0:0:
117,244,233000,1,0,2:0:0:0:
117,244,233194,1,2,2:0:0:0:
156,16,233774,2,0,B|197:54|188:123,1,102,2|0,2:0|2:0,2:0:0:0:
332,71,234549,1,0,2:0:0:0:
332,71,234742,1,2,2:0:0:0:
411,216,235323,5,2,2:0:0:0:
308,313,235710,1,0,2:0:0:0:
174,257,236097,1,0,2:0:0:0:
174,257,236291,2,0,B|148:202|169:142,1,102,2|0,2:0|2:0,2:0:0:0:
228,92,236871,5,0,1:0:0:0:
309,103,237065,1,0,1:0:0:0:
389,114,237258,1,0,1:0:0:0:
470,125,237452,1,0,1:0:0:0:
425,201,237645,5,0,1:0:0:0:
417,222,237742,1,0,1:0:0:0:
413,244,237839,1,0,1:0:0:0:
413,266,237936,1,0,1:0:0:0:
418,288,238033,1,0,1:0:0:0:
428,308,238129,1,0,1:0:0:0:
434,330,238226,1,0,1:0:0:0:
435,352,238323,1,0,1:0:0:0:
397,349,238420,6,0,B|332:384|260:360,1,127.5,4|0,1:2|2:0,2:0:0:0:
241,384,238807,2,0,B|211:343|227:274,1,85,8|0,1:2|2:0,2:0:0:0:
190,105,239194,2,0,B|157:196|51:187,1,170,0|8,1:0|1:2,2:0:0:0:
92,282,239774,1,0,2:0:0:0:
335,216,239968,6,0,B|318:167|328:123,1,85,0|0,1:0|1:0,2:0:0:0:
445,122,240355,1,8,1:2:0:0:
511,22,240549,1,0,1:2:0:0:
445,122,240742,2,0,B|411:158|420:227,1,85,0|0,1:0|1:0,2:0:0:0:
302,223,241129,1,8,1:2:0:0:
173,250,241323,1,0,1:0:0:0:
62,273,241516,1,4,1:2:0:0:
394,344,241903,5,10,1:2:0:0:
296,88,242291,1,0,1:2:0:0:
71,58,242678,1,8,1:0:0:0:
45,141,242871,1,0,1:0:0:0:
116,204,243065,2,0,B|145:160|138:113,1,85,12|0,1:2|2:0,2:0:0:0:
37,327,243452,2,0,B|120:279|203:307,1,170,8|8,1:2|1:0,2:0:0:0:
307,352,244032,1,0,2:0:0:0:
319,201,244226,2,0,B|265:220|202:202,1,85,8|0,1:2|1:0,2:0:0:0:
435,105,244613,6,0,B|409:181|444:281,2,170,4|8|0,1:2|1:2|1:0,2:0:0:0:
274,122,245581,2,0,B|245:79|258:32,1,85,0|8,1:0|1:2,2:0:0:0:
266,226,245968,1,0,1:0:0:0:
16,173,246162,6,0,B|93:127|183:154,2,170,4|8|0,1:2|1:2|1:2,2:0:0:0:
200,300,247129,1,0,1:0:0:0:
323,237,247323,2,0,B|370:144|325:74,1,170,8|4,1:2|1:2,2:0:0:0:
256,192,247807,12,4,250807,1:2:0:0:
225,192,263194,6,0,B|253:151|237:93,1,85,6|0,0:0|0:0,0:0:0:0:
428,266,263581,2,2,B|367:215|276:250,1,127.5,10|0,0:0|2:0,0:0:0:0:
308,240,263968,2,0,B|280:278|222:280,1,85,2|0,0:0|0:0,0:0:0:0:
153,354,264355,1,8,0:0:0:0:
34,292,264549,1,2,0:0:0:0:
130,147,264742,6,0,L|152:244,1,85,0|0,0:0|0:0,0:0:0:0:
148,229,265032,1,0,0:0:0:0:
148,229,265129,1,8,0:0:0:0:
327,153,265323,1,0,0:0:0:0:
211,106,265516,2,0,B|189:62|204:11,1,85,0|0,0:0|0:0,0:0:0:0:
200,23,265807,1,0,0:0:0:0:
200,23,265903,1,8,0:0:0:0:
362,83,266097,6,2,B|435:75|482:116,1,127.5,6|0,0:0|2:0,0:0:0:0:
510,95,266484,1,0,0:0:0:0:
389,286,266678,2,0,B|348:244|367:183,1,85,10|0,0:0|0:0,0:0:0:0:
340,183,266968,1,0,0:0:0:0:
320,161,267065,2,0,B|275:182|222:175,1,85,2|2,0:0|0:0,0:0:0:0:
88,127,267452,1,8,0:0:0:0:
198,261,267645,1,2,0:0:0:0:
17,181,267839,6,0,L|3:81,1,85,6|0,0:0|0:0,0:0:0:0:
134,329,268226,2,0,L|158:229,1,85,14|0,0:0|0:0,0:0:0:0:
338,238,268613,1,4,0:0:0:0:
338,238,268807,2,2,B|293:156|323:65,1,170,10|10,0:0|0:0,0:0:0:0:
494,122,269387,6,0,B|514:165|500:212,1,85,4|0,0:0|0:0,0:0:0:0:
492,307,269774,2,0,B|441:284|378:303,1,85,10|0,0:0|0:0,0:0:0:0:
305,354,270162,1,0,0:0:0:0:
172,171,270355,2,0,B|222:150|283:156,1,85,2|8,0:0|0:0,0:0:0:0:
113,258,270742,6,2,B|28:195|74:107,1,170,6|2,0:0|0:0,0:0:0:0:
244,228,271323,1,10,0:0:0:0:
346,129,271516,1,0,0:0:0:0:
249,39,271710,1,2,0:0:0:0:
346,129,271903,2,0,B|399:135|439:109,2,85,2|8|2,0:0|0:0|0:0,0:0:0:0:
478,194,272484,5,12,0:0:0:0:
383,334,272678,1,0,0:0:0:0:
383,334,272774,1,0,0:0:0:0:
383,334,272871,1,8,0:0:0:0:
290,219,273065,1,0,0:0:0:0:
201,264,273258,1,8,0:0:0:0:
120,140,273452,1,0,0:0:0:0:
120,140,273549,1,0,0:0:0:0:
120,140,273645,1,8,0:0:0:0:
1,207,273839,1,0,0:0:0:0:
226,144,274032,5,8,0:0:0:0:
250,150,274129,1,0,0:0:0:0:
275,152,274226,1,0,0:0:0:0:
300,149,274323,1,0,0:0:0:0:
324,142,274420,1,8,0:0:0:0:
348,135,274516,1,0,0:0:0:0:
373,132,274613,1,0,0:0:0:0:
398,132,274710,1,0,0:0:0:0:
435,106,274807,5,0,0:0:0:0:
439,137,274903,1,8,0:0:0:0:
425,172,275000,1,0,0:0:0:0:
429,203,275097,1,8,0:0:0:0:
416,238,275194,1,8,0:0:0:0:
421,269,275291,1,8,0:0:0:0:
408,304,275387,1,8,0:0:0:0:
413,335,275484,1,8,0:0:0:0:
433,367,275968,5,12,1:2:0:0:
256,192,276065,12,0,278678,2:0:0:0:
