osu file format v14

[General]
AudioFilename: audio.mp3
AudioLeadIn: 0
PreviewTime: 89892
Countdown: 0
SampleSet: Soft
StackLeniency: 0.7
Mode: 3
LetterboxInBreaks: 0
SpecialStyle: 0
WidescreenStoryboard: 1

[Editor]
Bookmarks: 1596,14396,20796,33596,36796,49578,62361,75144,76742,89542,104392,123561,136361,149161,161961,174761,187561
DistanceSpacing: 1
BeatDivisor: 4
GridSize: 32
TimelineZoom: 2

[Metadata]
Title:Period. ~ Zetsubou to Hametsu no Kyoukai de Shiru Kibou
TitleUnicode:Period. ~ 絶望ト破滅ノ境界デ知ル希望
Artist:tsunamix
ArtistUnicode:tsunamix
Creator:FAMoss
Version:Hard
Source:東方Project
Tags:zun penta touhou -prism- suisai featured artist fa mappers' guild mg tocd-0035 c-clays 大空魔術 ~ magical astronomy greenwich in the sky tenkuu no 天空のグリニッジ electronic instrumental tsunamix_underground Oozora Majutsu renko usami AGGRESSIVE GENERATION hardcore techno trance
BeatmapID:4485295
BeatmapSetID:2132288

[Difficulty]
HPDrainRate:8
CircleSize:4
OverallDifficulty:8
ApproachRate:5
SliderMultiplier:1.4
SliderTickRate:1

[Events]
//Background and Video events
0,0,"62722503_p0_master1200_enchanced.jpg",0,0
//Break Periods
//Storyboard Layer 0 (Background)
//Storyboard Layer 1 (Fail)
//Storyboard Layer 2 (Pass)
//Storyboard Layer 3 (Foreground)
//Storyboard Layer 4 (Overlay)
//Storyboard Sound Samples

[TimingPoints]
1568,400,4,2,1,60,1,0
91568,400,4,2,1,60,1,1
107568,571.428571428571,4,2,1,60,1,0
107568,-70,4,2,1,60,0,0
108425,600,4,2,1,60,1,8
108425,-66.666667,4,2,1,60,0,0
108575,750,4,2,1,60,1,8
108575,-53.333333,4,2,1,60,0,0
108762,400,4,2,1,60,1,8
109262,500,4,2,1,60,1,8
109262,-80,4,2,1,60,0,0
109762,480,4,2,1,60,1,0
109762,-83.333333,4,2,1,60,0,0
110482,375,4,2,1,60,1,8
110482,-106.666667,4,2,1,60,0,0
110763,428.571428571429,4,2,1,60,1,8
110763,-93.333333,4,2,1,60,0,0
110977,444.444444444444,4,2,1,60,1,8
110977,-90,4,2,1,60,0,0
111643,461.538461538462,4,2,1,60,1,0
111643,-86.666667,4,2,1,60,0,0
111873,444.444444444444,4,2,1,60,1,8
111873,-90,4,2,1,60,0,0
112095,461.538461538462,4,2,1,60,1,8
112095,-86.666667,4,2,1,60,0,0
112556,428.571428571429,4,2,1,60,1,8
112556,-93.333333,4,2,1,60,0,0
112770,480,4,2,1,60,1,8
112770,-83.333333,4,2,1,60,0,0
113010,400,4,2,1,60,1,8
113210,461.538461538462,4,2,1,60,1,8
113210,-86.666667,4,2,1,60,0,0
113440,444.444444444444,4,2,1,60,1,0
113440,-90,4,2,1,60,0,0
113884,428.571428571429,4,2,1,60,1,8
113884,-93.333333,4,2,1,60,0,0
114312,444.444444444444,4,2,1,60,1,8
114312,-90,4,2,1,60,0,0
114756,461.538461538462,4,2,1,60,1,8
114756,-86.666667,4,2,1,60,0,0
114986,480,4,2,1,60,1,8
114986,-83.333333,4,2,1,60,0,0
115226,461.538461538462,4,2,1,60,1,0
115226,-86.666667,4,2,1,60,0,0
116149,480,4,2,1,60,1,8
116149,-80,4,2,1,60,0,0
116389,444.444444444444,4,2,1,60,1,8
116389,-90.0900900900901,4,2,1,60,0,0
116610,500,4,2,1,60,1,8
116610,-80,4,2,1,60,0,0
116860,444.444444444444,4,2,1,60,1,8
116860,-90,4,2,1,60,0,0
117082,480,4,2,1,60,1,0
117082,-83.333333,4,2,1,60,0,0
117562,545.454545454546,4,2,1,60,1,8
117562,-73.333333,4,2,1,60,0,0
117834,600,4,2,1,60,1,8
117834,-66.666667,4,2,1,60,0,0
118134,521.739130434783,4,2,1,60,1,8
118134,-76.9230769230769,4,2,1,60,0,0
118265,400,4,2,1,60,1,8
118465,521.739130434783,4,2,1,60,1,8
118465,-76.666667,4,2,1,60,0,0
118726,461.538461538462,4,2,1,60,1,8
118726,-86.9565217391304,4,2,1,60,0,0
118956,500,4,2,1,60,1,8
118956,-80,4,2,1,60,0,0
119206,545.454545454547,4,2,1,60,1,0
119206,-73.333333,4,2,1,60,0,0
119751,480,4,2,1,60,1,8
119751,-83.333333,4,2,1,60,0,0
119871,750,4,2,1,60,1,8
119871,-53.333333,4,2,1,60,0,0
120058,500,4,2,1,60,1,8
120058,-80,4,2,1,60,0,0
120308,571.428571428573,4,2,1,60,1,8
120308,-70,4,2,1,60,0,0
120883,545.454545454546,4,2,1,60,1,8
120883,-73.333333,4,2,1,60,0,0
121155,500,4,2,1,60,1,8
121155,-80,4,2,1,60,0,0
121404,545.454545454546,4,2,1,60,1,0
121404,-73.333333,4,2,1,60,0,0
121676,571.428571428571,4,2,1,60,1,8
121676,-70,4,2,1,60,0,0
121961,600,4,2,1,60,1,8
121961,-66.666667,4,2,1,60,0,0
122261,750,4,2,1,60,1,8
122261,-53.333333,4,2,1,60,0,0
122636,521.739130434783,4,2,1,60,1,8
122636,-76.666667,4,2,1,60,0,0
123157,413.793103448276,4,2,1,60,1,8
123157,-96.666667,4,2,1,60,0,0
123570,400.000000000001,4,2,1,60,1,0

[HitObjects]
64,192,1568,5,2,0:0:0:0:
320,192,1568,1,4,0:0:0:0:
448,192,1568,1,0,0:0:0:0:
64,192,1768,1,2,0:0:0:0:
192,192,1768,1,8,0:0:0:0:
448,192,1868,1,0,0:0:0:0:
320,192,1968,1,2,0:0:0:0:
192,192,2068,1,0,0:0:0:0:
64,192,2168,1,2,0:0:0:0:
448,192,2168,1,8,0:0:0:0:
64,192,2368,1,2,0:0:0:0:
192,192,2368,1,0,0:0:0:0:
320,192,2501,1,0,0:0:0:0:
192,192,2634,1,0,0:0:0:0:
448,192,2768,1,2,0:0:0:0:
320,192,2768,1,0,0:0:0:0:
64,192,2901,1,0,0:0:0:0:
320,192,3034,1,0,0:0:0:0:
64,192,3168,1,2,0:0:0:0:
448,192,3168,1,0,0:0:0:0:
192,192,3268,1,0,0:0:0:0:
320,192,3368,1,10,0:0:0:0:
64,192,3468,1,0,0:0:0:0:
192,192,3568,1,2,0:0:0:0:
320,192,3668,1,0,0:0:0:0:
448,192,3768,1,2,0:0:0:0:
64,192,3768,1,8,0:0:0:0:
320,192,3968,1,2,0:0:0:0:
448,192,3968,1,0,0:0:0:0:
192,192,4101,1,0,0:0:0:0:
64,192,4234,1,0,0:0:0:0:
320,192,4368,1,2,0:0:0:0:
448,192,4368,1,0,0:0:0:0:
192,192,4568,1,2,0:0:0:0:
320,192,4568,1,8,0:0:0:0:
64,192,4768,1,2,0:0:0:0:
448,192,4768,1,0,0:0:0:0:
192,192,4868,1,0,0:0:0:0:
320,192,4968,1,10,0:0:0:0:
64,192,5068,1,0,0:0:0:0:
192,192,5168,1,2,0:0:0:0:
320,192,5268,1,0,0:0:0:0:
64,192,5368,1,2,0:0:0:0:
448,192,5368,1,8,0:0:0:0:
192,192,5568,1,2,0:0:0:0:
64,192,5568,1,0,0:0:0:0:
320,192,5701,1,0,0:0:0:0:
192,192,5834,1,0,0:0:0:0:
448,192,5968,1,2,0:0:0:0:
320,192,5968,1,0,0:0:0:0:
64,192,6101,1,0,0:0:0:0:
320,192,6234,1,0,0:0:0:0:
448,192,6368,1,2,0:0:0:0:
64,192,6368,1,0,0:0:0:0:
192,192,6468,1,0,0:0:0:0:
320,192,6568,1,10,0:0:0:0:
64,192,6668,1,0,0:0:0:0:
192,192,6768,1,2,0:0:0:0:
320,192,6868,1,0,0:0:0:0:
448,192,6968,1,2,0:0:0:0:
64,192,6968,1,8,0:0:0:0:
320,192,7168,1,2,0:0:0:0:
448,192,7168,1,0,0:0:0:0:
192,192,7301,1,0,0:0:0:0:
320,192,7434,1,0,0:0:0:0:
64,192,7568,1,2,0:0:0:0:
448,192,7568,1,0,0:0:0:0:
192,192,7668,1,0,0:0:0:0:
320,192,7768,1,10,0:0:0:0:
192,192,7868,1,0,0:0:0:0:
320,192,7968,1,2,0:0:0:0:
448,192,7968,1,0,0:0:0:0:
64,192,8168,1,8,0:0:0:0:
192,192,8168,1,2,0:0:0:0:
448,192,8268,1,0,0:0:0:0:
320,192,8368,1,2,0:0:0:0:
192,192,8468,1,0,0:0:0:0:
64,192,8568,1,8,0:0:0:0:
448,192,8568,1,2,0:0:0:0:
448,192,8768,1,2,0:0:0:0:
320,192,8768,1,0,0:0:0:0:
192,192,8901,1,0,0:0:0:0:
320,192,9034,1,0,0:0:0:0:
64,192,9168,1,2,0:0:0:0:
192,192,9168,1,0,0:0:0:0:
448,192,9301,1,0,0:0:0:0:
192,192,9434,1,0,0:0:0:0:
448,192,9568,1,2,0:0:0:0:
64,192,9568,1,0,0:0:0:0:
320,192,9668,1,0,0:0:0:0:
192,192,9768,1,10,0:0:0:0:
448,192,9868,1,0,0:0:0:0:
320,192,9968,1,2,0:0:0:0:
192,192,10068,1,0,0:0:0:0:
64,192,10168,1,2,0:0:0:0:
448,192,10168,1,8,0:0:0:0:
192,192,10368,1,2,0:0:0:0:
64,192,10368,1,0,0:0:0:0:
320,192,10501,1,0,0:0:0:0:
448,192,10634,1,0,0:0:0:0:
192,192,10768,1,2,0:0:0:0:
64,192,10768,1,0,0:0:0:0:
320,192,10968,1,2,0:0:0:0:
192,192,10968,1,8,0:0:0:0:
448,192,11168,1,2,0:0:0:0:
64,192,11168,1,0,0:0:0:0:
320,192,11268,1,0,0:0:0:0:
192,192,11368,1,10,0:0:0:0:
448,192,11468,1,0,0:0:0:0:
320,192,11568,1,2,0:0:0:0:
192,192,11668,1,0,0:0:0:0:
448,192,11768,1,2,0:0:0:0:
64,192,11768,1,8,0:0:0:0:
320,192,11968,1,2,0:0:0:0:
448,192,11968,1,0,0:0:0:0:
192,192,12101,1,0,0:0:0:0:
320,192,12234,1,0,0:0:0:0:
64,192,12368,1,2,0:0:0:0:
192,192,12368,1,0,0:0:0:0:
448,192,12501,1,0,0:0:0:0:
192,192,12634,1,0,0:0:0:0:
64,192,12768,1,2,0:0:0:0:
448,192,12768,1,0,0:0:0:0:
320,192,12868,1,0,0:0:0:0:
192,192,12968,1,10,0:0:0:0:
448,192,13068,1,0,0:0:0:0:
320,192,13168,1,2,0:0:0:0:
192,192,13268,1,0,0:0:0:0:
64,192,13368,1,2,0:0:0:0:
448,192,13368,1,8,0:0:0:0:
192,192,13568,1,2,0:0:0:0:
64,192,13568,1,0,0:0:0:0:
320,192,13701,1,0,0:0:0:0:
192,192,13834,1,0,0:0:0:0:
448,192,13968,1,2,0:0:0:0:
64,192,13968,1,0,0:0:0:0:
320,192,14168,1,2,0:0:0:0:
192,192,14168,1,8,0:0:0:0:
64,192,14368,1,4,0:0:0:0:
192,192,14368,1,2,0:0:0:0:
448,192,14368,1,0,0:0:0:0:
320,192,14568,1,2,0:0:0:0:
192,192,14668,1,0,0:0:0:0:
320,192,14768,1,2,0:0:0:0:
448,192,14768,1,0,0:0:0:0:
64,192,14968,1,2,0:0:0:0:
192,192,15068,1,0,0:0:0:0:
320,192,15168,1,2,0:0:0:0:
448,192,15168,1,0,0:0:0:0:
192,192,15368,1,2,0:0:0:0:
320,192,15468,1,0,0:0:0:0:
64,192,15568,1,2,0:0:0:0:
192,192,15568,1,0,0:0:0:0:
448,192,15768,1,2,0:0:0:0:
320,192,15868,1,0,0:0:0:0:
64,192,15968,1,2,0:0:0:0:
192,192,15968,1,0,0:0:0:0:
448,192,16168,1,2,0:0:0:0:
192,192,16268,1,0,0:0:0:0:
320,192,16368,1,2,0:0:0:0:
448,192,16368,1,0,0:0:0:0:
192,192,16568,1,2,0:0:0:0:
320,192,16668,1,0,0:0:0:0:
64,192,16768,1,2,0:0:0:0:
448,192,16768,1,0,0:0:0:0:
192,192,16968,1,2,0:0:0:0:
320,192,17068,1,0,0:0:0:0:
64,192,17168,1,2,0:0:0:0:
192,192,17168,1,0,0:0:0:0:
320,192,17368,1,2,0:0:0:0:
192,192,17468,1,0,0:0:0:0:
64,192,17568,1,2,0:0:0:0:
448,192,17568,1,0,0:0:0:0:
192,192,17768,1,2,0:0:0:0:
320,192,17868,1,0,0:0:0:0:
64,192,17968,1,2,0:0:0:0:
192,192,17968,1,0,0:0:0:0:
448,192,18168,1,2,0:0:0:0:
320,192,18268,1,0,0:0:0:0:
64,192,18368,1,2,0:0:0:0:
192,192,18368,1,0,0:0:0:0:
320,192,18568,1,2,0:0:0:0:
192,192,18668,1,0,0:0:0:0:
320,192,18768,1,2,0:0:0:0:
448,192,18768,1,0,0:0:0:0:
64,192,18868,1,0,0:0:0:0:
192,192,18968,1,2,0:0:0:0:
320,192,19068,1,0,0:0:0:0:
64,192,19168,1,2,0:0:0:0:
448,192,19168,1,0,0:0:0:0:
192,192,19368,1,2,0:0:0:0:
320,192,19468,1,0,0:0:0:0:
64,192,19568,1,2,0:0:0:0:
192,192,19568,1,0,0:0:0:0:
320,192,19768,1,2,0:0:0:0:
192,192,19868,1,0,0:0:0:0:
64,192,19968,1,2,0:0:0:0:
448,192,19968,1,0,0:0:0:0:
320,192,20068,1,0,0:0:0:0:
192,192,20168,1,2,0:0:0:0:
448,192,20268,1,0,0:0:0:0:
64,192,20368,1,2,0:0:0:0:
192,192,20368,1,0,0:0:0:0:
320,192,20468,1,0,0:0:0:0:
448,192,20568,1,2,0:0:0:0:
192,192,20668,1,0,0:0:0:0:
64,192,20768,1,4,0:0:0:0:
320,192,20768,1,2,0:0:0:0:
448,192,20768,1,0,0:0:0:0:
64,192,20968,1,8,0:0:0:0:
192,192,20968,1,2,0:0:0:0:
448,192,21068,1,0,0:0:0:0:
320,192,21168,1,2,0:0:0:0:
192,192,21268,1,0,0:0:0:0:
64,192,21368,1,8,0:0:0:0:
448,192,21368,1,2,0:0:0:0:
192,192,21568,1,2,0:0:0:0:
64,192,21568,1,0,0:0:0:0:
192,192,21701,1,0,0:0:0:0:
448,192,21834,1,0,0:0:0:0:
448,192,21968,1,2,0:0:0:0:
320,192,21968,1,0,0:0:0:0:
192,192,22101,1,0,0:0:0:0:
192,192,22234,1,0,0:0:0:0:
448,192,22368,1,2,0:0:0:0:
64,192,22368,1,0,0:0:0:0:
320,192,22468,1,0,0:0:0:0:
192,192,22568,1,10,0:0:0:0:
448,192,22668,1,0,0:0:0:0:
320,192,22768,1,2,0:0:0:0:
192,192,22868,1,0,0:0:0:0:
448,192,22968,1,8,0:0:0:0:
64,192,22968,1,2,0:0:0:0:
320,192,23168,1,2,0:0:0:0:
448,192,23168,1,0,0:0:0:0:
320,192,23301,1,0,0:0:0:0:
64,192,23434,1,0,0:0:0:0:
64,192,23568,1,2,0:0:0:0:
448,192,23568,1,0,0:0:0:0:
192,192,23768,1,8,0:0:0:0:
320,192,23768,1,2,0:0:0:0:
64,192,23968,1,2,0:0:0:0:
448,192,23968,1,0,0:0:0:0:
192,192,24068,1,0,0:0:0:0:
320,192,24168,1,10,0:0:0:0:
64,192,24268,1,0,0:0:0:0:
192,192,24368,1,2,0:0:0:0:
320,192,24468,1,0,0:0:0:0:
64,192,24568,1,8,0:0:0:0:
448,192,24568,1,2,0:0:0:0:
320,192,24768,1,2,0:0:0:0:
448,192,24768,1,0,0:0:0:0:
320,192,24901,1,0,0:0:0:0:
64,192,25034,1,0,0:0:0:0:
64,192,25168,1,2,0:0:0:0:
192,192,25168,1,0,0:0:0:0:
320,192,25301,1,0,0:0:0:0:
320,192,25434,1,0,0:0:0:0:
64,192,25568,1,2,0:0:0:0:
448,192,25568,1,0,0:0:0:0:
192,192,25668,1,0,0:0:0:0:
320,192,25768,1,10,0:0:0:0:
64,192,25868,1,0,0:0:0:0:
192,192,25968,1,2,0:0:0:0:
320,192,26068,1,0,0:0:0:0:
64,192,26168,1,8,0:0:0:0:
448,192,26168,1,2,0:0:0:0:
320,192,26368,1,2,0:0:0:0:
448,192,26368,1,0,0:0:0:0:
320,192,26501,1,0,0:0:0:0:
64,192,26634,1,0,0:0:0:0:
64,192,26768,1,2,0:0:0:0:
448,192,26768,1,0,0:0:0:0:
192,192,26968,1,8,0:0:0:0:
320,192,26968,1,2,0:0:0:0:
64,192,27168,1,2,0:0:0:0:
448,192,27168,1,0,0:0:0:0:
192,192,27368,1,2,0:0:0:0:
64,192,27368,1,8,0:0:0:0:
448,192,27468,1,0,0:0:0:0:
320,192,27568,1,2,0:0:0:0:
192,192,27668,1,0,0:0:0:0:
448,192,27768,1,2,0:0:0:0:
64,192,27768,1,8,0:0:0:0:
64,192,27968,1,2,0:0:0:0:
192,192,27968,1,0,0:0:0:0:
192,192,28101,1,0,0:0:0:0:
448,192,28234,1,0,0:0:0:0:
320,192,28368,1,2,0:0:0:0:
448,192,28368,1,0,0:0:0:0:
192,192,28501,1,0,0:0:0:0:
192,192,28634,1,0,0:0:0:0:
64,192,28768,1,2,0:0:0:0:
448,192,28768,1,0,0:0:0:0:
320,192,28868,1,0,0:0:0:0:
192,192,28968,1,10,0:0:0:0:
448,192,29068,1,0,0:0:0:0:
320,192,29168,1,2,0:0:0:0:
192,192,29268,1,0,0:0:0:0:
64,192,29368,1,2,0:0:0:0:
448,192,29368,1,8,0:0:0:0:
64,192,29568,1,2,0:0:0:0:
192,192,29568,1,0,0:0:0:0:
192,192,29701,1,0,0:0:0:0:
448,192,29834,1,0,0:0:0:0:
64,192,29968,1,2,0:0:0:0:
448,192,29968,1,0,0:0:0:0:
192,192,30168,1,2,0:0:0:0:
320,192,30168,1,8,0:0:0:0:
448,192,30368,1,2,0:0:0:0:
64,192,30368,1,0,0:0:0:0:
192,192,30468,1,0,0:0:0:0:
320,192,30568,1,10,0:0:0:0:
64,192,30668,1,0,0:0:0:0:
192,192,30768,1,2,0:0:0:0:
320,192,30868,1,0,0:0:0:0:
448,192,30968,1,8,0:0:0:0:
64,192,30968,1,2,0:0:0:0:
448,192,31168,1,2,0:0:0:0:
320,192,31168,1,0,0:0:0:0:
320,192,31301,1,0,0:0:0:0:
64,192,31434,1,0,0:0:0:0:
192,192,31568,1,2,0:0:0:0:
64,192,31568,1,0,0:0:0:0:
320,192,31701,1,0,0:0:0:0:
320,192,31834,1,0,0:0:0:0:
448,192,31968,1,2,0:0:0:0:
64,192,31968,1,0,0:0:0:0:
192,192,32068,1,0,0:0:0:0:
320,192,32168,1,10,0:0:0:0:
64,192,32268,1,0,0:0:0:0:
192,192,32368,1,2,0:0:0:0:
320,192,32468,1,0,0:0:0:0:
448,192,32568,1,8,0:0:0:0:
64,192,32568,1,2,0:0:0:0:
64,192,32768,1,2,0:0:0:0:
192,192,32768,1,0,0:0:0:0:
320,192,32968,1,10,0:0:0:0:
192,192,33068,1,0,0:0:0:0:
64,192,33168,1,2,0:0:0:0:
448,192,33168,1,0,0:0:0:0:
192,192,33368,1,8,0:0:0:0:
320,192,33368,1,2,0:0:0:0:
64,192,33568,128,2,34168:0:0:0:0:
320,192,33568,1,0,0:0:0:50:LR4_BassKickReverbXG.wav
448,192,33568,1,0,0:0:0:100:G5H.wav
448,192,34168,128,0,34368:0:0:0:100:C6H_s.wav
192,192,34368,128,0,34568:0:0:0:100:A5H_s.wav
448,192,34568,1,0,0:0:0:100:A5H_s.wav
320,192,34668,1,0,0:0:0:100:A#5H_Bb5H_s.wav
64,192,34768,1,0,0:0:0:100:A5H_s.wav
192,192,34868,1,0,0:0:0:100:G5H_s.wav
320,192,34968,128,0,35168:0:0:0:100:F5H_s.wav
192,192,35168,128,0,36768:0:0:0:100:G5H.wav
64,192,36768,1,2,0:0:0:0:
320,192,36768,1,4,0:0:0:0:
448,192,36768,1,0,0:0:0:0:
192,192,36968,1,2,0:0:0:0:
320,192,36968,1,0,0:0:0:0:
64,192,37168,1,2,0:0:0:0:
192,192,37168,1,0,0:0:0:0:
64,192,37368,1,2,0:0:0:0:
448,192,37368,1,0,0:0:0:0:
320,192,37568,1,2,0:0:0:0:
448,192,37568,1,0,0:0:0:0:
64,192,37768,1,2,0:0:0:0:
192,192,37768,1,0,0:0:0:0:
320,192,37868,1,0,0:0:0:0:
192,192,37968,1,2,0:0:0:0:
320,192,38068,1,0,0:0:0:0:
64,192,38168,1,2,0:0:0:0:
448,192,38168,1,0,0:0:0:0:
320,192,38368,1,2,0:0:0:0:
448,192,38368,1,0,0:0:0:0:
192,192,38568,1,2,0:0:0:0:
320,192,38568,1,0,0:0:0:0:
64,192,38768,1,2,0:0:0:0:
192,192,38768,1,0,0:0:0:0:
64,192,38968,1,2,0:0:0:0:
448,192,38968,1,0,0:0:0:0:
320,192,39168,1,2,0:0:0:0:
448,192,39168,1,0,0:0:0:0:
64,192,39368,1,2,0:0:0:0:
192,192,39368,1,0,0:0:0:0:
320,192,39468,1,0,0:0:0:0:
64,192,39568,1,2,0:0:0:0:
320,192,39668,1,0,0:0:0:0:
192,192,39768,1,2,0:0:0:0:
448,192,39768,1,0,0:0:0:0:
64,192,39968,1,2,0:0:0:0:
192,192,39968,1,0,0:0:0:0:
192,192,40168,1,2,0:0:0:0:
320,192,40168,1,0,0:0:0:0:
320,192,40368,1,2,0:0:0:0:
448,192,40368,1,0,0:0:0:0:
64,192,40568,1,2,0:0:0:0:
448,192,40568,1,0,0:0:0:0:
64,192,40768,1,2,0:0:0:0:
192,192,40768,1,0,0:0:0:0:
320,192,40968,1,2,0:0:0:0:
448,192,40968,1,0,0:0:0:0:
192,192,41068,1,0,0:0:0:0:
320,192,41168,1,2,0:0:0:0:
192,192,41268,1,0,0:0:0:0:
64,192,41368,1,2,0:0:0:0:
448,192,41368,1,0,0:0:0:0:
320,192,41568,1,2,0:0:0:0:
448,192,41568,128,0,41868:0:0:0:0:
64,192,41868,1,0,0:0:0:0:
320,192,41968,1,2,0:0:0:0:
192,192,42068,1,0,0:0:0:0:
448,192,42168,1,2,0:0:0:0:
320,192,42268,1,0,0:0:0:0:
64,192,42368,1,2,0:0:0:0:
192,192,42368,1,0,0:0:0:0:
320,192,42568,1,2,0:0:0:0:
448,192,42568,1,0,0:0:0:0:
192,192,42668,1,0,0:0:0:0:
448,192,42768,1,2,0:0:0:0:
192,192,42868,1,0,0:0:0:0:
64,192,42968,1,2,0:0:0:0:
320,192,42968,1,0,0:0:0:0:
320,192,43168,1,2,0:0:0:0:
448,192,43168,1,0,0:0:0:0:
192,192,43368,1,2,0:0:0:0:
320,192,43368,1,0,0:0:0:0:
64,192,43568,1,2,0:0:0:0:
192,192,43568,1,0,0:0:0:0:
64,192,43768,1,2,0:0:0:0:
448,192,43768,1,0,0:0:0:0:
320,192,43968,1,2,0:0:0:0:
448,192,43968,1,0,0:0:0:0:
64,192,44168,1,2,0:0:0:0:
192,192,44168,1,0,0:0:0:0:
320,192,44268,1,0,0:0:0:0:
192,192,44368,1,2,0:0:0:0:
320,192,44468,1,0,0:0:0:0:
64,192,44568,1,2,0:0:0:0:
448,192,44568,1,0,0:0:0:0:
320,192,44768,1,2,0:0:0:0:
448,192,44768,1,0,0:0:0:0:
192,192,44968,1,2,0:0:0:0:
320,192,44968,1,0,0:0:0:0:
64,192,45168,1,2,0:0:0:0:
192,192,45168,1,0,0:0:0:0:
64,192,45368,1,2,0:0:0:0:
448,192,45368,1,0,0:0:0:0:
320,192,45568,1,2,0:0:0:0:
448,192,45568,1,0,0:0:0:0:
64,192,45768,1,2,0:0:0:0:
192,192,45768,1,0,0:0:0:0:
320,192,45868,1,0,0:0:0:0:
64,192,45968,1,2,0:0:0:0:
320,192,46068,1,0,0:0:0:0:
192,192,46168,1,2,0:0:0:0:
448,192,46168,1,0,0:0:0:0:
64,192,46368,1,2,0:0:0:0:
192,192,46368,1,0,0:0:0:0:
192,192,46568,1,2,0:0:0:0:
320,192,46568,1,0,0:0:0:0:
320,192,46768,1,2,0:0:0:0:
448,192,46768,1,0,0:0:0:0:
64,192,46968,1,2,0:0:0:0:
448,192,46968,1,0,0:0:0:0:
64,192,47168,1,2,0:0:0:0:
192,192,47168,1,0,0:0:0:0:
320,192,47368,1,2,0:0:0:0:
448,192,47368,1,0,0:0:0:0:
192,192,47468,1,0,0:0:0:0:
320,192,47568,1,2,0:0:0:0:
192,192,47668,1,0,0:0:0:0:
64,192,47768,1,2,0:0:0:0:
448,192,47768,1,0,0:0:0:0:
64,192,47968,1,2,0:0:0:0:
192,192,47968,1,0,0:0:0:0:
192,192,48168,1,2,0:0:0:0:
320,192,48168,1,0,0:0:0:0:
320,192,48368,1,2,0:0:0:0:
448,192,48368,1,0,0:0:0:0:
64,192,48568,1,2,0:0:0:0:
448,192,48568,1,0,0:0:0:0:
64,192,48768,1,2,0:0:0:0:
192,192,48768,1,0,0:0:0:0:
320,192,48968,1,2,0:0:0:0:
448,192,48968,1,0,0:0:0:0:
192,192,49068,1,0,0:0:0:0:
448,192,49168,1,2,0:0:0:0:
192,192,49268,1,0,0:0:0:0:
64,192,49368,1,2,0:0:0:0:
320,192,49368,1,0,0:0:0:0:
64,192,49568,1,4,0:0:0:0:
320,192,49568,1,2,0:0:0:0:
448,192,49568,1,0,0:0:0:0:
192,192,49768,1,8,0:0:0:0:
320,192,49768,1,2,0:0:0:0:
64,192,49968,1,2,0:0:0:0:
192,192,49968,1,0,0:0:0:0:
64,192,50168,1,8,0:0:0:0:
448,192,50168,1,2,0:0:0:0:
320,192,50368,1,2,0:0:0:0:
448,192,50368,1,0,0:0:0:0:
64,192,50568,1,8,0:0:0:0:
192,192,50568,1,2,0:0:0:0:
320,192,50668,1,0,0:0:0:0:
192,192,50768,1,2,0:0:0:0:
320,192,50868,1,0,0:0:0:0:
64,192,50968,1,8,0:0:0:0:
448,192,50968,1,2,0:0:0:0:
64,192,51168,1,2,0:0:0:0:
320,192,51168,1,0,0:0:0:0:
448,192,51168,1,0,0:0:0:0:
192,192,51368,1,8,0:0:0:0:
320,192,51368,1,2,0:0:0:0:
64,192,51568,1,2,0:0:0:0:
192,192,51568,1,0,0:0:0:0:
64,192,51768,1,8,0:0:0:0:
448,192,51768,1,2,0:0:0:0:
320,192,51968,1,2,0:0:0:0:
448,192,51968,1,0,0:0:0:0:
64,192,52168,1,8,0:0:0:0:
192,192,52168,1,2,0:0:0:0:
320,192,52268,1,0,0:0:0:0:
64,192,52368,1,2,0:0:0:0:
320,192,52468,1,0,0:0:0:0:
192,192,52568,1,8,0:0:0:0:
448,192,52568,1,2,0:0:0:0:
64,192,52768,1,2,0:0:0:0:
192,192,52768,1,0,0:0:0:0:
448,192,52768,1,0,0:0:0:0:
192,192,52968,1,8,0:0:0:0:
320,192,52968,1,2,0:0:0:0:
320,192,53168,1,2,0:0:0:0:
448,192,53168,1,0,0:0:0:0:
64,192,53368,1,8,0:0:0:0:
448,192,53368,1,2,0:0:0:0:
64,192,53568,1,2,0:0:0:0:
192,192,53568,1,0,0:0:0:0:
320,192,53768,1,8,0:0:0:0:
448,192,53768,1,2,0:0:0:0:
192,192,53868,1,0,0:0:0:0:
320,192,53968,1,2,0:0:0:0:
192,192,54068,1,0,0:0:0:0:
64,192,54168,1,8,0:0:0:0:
448,192,54168,1,2,0:0:0:0:
64,192,54368,128,2,54668:0:0:0:0:
320,192,54368,1,0,0:0:0:0:
448,192,54368,1,0,0:0:0:0:
192,192,54668,1,0,0:0:0:0:
320,192,54768,1,2,0:0:0:0:
448,192,54768,1,0,0:0:0:0:
64,192,54868,1,0,0:0:0:0:
320,192,54968,1,10,0:0:0:0:
192,192,55068,1,0,0:0:0:0:
64,192,55168,1,2,0:0:0:0:
448,192,55168,1,0,0:0:0:0:
320,192,55368,1,8,0:0:0:0:
448,192,55368,1,2,0:0:0:0:
192,192,55468,1,0,0:0:0:0:
448,192,55568,1,2,0:0:0:0:
192,192,55668,1,0,0:0:0:0:
64,192,55768,1,8,0:0:0:0:
320,192,55768,1,2,0:0:0:0:
64,192,55968,1,2,0:0:0:0:
192,192,55968,1,0,0:0:0:0:
448,192,55968,1,0,0:0:0:0:
192,192,56168,1,2,0:0:0:0:
320,192,56168,1,8,0:0:0:0:
320,192,56368,1,2,0:0:0:0:
448,192,56368,1,0,0:0:0:0:
64,192,56568,1,2,0:0:0:0:
448,192,56568,1,8,0:0:0:0:
64,192,56768,1,2,0:0:0:0:
192,192,56768,1,0,0:0:0:0:
320,192,56968,1,2,0:0:0:0:
448,192,56968,1,8,0:0:0:0:
192,192,57068,1,0,0:0:0:0:
320,192,57168,1,2,0:0:0:0:
192,192,57268,1,0,0:0:0:0:
64,192,57368,1,2,0:0:0:0:
448,192,57368,1,8,0:0:0:0:
64,192,57568,1,2,0:0:0:0:
192,192,57568,1,0,0:0:0:0:
448,192,57568,1,0,0:0:0:0:
192,192,57768,1,2,0:0:0:0:
320,192,57768,1,8,0:0:0:0:
320,192,57968,1,2,0:0:0:0:
448,192,57968,1,0,0:0:0:0:
64,192,58168,1,2,0:0:0:0:
448,192,58168,1,8,0:0:0:0:
64,192,58368,1,2,0:0:0:0:
192,192,58368,1,0,0:0:0:0:
320,192,58568,1,2,0:0:0:0:
448,192,58568,1,8,0:0:0:0:
192,192,58668,1,0,0:0:0:0:
448,192,58768,1,2,0:0:0:0:
192,192,58868,1,0,0:0:0:0:
64,192,58968,1,2,0:0:0:0:
320,192,58968,1,8,0:0:0:0:
64,192,59168,1,2,0:0:0:0:
320,192,59168,1,0,0:0:0:0:
448,192,59168,1,0,0:0:0:0:
192,192,59368,1,2,0:0:0:0:
320,192,59368,1,8,0:0:0:0:
64,192,59568,1,2,0:0:0:0:
192,192,59568,1,0,0:0:0:0:
64,192,59768,1,8,0:0:0:0:
448,192,59768,1,2,0:0:0:0:
320,192,59968,1,2,0:0:0:0:
448,192,59968,1,0,0:0:0:0:
64,192,60168,1,8,0:0:0:0:
192,192,60168,1,2,0:0:0:0:
320,192,60268,1,0,0:0:0:0:
192,192,60368,1,2,0:0:0:0:
320,192,60468,1,0,0:0:0:0:
64,192,60568,1,8,0:0:0:0:
448,192,60568,1,2,0:0:0:0:
64,192,60768,1,2,0:0:0:0:
192,192,60768,1,0,0:0:0:0:
448,192,60768,1,0,0:0:0:0:
192,192,60968,1,8,0:0:0:0:
320,192,60968,1,2,0:0:0:0:
320,192,61168,1,2,0:0:0:0:
448,192,61168,1,0,0:0:0:0:
64,192,61368,1,8,0:0:0:0:
448,192,61368,1,2,0:0:0:0:
64,192,61568,1,2,0:0:0:0:
192,192,61568,1,0,0:0:0:0:
320,192,61768,1,8,0:0:0:0:
448,192,61768,1,2,0:0:0:0:
192,192,61868,1,0,0:0:0:0:
448,192,61968,1,2,0:0:0:0:
192,192,62068,1,0,0:0:0:0:
64,192,62168,1,8,0:0:0:0:
320,192,62168,1,2,0:0:0:0:
64,192,62368,1,2,0:0:0:0:
320,192,62368,1,4,0:0:0:0:
448,192,62368,1,0,0:0:0:100:D6H_s.wav
64,192,62668,1,0,0:0:0:100:D6H_s.wav
192,192,62668,1,0,0:0:0:0:
64,192,62968,1,0,0:0:0:100:D6H_s.wav
192,192,62968,1,0,0:0:0:0:
64,192,63168,1,0,0:0:0:100:C#6H_Db6H_s.wav
192,192,63168,1,0,0:0:0:0:
320,192,63301,1,0,0:0:0:100:C#6H_Db6H_s.wav
448,192,63434,1,0,0:0:0:100:C#6H_Db6H_s.wav
64,192,63568,1,0,0:0:0:100:C6H_s.wav
192,192,63701,1,0,0:0:0:100:A#5H_Bb5H_s.wav
320,192,63834,1,0,0:0:0:100:A5H_s.wav
64,192,63968,1,0,0:0:0:100:D6H_s.wav
192,192,63968,1,0,0:0:0:0:
448,192,64068,1,0,0:0:0:100:G5H_s.wav
320,192,64168,1,0,0:0:0:100:D5H_s.wav
64,192,64268,1,0,0:0:0:100:D6H_s.wav
448,192,64368,1,0,0:0:0:100:G5H_s.wav
320,192,64468,1,0,0:0:0:100:D5H_s.wav
192,192,64568,1,0,0:0:0:100:D6H_s.wav
320,192,64768,1,0,0:0:0:100:C#6H_Db6H_s.wav
448,192,64768,1,0,0:0:0:0:
192,192,64901,1,0,0:0:0:100:D6H_s.wav
320,192,65034,1,0,0:0:0:100:G6H_s.wav
64,192,65168,1,0,0:0:0:100:D6H_s.wav
448,192,65168,1,0,0:0:0:0:
64,192,65568,1,0,0:0:0:100:D6H_s.wav
192,192,65568,1,0,0:0:0:0:
448,192,65668,1,0,0:0:0:100:G5H_s.wav
320,192,65768,1,0,0:0:0:100:D5H_s.wav
192,192,65868,1,0,0:0:0:100:D6H_s.wav
448,192,65968,1,0,0:0:0:100:G5H_s.wav
64,192,66068,1,0,0:0:0:100:D5H_s.wav
320,192,66168,1,0,0:0:0:100:D6H_s.wav
448,192,66168,1,0,0:0:0:0:
64,192,66368,1,0,0:0:0:100:C#6H_Db6H_s.wav
192,192,66368,1,0,0:0:0:0:
320,192,66501,1,0,0:0:0:100:C#6H_Db6H_s.wav
448,192,66634,1,0,0:0:0:100:C#6H_Db6H_s.wav
64,192,66768,1,0,0:0:0:100:C6H_s.wav
192,192,66901,1,0,0:0:0:100:A#5H_Bb5H_s.wav
320,192,67034,1,0,0:0:0:100:A5H_s.wav
64,192,67168,1,0,0:0:0:100:D6H_s.wav
192,192,67168,1,0,0:0:0:0:
448,192,67268,1,0,0:0:0:100:G5H_s.wav
320,192,67368,1,0,0:0:0:100:D5H_s.wav
64,192,67468,1,0,0:0:0:100:D6H_s.wav
448,192,67568,1,0,0:0:0:100:G5H_s.wav
320,192,67668,1,0,0:0:0:100:D5H_s.wav
192,192,67768,1,0,0:0:0:100:D6H_s.wav
320,192,67968,1,0,0:0:0:100:C#6H_Db6H_s.wav
448,192,67968,1,0,0:0:0:0:
192,192,68101,1,0,0:0:0:100:D6H_s.wav
320,192,68234,1,0,0:0:0:100:F6H_s.wav
64,192,68368,1,0,0:0:0:100:G6H_s.wav
448,192,68368,1,0,0:0:0:0:
192,192,68468,1,0,0:0:0:100:D6H_s.wav
320,192,68568,1,0,0:0:0:100:C6H_s.wav
192,192,68668,1,0,0:0:0:100:A#5H_Bb5H_s.wav
320,192,68768,1,0,0:0:0:100:D6H_s.wav
448,192,68768,1,0,0:0:0:0:
64,192,68868,1,0,0:0:0:100:G5H_s.wav
192,192,68968,1,0,0:0:0:100:D5H_s.wav
448,192,69068,1,0,0:0:0:100:D6H_s.wav
64,192,69168,1,0,0:0:0:100:G5H_s.wav
320,192,69268,1,0,0:0:0:100:D5H_s.wav
192,192,69368,1,0,0:0:0:100:D6H_s.wav
320,192,69568,1,0,0:0:0:100:C#6H_Db6H_s.wav
448,192,69568,1,0,0:0:0:0:
192,192,69701,1,0,0:0:0:100:C#6H_Db6H_s.wav
64,192,69834,1,0,0:0:0:100:C#6H_Db6H_s.wav
448,192,69968,1,0,0:0:0:100:C6H_s.wav
320,192,70101,1,0,0:0:0:100:A#5H_Bb5H_s.wav
192,192,70234,1,0,0:0:0:100:A5H_s.wav
320,192,70368,1,0,0:0:0:100:D6H_s.wav
448,192,70368,1,0,0:0:0:0:
64,192,70468,1,0,0:0:0:100:G5H_s.wav
192,192,70568,1,0,0:0:0:100:D5H_s.wav
448,192,70668,1,0,0:0:0:100:D6H_s.wav
64,192,70768,1,0,0:0:0:100:G5H_s.wav
192,192,70868,1,0,0:0:0:100:D5H_s.wav
320,192,70968,1,0,0:0:0:100:D6H_s.wav
64,192,71168,1,0,0:0:0:100:C#6H_Db6H_s.wav
192,192,71168,1,0,0:0:0:0:
320,192,71301,1,0,0:0:0:100:D6H_s.wav
192,192,71434,1,0,0:0:0:100:G6H_s.wav
64,192,71568,1,0,0:0:0:100:D6H_s.wav
448,192,71568,1,0,0:0:0:0:
320,192,71968,1,0,0:0:0:100:D6H_s.wav
448,192,71968,1,0,0:0:0:0:
64,192,72068,1,0,0:0:0:100:G5H_s.wav
192,192,72168,1,0,0:0:0:100:D5H_s.wav
320,192,72268,1,0,0:0:0:100:D6H_s.wav
64,192,72368,1,0,0:0:0:100:G5H_s.wav
448,192,72468,1,0,0:0:0:100:D5H_s.wav
64,192,72568,1,0,0:0:0:100:D6H_s.wav
192,192,72568,1,0,0:0:0:0:
320,192,72768,1,0,0:0:0:100:C#6H_Db6H_s.wav
448,192,72768,1,0,0:0:0:0:
192,192,72901,1,0,0:0:0:100:C#6H_Db6H_s.wav
64,192,73034,1,0,0:0:0:100:C#6H_Db6H_s.wav
448,192,73168,1,0,0:0:0:100:C6H_s.wav
320,192,73301,1,0,0:0:0:100:A#5H_Bb5H_s.wav
192,192,73434,1,0,0:0:0:100:A5H_s.wav
320,192,73568,1,0,0:0:0:100:D6H_s.wav
448,192,73568,1,0,0:0:0:0:
64,192,73668,1,0,0:0:0:100:G5H_s.wav
192,192,73768,1,0,0:0:0:100:D5H_s.wav
448,192,73868,1,0,0:0:0:100:D6H_s.wav
64,192,73968,1,0,0:0:0:100:G5H_s.wav
192,192,74068,1,0,0:0:0:100:D5H_s.wav
320,192,74168,1,0,0:0:0:100:D6H_s.wav
64,192,74368,1,0,0:0:0:100:C#6H_Db6H_s.wav
192,192,74368,1,0,0:0:0:0:
320,192,74501,1,0,0:0:0:100:D6H_s.wav
192,192,74634,1,0,0:0:0:100:F6H_s.wav
64,192,74768,1,0,0:0:0:100:G6H_s.wav
448,192,74768,1,0,0:0:0:0:
64,192,75168,1,2,0:0:0:0:
320,192,75168,1,4,0:0:0:0:
448,192,75168,1,0,0:0:0:50:LR4_BassKickReverbXG.wav
64,192,76768,1,4,0:0:0:0:
192,192,76768,1,2,0:0:0:0:
448,192,76768,1,0,0:0:0:0:
320,192,76968,1,8,0:0:0:0:
448,192,76968,1,2,0:0:0:0:
64,192,77068,1,0,0:0:0:0:
192,192,77168,1,2,0:0:0:0:
320,192,77268,1,0,0:0:0:0:
64,192,77368,1,8,0:0:0:0:
448,192,77368,1,2,0:0:0:0:
64,192,77568,1,2,0:0:0:0:
192,192,77568,1,0,0:0:0:0:
320,192,77701,1,0,0:0:0:0:
64,192,77834,1,0,0:0:0:0:
320,192,77968,1,2,0:0:0:0:
448,192,77968,1,0,0:0:0:0:
192,192,78101,1,0,0:0:0:0:
320,192,78234,1,0,0:0:0:0:
64,192,78368,1,2,0:0:0:0:
448,192,78368,1,0,0:0:0:0:
192,192,78468,1,0,0:0:0:0:
320,192,78568,1,10,0:0:0:0:
64,192,78668,1,0,0:0:0:0:
192,192,78768,1,2,0:0:0:0:
320,192,78868,1,0,0:0:0:0:
64,192,78968,1,8,0:0:0:0:
448,192,78968,1,2,0:0:0:0:
64,192,79168,1,2,0:0:0:0:
192,192,79168,1,0,0:0:0:0:
320,192,79301,1,0,0:0:0:0:
192,192,79434,1,0,0:0:0:0:
64,192,79568,1,2,0:0:0:0:
448,192,79568,1,0,0:0:0:0:
192,192,79768,1,8,0:0:0:0:
320,192,79768,1,2,0:0:0:0:
64,192,79968,1,2,0:0:0:0:
448,192,79968,1,0,0:0:0:0:
320,192,80068,1,0,0:0:0:0:
192,192,80168,1,10,0:0:0:0:
448,192,80268,1,0,0:0:0:0:
320,192,80368,1,2,0:0:0:0:
192,192,80468,1,0,0:0:0:0:
64,192,80568,1,8,0:0:0:0:
448,192,80568,1,2,0:0:0:0:
64,192,80768,1,2,0:0:0:0:
192,192,80768,1,0,0:0:0:0:
320,192,80901,1,0,0:0:0:0:
64,192,81034,1,0,0:0:0:0:
320,192,81168,1,2,0:0:0:0:
448,192,81168,1,0,0:0:0:0:
192,192,81301,1,0,0:0:0:0:
320,192,81434,1,0,0:0:0:0:
64,192,81568,1,2,0:0:0:0:
448,192,81568,1,0,0:0:0:0:
192,192,81668,1,0,0:0:0:0:
320,192,81768,1,10,0:0:0:0:
64,192,81868,1,0,0:0:0:0:
192,192,81968,1,2,0:0:0:0:
320,192,82068,1,0,0:0:0:0:
64,192,82168,1,8,0:0:0:0:
448,192,82168,1,2,0:0:0:0:
64,192,82368,1,2,0:0:0:0:
192,192,82368,1,0,0:0:0:0:
320,192,82501,1,0,0:0:0:0:
192,192,82634,1,0,0:0:0:0:
64,192,82768,1,2,0:0:0:0:
448,192,82768,1,0,0:0:0:0:
320,192,82868,1,0,0:0:0:0:
192,192,82968,1,10,0:0:0:0:
320,192,83068,1,0,0:0:0:0:
64,192,83168,1,2,0:0:0:0:
192,192,83168,1,0,0:0:0:0:
320,192,83368,1,2,0:0:0:0:
448,192,83368,1,8,0:0:0:0:
64,192,83468,1,0,0:0:0:0:
192,192,83568,1,2,0:0:0:0:
320,192,83668,1,0,0:0:0:0:
64,192,83768,1,2,0:0:0:0:
448,192,83768,1,8,0:0:0:0:
64,192,83968,1,2,0:0:0:0:
192,192,83968,1,0,0:0:0:0:
320,192,84101,1,0,0:0:0:0:
64,192,84234,1,0,0:0:0:0:
320,192,84368,1,2,0:0:0:0:
448,192,84368,1,0,0:0:0:0:
192,192,84501,1,0,0:0:0:0:
320,192,84634,1,0,0:0:0:0:
64,192,84768,1,2,0:0:0:0:
448,192,84768,1,0,0:0:0:0:
192,192,84868,1,0,0:0:0:0:
320,192,84968,1,10,0:0:0:0:
64,192,85068,1,0,0:0:0:0:
192,192,85168,1,2,0:0:0:0:
320,192,85268,1,0,0:0:0:0:
64,192,85368,1,2,0:0:0:0:
448,192,85368,1,8,0:0:0:0:
64,192,85568,1,2,0:0:0:0:
192,192,85568,1,0,0:0:0:0:
320,192,85701,1,0,0:0:0:0:
192,192,85834,1,0,0:0:0:0:
64,192,85968,1,2,0:0:0:0:
448,192,85968,1,0,0:0:0:0:
192,192,86168,1,2,0:0:0:0:
320,192,86168,1,8,0:0:0:0:
64,192,86368,1,2,0:0:0:0:
448,192,86368,1,0,0:0:0:0:
320,192,86468,1,0,0:0:0:0:
192,192,86568,1,10,0:0:0:0:
448,192,86668,1,0,0:0:0:0:
320,192,86768,1,2,0:0:0:0:
192,192,86868,1,0,0:0:0:0:
64,192,86968,1,8,0:0:0:0:
448,192,86968,1,2,0:0:0:0:
64,192,87168,1,2,0:0:0:0:
192,192,87168,1,0,0:0:0:0:
320,192,87301,1,0,0:0:0:0:
64,192,87434,1,0,0:0:0:0:
320,192,87568,1,2,0:0:0:0:
448,192,87568,1,0,0:0:0:0:
192,192,87701,1,0,0:0:0:0:
320,192,87834,1,0,0:0:0:0:
64,192,87968,1,2,0:0:0:0:
448,192,87968,1,0,0:0:0:0:
192,192,88068,1,0,0:0:0:0:
320,192,88168,1,10,0:0:0:0:
64,192,88268,1,0,0:0:0:0:
192,192,88368,1,2,0:0:0:0:
320,192,88468,1,0,0:0:0:0:
64,192,88568,1,8,0:0:0:0:
448,192,88568,1,2,0:0:0:0:
64,192,88768,1,2,0:0:0:0:
192,192,88768,1,0,0:0:0:0:
320,192,88901,1,0,0:0:0:0:
192,192,89034,1,0,0:0:0:0:
64,192,89168,1,2,0:0:0:0:
448,192,89168,1,0,0:0:0:0:
192,192,89368,1,8,0:0:0:0:
320,192,89368,1,2,0:0:0:0:
64,192,89568,1,2,0:0:0:0:
320,192,89568,1,4,0:0:0:0:
448,192,89568,1,0,0:0:0:0:
192,192,89768,1,10,0:0:0:0:
320,192,89868,1,0,0:0:0:0:
64,192,89968,1,2,0:0:0:0:
192,192,89968,1,0,0:0:0:0:
320,192,90168,1,10,0:0:0:0:
192,192,90268,1,0,0:0:0:0:
320,192,90368,1,2,0:0:0:0:
448,192,90368,1,0,0:0:0:0:
192,192,90568,1,10,0:0:0:0:
64,192,90668,1,0,0:0:0:0:
320,192,90768,128,0,91568:0:0:0:0:
64,192,91568,1,4,0:0:0:0:
192,192,91568,1,2,0:0:0:0:
448,192,91568,1,0,0:0:0:0:
320,192,91768,1,8,0:0:0:0:
448,192,91768,1,2,0:0:0:0:
64,192,91868,1,0,0:0:0:0:
192,192,91968,1,2,0:0:0:0:
320,192,92068,1,0,0:0:0:0:
64,192,92168,1,8,0:0:0:0:
448,192,92168,1,2,0:0:0:0:
64,192,92368,1,2,0:0:0:0:
192,192,92368,1,0,0:0:0:0:
192,192,92501,1,0,0:0:0:0:
448,192,92634,1,0,0:0:0:0:
320,192,92768,1,2,0:0:0:0:
448,192,92768,1,0,0:0:0:0:
192,192,92901,1,0,0:0:0:0:
192,192,93034,1,0,0:0:0:0:
64,192,93168,1,2,0:0:0:0:
448,192,93168,1,0,0:0:0:0:
320,192,93268,1,0,0:0:0:0:
192,192,93368,1,10,0:0:0:0:
448,192,93468,1,0,0:0:0:0:
320,192,93568,1,2,0:0:0:0:
192,192,93668,1,0,0:0:0:0:
64,192,93768,1,8,0:0:0:0:
448,192,93768,1,2,0:0:0:0:
64,192,93968,1,2,0:0:0:0:
192,192,93968,1,0,0:0:0:0:
192,192,94101,1,0,0:0:0:0:
448,192,94234,1,0,0:0:0:0:
64,192,94368,1,2,0:0:0:0:
448,192,94368,1,0,0:0:0:0:
192,192,94568,1,8,0:0:0:0:
320,192,94568,1,2,0:0:0:0:
64,192,94768,1,2,0:0:0:0:
448,192,94768,1,0,0:0:0:0:
320,192,94868,1,0,0:0:0:0:
192,192,94968,1,10,0:0:0:0:
448,192,95068,1,0,0:0:0:0:
320,192,95168,1,2,0:0:0:0:
192,192,95268,1,0,0:0:0:0:
64,192,95368,1,8,0:0:0:0:
448,192,95368,1,2,0:0:0:0:
64,192,95568,1,2,0:0:0:0:
192,192,95568,1,0,0:0:0:0:
192,192,95701,1,0,0:0:0:0:
448,192,95834,1,0,0:0:0:0:
320,192,95968,1,2,0:0:0:0:
448,192,95968,1,0,0:0:0:0:
192,192,96101,1,0,0:0:0:0:
192,192,96234,1,0,0:0:0:0:
64,192,96368,1,2,0:0:0:0:
448,192,96368,1,0,0:0:0:0:
320,192,96468,1,0,0:0:0:0:
192,192,96568,1,10,0:0:0:0:
448,192,96668,1,0,0:0:0:0:
320,192,96768,1,2,0:0:0:0:
192,192,96868,1,0,0:0:0:0:
64,192,96968,1,8,0:0:0:0:
448,192,96968,1,2,0:0:0:0:
64,192,97168,1,2,0:0:0:0:
192,192,97168,1,0,0:0:0:0:
192,192,97301,1,0,0:0:0:0:
448,192,97434,1,0,0:0:0:0:
64,192,97568,1,2,0:0:0:0:
448,192,97568,1,0,0:0:0:0:
192,192,97768,1,8,0:0:0:0:
320,192,97768,1,2,0:0:0:0:
64,192,97968,1,2,0:0:0:0:
448,192,97968,1,0,0:0:0:0:
64,192,98168,1,2,0:0:0:0:
192,192,98168,1,8,0:0:0:0:
448,192,98268,1,0,0:0:0:0:
320,192,98368,1,2,0:0:0:0:
192,192,98468,1,0,0:0:0:0:
64,192,98568,1,2,0:0:0:0:
448,192,98568,1,8,0:0:0:0:
320,192,98768,1,2,0:0:0:0:
448,192,98768,1,0,0:0:0:0:
320,192,98901,1,0,0:0:0:0:
64,192,99034,1,0,0:0:0:0:
64,192,99168,1,2,0:0:0:0:
192,192,99168,1,0,0:0:0:0:
320,192,99301,1,0,0:0:0:0:
320,192,99434,1,0,0:0:0:0:
64,192,99568,1,2,0:0:0:0:
448,192,99568,1,0,0:0:0:0:
192,192,99668,1,0,0:0:0:0:
320,192,99768,1,10,0:0:0:0:
64,192,99868,1,0,0:0:0:0:
192,192,99968,1,2,0:0:0:0:
320,192,100068,1,0,0:0:0:0:
64,192,100168,1,2,0:0:0:0:
448,192,100168,1,8,0:0:0:0:
320,192,100368,1,2,0:0:0:0:
448,192,100368,1,0,0:0:0:0:
320,192,100501,1,0,0:0:0:0:
64,192,100634,1,0,0:0:0:0:
64,192,100768,1,2,0:0:0:0:
448,192,100768,1,0,0:0:0:0:
192,192,100968,1,2,0:0:0:0:
320,192,100968,1,8,0:0:0:0:
64,192,101168,1,2,0:0:0:0:
448,192,101168,1,0,0:0:0:0:
192,192,101268,1,0,0:0:0:0:
320,192,101368,1,10,0:0:0:0:
64,192,101468,1,0,0:0:0:0:
192,192,101568,1,2,0:0:0:0:
320,192,101668,1,0,0:0:0:0:
64,192,101768,1,8,0:0:0:0:
448,192,101768,1,2,0:0:0:0:
320,192,101968,1,2,0:0:0:0:
448,192,101968,1,0,0:0:0:0:
320,192,102101,1,0,0:0:0:0:
64,192,102234,1,0,0:0:0:0:
64,192,102368,1,2,0:0:0:0:
192,192,102368,1,0,0:0:0:0:
320,192,102501,1,0,0:0:0:0:
320,192,102634,1,0,0:0:0:0:
64,192,102768,1,2,0:0:0:0:
448,192,102768,1,0,0:0:0:0:
192,192,102868,1,0,0:0:0:0:
320,192,102968,1,10,0:0:0:0:
64,192,103068,1,0,0:0:0:0:
192,192,103168,1,2,0:0:0:0:
320,192,103268,1,0,0:0:0:0:
64,192,103368,1,8,0:0:0:0:
448,192,103368,1,2,0:0:0:0:
320,192,103568,1,2,0:0:0:0:
448,192,103568,1,0,0:0:0:0:
192,192,103768,1,10,0:0:0:0:
320,192,103868,1,0,0:0:0:0:
64,192,103968,1,2,0:0:0:0:
448,192,103968,1,0,0:0:0:0:
192,192,104168,1,8,0:0:0:0:
320,192,104168,1,2,0:0:0:0:
64,192,104368,1,2,0:0:0:0:
192,192,104368,1,0,0:0:0:50:LR4_BassKickReverbXG.wav
448,192,104368,128,0,104968:0:0:0:100:G5H.wav
64,192,104968,128,0,105168:0:0:0:100:C6H_s.wav
320,192,105168,128,0,105368:0:0:0:100:A5H_s.wav
64,192,105368,1,0,0:0:0:100:A5H_s.wav
192,192,105468,1,0,0:0:0:100:A#5H_Bb5H_s.wav
448,192,105568,1,0,0:0:0:100:A5H_s.wav
320,192,105668,1,0,0:0:0:100:G5H_s.wav
192,192,105768,128,0,105968:0:0:0:100:F5H_s.wav
320,192,105968,128,0,107568:0:0:0:100:G5H.wav
64,192,107568,1,2,0:0:0:0:
192,192,107568,1,4,0:0:0:0:
448,192,107568,1,0,0:0:0:0:
320,192,107853,1,2,0:0:0:0:
448,192,107853,1,8,0:0:0:0:
192,192,108139,1,2,0:0:0:0:
320,192,108282,1,0,0:0:0:0:
64,192,108425,1,2,0:0:0:0:
192,192,108425,1,8,0:0:0:0:
448,192,108575,1,8,0:0:0:0:
192,192,108762,1,2,0:0:0:0:
320,192,108762,1,0,0:0:0:0:
64,192,108962,1,8,0:0:0:0:
448,192,108962,1,2,0:0:0:0:
192,192,109262,1,2,0:0:0:0:
320,192,109262,1,0,0:0:0:0:
320,192,109512,1,2,0:0:0:0:
448,192,109512,1,8,0:0:0:0:
64,192,109762,1,2,0:0:0:0:
192,192,109762,1,0,0:0:0:0:
448,192,109842,1,0,0:0:0:0:
320,192,110002,1,10,0:0:0:0:
192,192,110122,1,0,0:0:0:0:
320,192,110242,1,2,0:0:0:0:
448,192,110242,1,0,0:0:0:0:
192,192,110482,1,8,0:0:0:0:
320,192,110482,1,2,0:0:0:0:
192,192,110763,1,2,0:0:0:0:
320,192,110763,1,0,0:0:0:0:
64,192,110977,1,2,0:0:0:0:
192,192,110977,1,8,0:0:0:0:
320,192,111199,1,2,0:0:0:0:
448,192,111199,1,0,0:0:0:0:
64,192,111421,1,8,0:0:0:0:
448,192,111421,1,2,0:0:0:0:
64,192,111643,1,2,0:0:0:0:
192,192,111643,1,0,0:0:0:0:
320,192,111758,1,0,0:0:0:0:
64,192,111873,1,10,0:0:0:0:
192,192,111984,1,0,0:0:0:0:
320,192,112095,1,2,0:0:0:0:
448,192,112095,1,0,0:0:0:0:
192,192,112210,1,0,0:0:0:0:
448,192,112325,1,10,0:0:0:0:
320,192,112441,1,0,0:0:0:0:
64,192,112556,1,2,0:0:0:0:
192,192,112556,1,0,0:0:0:0:
192,192,112770,1,2,0:0:0:0:
320,192,112770,1,8,0:0:0:0:
320,192,113010,1,2,0:0:0:0:
448,192,113010,1,0,0:0:0:0:
64,192,113210,1,2,0:0:0:0:
192,192,113210,1,8,0:0:0:0:
320,192,113440,1,2,0:0:0:0:
448,192,113440,1,0,0:0:0:0:
192,192,113551,1,0,0:0:0:0:
64,192,113662,1,10,0:0:0:0:
320,192,113773,1,0,0:0:0:0:
192,192,113884,1,2,0:0:0:0:
448,192,113884,1,0,0:0:0:0:
192,192,114098,1,8,0:0:0:0:
64,192,114098,1,2,0:0:0:0:
320,192,114312,1,2,0:0:0:0:
448,192,114312,1,0,0:0:0:0:
192,192,114534,1,2,0:0:0:0:
448,192,114534,1,8,0:0:0:0:
64,192,114756,1,2,0:0:0:0:
192,192,114756,1,0,0:0:0:0:
192,192,114986,1,2,0:0:0:0:
448,192,114986,1,8,0:0:0:0:
320,192,115226,1,2,0:0:0:0:
448,192,115226,1,0,0:0:0:0:
192,192,115341,1,0,0:0:0:0:
64,192,115456,1,10,0:0:0:0:
448,192,115572,1,0,0:0:0:0:
192,192,115687,1,2,0:0:0:0:
320,192,115802,1,0,0:0:0:0:
64,192,115918,1,2,0:0:0:0:
448,192,115918,1,8,0:0:0:0:
64,192,116149,1,2,0:0:0:0:
320,192,116149,1,0,0:0:0:0:
448,192,116389,1,8,0:0:0:0:
320,192,116389,1,2,0:0:0:0:
64,192,116610,1,2,0:0:0:0:
448,192,116610,1,0,0:0:0:0:
64,192,116860,1,2,0:0:0:0:
192,192,116860,1,8,0:0:0:0:
192,192,117082,1,2,0:0:0:0:
448,192,117082,1,0,0:0:0:0:
320,192,117202,1,0,0:0:0:0:
64,192,117322,1,10,0:0:0:0:
448,192,117442,1,0,0:0:0:0:
64,192,117562,1,2,0:0:0:0:
320,192,117562,1,0,0:0:0:0:
320,192,117834,1,2,0:0:0:0:
448,192,117834,1,8,0:0:0:0:
64,192,118134,1,2,0:0:0:0:
192,192,118134,1,0,0:0:0:0:
320,192,118265,1,2,0:0:0:0:
320,192,118465,1,2,0:0:0:0:
448,192,118465,1,8,0:0:0:0:
64,192,118725,1,2,0:0:0:0:
192,192,118725,1,0,0:0:0:0:
64,192,118956,1,2,0:0:0:0:
448,192,118956,1,8,0:0:0:0:
320,192,119206,1,2,0:0:0:0:
448,192,119206,1,0,0:0:0:0:
192,192,119342,1,0,0:0:0:0:
64,192,119478,1,10,0:0:0:0:
320,192,119615,1,0,0:0:0:0:
448,192,119751,1,2,0:0:0:0:
64,192,119871,1,2,0:0:0:0:
192,192,120058,1,2,0:0:0:0:
320,192,120058,1,8,0:0:0:0:
320,192,120308,1,2,0:0:0:0:
448,192,120308,1,0,0:0:0:0:
320,192,120593,1,2,0:0:0:0:
192,192,120593,1,8,0:0:0:0:
64,192,120879,1,2,0:0:0:0:
448,192,120879,1,0,0:0:0:0:
192,192,121155,1,2,0:0:0:0:
448,192,121155,1,8,0:0:0:0:
64,192,121404,1,2,0:0:0:0:
192,192,121404,1,0,0:0:0:0:
320,192,121540,1,0,0:0:0:0:
192,192,121676,1,10,0:0:0:0:
320,192,121961,1,2,0:0:0:0:
448,192,121961,1,0,0:0:0:0:
192,192,122261,1,2,0:0:0:0:
320,192,122261,1,8,0:0:0:0:
64,192,122636,1,2,0:0:0:0:
192,192,122636,1,0,0:0:0:0:
320,192,122766,1,2,0:0:0:0:
448,192,122962,1,10,0:0:0:0:
64,192,123157,1,2,0:0:0:0:
192,192,123157,1,0,0:0:0:0:
192,192,123363,1,8,0:0:0:0:
320,192,123363,1,2,0:0:0:0:
64,192,123570,1,6,0:0:0:0:
448,192,123570,1,0,0:0:0:100:D6H_s.wav
320,192,123870,1,0,0:0:0:100:D6H_s.wav
448,192,123870,1,0,0:0:0:0:
320,192,124170,1,0,0:0:0:100:D6H_s.wav
448,192,124170,1,0,0:0:0:0:
320,192,124370,1,0,0:0:0:100:C#6H_Db6H_s.wav
448,192,124370,1,0,0:0:0:0:
64,192,124503,1,0,0:0:0:100:C#6H_Db6H_s.wav
192,192,124636,1,0,0:0:0:100:C#6H_Db6H_s.wav
448,192,124770,1,0,0:0:0:100:C6H_s.wav
320,192,124903,1,0,0:0:0:100:A#5H_Bb5H_s.wav
192,192,125036,1,0,0:0:0:100:A5H_s.wav
320,192,125170,1,0,0:0:0:100:D6H_s.wav
448,192,125170,1,0,0:0:0:0:
64,192,125270,1,0,0:0:0:100:G5H_s.wav
192,192,125370,1,0,0:0:0:100:D5H_s.wav
448,192,125470,1,0,0:0:0:100:D6H_s.wav
64,192,125570,1,0,0:0:0:100:G5H_s.wav
192,192,125670,1,0,0:0:0:100:D5H_s.wav
320,192,125770,1,0,0:0:0:100:D6H_s.wav
64,192,125970,1,0,0:0:0:100:C#6H_Db6H_s.wav
192,192,125970,1,0,0:0:0:0:
320,192,126103,1,0,0:0:0:100:D6H_s.wav
192,192,126236,1,0,0:0:0:100:G6H_s.wav
64,192,126370,1,0,0:0:0:100:D6H_s.wav
448,192,126370,1,0,0:0:0:0:
320,192,126770,1,0,0:0:0:100:D6H_s.wav
448,192,126770,1,0,0:0:0:0:
64,192,126870,1,0,0:0:0:100:G5H_s.wav
192,192,126970,1,0,0:0:0:100:D5H_s.wav
320,192,127070,1,0,0:0:0:100:D6H_s.wav
64,192,127170,1,0,0:0:0:100:G5H_s.wav
448,192,127270,1,0,0:0:0:100:D5H_s.wav
64,192,127370,1,0,0:0:0:100:D6H_s.wav
192,192,127370,1,0,0:0:0:0:
320,192,127570,1,0,0:0:0:100:C#6H_Db6H_s.wav
448,192,127570,1,0,0:0:0:0:
192,192,127703,1,0,0:0:0:100:C#6H_Db6H_s.wav
64,192,127836,1,0,0:0:0:100:C#6H_Db6H_s.wav
448,192,127970,1,0,0:0:0:100:C6H_s.wav
320,192,128103,1,0,0:0:0:100:A#5H_Bb5H_s.wav
192,192,128236,1,0,0:0:0:100:A5H_s.wav
320,192,128370,1,0,0:0:0:100:D6H_s.wav
448,192,128370,1,0,0:0:0:0:
64,192,128470,1,0,0:0:0:100:G5H_s.wav
192,192,128570,1,0,0:0:0:100:D5H_s.wav
448,192,128670,1,0,0:0:0:100:D6H_s.wav
64,192,128770,1,0,0:0:0:100:G5H_s.wav
192,192,128870,1,0,0:0:0:100:D5H_s.wav
320,192,128970,1,0,0:0:0:100:D6H_s.wav
64,192,129170,1,0,0:0:0:100:C#6H_Db6H_s.wav
192,192,129170,1,0,0:0:0:0:
320,192,129303,1,0,0:0:0:100:D6H_s.wav
192,192,129436,1,0,0:0:0:100:F6H_s.wav
64,192,129570,1,0,0:0:0:100:G6H_s.wav
448,192,129570,1,0,0:0:0:0:
320,192,129670,1,0,0:0:0:100:D6H_s.wav
192,192,129770,1,0,0:0:0:100:C6H_s.wav
320,192,129870,1,0,0:0:0:100:A#5H_Bb5H_s.wav
64,192,129970,1,0,0:0:0:100:D6H_s.wav
192,192,129970,1,0,0:0:0:0:
448,192,130070,1,0,0:0:0:100:G5H_s.wav
320,192,130170,1,0,0:0:0:100:D5H_s.wav
64,192,130270,1,0,0:0:0:100:D6H_s.wav
448,192,130370,1,0,0:0:0:100:G5H_s.wav
192,192,130470,1,0,0:0:0:100:D5H_s.wav
320,192,130570,1,0,0:0:0:100:D6H_s.wav
64,192,130770,1,0,0:0:0:100:C#6H_Db6H_s.wav
192,192,130770,1,0,0:0:0:0:
320,192,130903,1,0,0:0:0:100:C#6H_Db6H_s.wav
448,192,131036,1,0,0:0:0:100:C#6H_Db6H_s.wav
64,192,131170,1,0,0:0:0:100:C6H_s.wav
192,192,131303,1,0,0:0:0:100:A#5H_Bb5H_s.wav
320,192,131436,1,0,0:0:0:100:A5H_s.wav
64,192,131570,1,0,0:0:0:100:D6H_s.wav
192,192,131570,1,0,0:0:0:0:
448,192,131670,1,0,0:0:0:100:G5H_s.wav
320,192,131770,1,0,0:0:0:100:D5H_s.wav
64,192,131870,1,0,0:0:0:100:D6H_s.wav
448,192,131970,1,0,0:0:0:100:G5H_s.wav
320,192,132070,1,0,0:0:0:100:D5H_s.wav
192,192,132170,1,0,0:0:0:100:D6H_s.wav
320,192,132370,1,0,0:0:0:100:C#6H_Db6H_s.wav
448,192,132370,1,0,0:0:0:0:
192,192,132503,1,0,0:0:0:100:D6H_s.wav
320,192,132636,1,0,0:0:0:100:G6H_s.wav
64,192,132770,1,0,0:0:0:100:D6H_s.wav
448,192,132770,1,0,0:0:0:0:
64,192,133170,1,0,0:0:0:100:D6H_s.wav
192,192,133170,1,0,0:0:0:0:
448,192,133270,1,0,0:0:0:100:G5H_s.wav
320,192,133370,1,0,0:0:0:100:D5H_s.wav
192,192,133470,1,0,0:0:0:100:D6H_s.wav
448,192,133570,1,0,0:0:0:100:G5H_s.wav
64,192,133670,1,0,0:0:0:100:D5H_s.wav
320,192,133770,1,0,0:0:0:100:D6H_s.wav
448,192,133770,1,0,0:0:0:0:
64,192,133970,1,0,0:0:0:100:C#6H_Db6H_s.wav
192,192,133970,1,0,0:0:0:0:
320,192,134103,1,0,0:0:0:100:C#6H_Db6H_s.wav
448,192,134236,1,0,0:0:0:100:C#6H_Db6H_s.wav
64,192,134370,1,0,0:0:0:100:C6H_s.wav
192,192,134503,1,0,0:0:0:100:A#5H_Bb5H_s.wav
320,192,134636,1,0,0:0:0:100:A5H_s.wav
64,192,134770,1,0,0:0:0:100:D6H_s.wav
192,192,134770,1,0,0:0:0:0:
448,192,134870,1,0,0:0:0:100:G5H_s.wav
320,192,134970,1,0,0:0:0:100:D5H_s.wav
64,192,135070,1,0,0:0:0:100:D6H_s.wav
448,192,135170,1,0,0:0:0:100:G5H_s.wav
320,192,135270,1,0,0:0:0:100:D5H_s.wav
192,192,135370,1,0,0:0:0:100:D6H_s.wav
320,192,135570,1,0,0:0:0:100:C#6H_Db6H_s.wav
448,192,135570,1,0,0:0:0:0:
192,192,135703,1,0,0:0:0:100:D6H_s.wav
320,192,135836,1,0,0:0:0:100:F6H_s.wav
64,192,135970,1,0,0:0:0:100:G6H_s.wav
448,192,135970,1,0,0:0:0:0:
64,192,136370,1,2,0:0:0:0:
192,192,136370,1,4,0:0:0:0:
448,192,136370,1,0,0:0:0:0:
320,192,136570,1,2,0:0:0:0:
192,192,136670,1,2,0:0:0:0:
320,192,136770,1,2,0:0:0:0:
448,192,136770,1,0,0:0:0:0:
64,192,136870,1,2,0:0:0:0:
192,192,136970,1,2,0:0:0:0:
320,192,137070,1,2,0:0:0:0:
64,192,137170,1,2,0:0:0:0:
448,192,137170,1,0,0:0:0:0:
64,192,137370,1,2,0:0:0:0:
192,192,137470,1,2,0:0:0:0:
320,192,137570,1,2,0:0:0:0:
448,192,137570,1,0,0:0:0:0:
192,192,137670,1,2,0:0:0:0:
448,192,137770,1,2,0:0:0:0:
192,192,137870,1,2,0:0:0:0:
64,192,137970,1,2,0:0:0:0:
448,192,137970,1,0,0:0:0:0:
320,192,138170,1,2,0:0:0:0:
192,192,138270,1,2,0:0:0:0:
320,192,138370,1,2,0:0:0:0:
448,192,138370,1,0,0:0:0:0:
64,192,138470,1,2,0:0:0:0:
192,192,138570,1,2,0:0:0:0:
320,192,138670,1,2,0:0:0:0:
64,192,138770,1,2,0:0:0:0:
448,192,138770,1,0,0:0:0:0:
64,192,138970,1,2,0:0:0:0:
192,192,139070,1,2,0:0:0:0:
320,192,139170,1,2,0:0:0:0:
448,192,139170,1,0,0:0:0:0:
64,192,139270,1,2,0:0:0:0:
448,192,139370,1,2,0:0:0:0:
64,192,139470,1,2,0:0:0:0:
320,192,139570,1,2,0:0:0:0:
448,192,139570,1,0,0:0:0:0:
192,192,139770,1,2,0:0:0:0:
320,192,139870,1,2,0:0:0:0:
64,192,139970,1,2,0:0:0:0:
192,192,139970,1,0,0:0:0:0:
448,192,140070,1,2,0:0:0:0:
320,192,140170,1,2,0:0:0:0:
192,192,140270,1,2,0:0:0:0:
64,192,140370,1,2,0:0:0:0:
448,192,140370,1,0,0:0:0:0:
448,192,140570,1,2,0:0:0:0:
320,192,140670,1,2,0:0:0:0:
64,192,140770,1,2,0:0:0:0:
192,192,140770,1,0,0:0:0:0:
320,192,140870,1,2,0:0:0:0:
64,192,140970,1,2,0:0:0:0:
320,192,141070,1,2,0:0:0:0:
64,192,141170,1,2,0:0:0:0:
448,192,141170,1,0,0:0:0:0:
192,192,141370,1,2,0:0:0:0:
320,192,141470,1,2,0:0:0:0:
448,192,141470,1,0,0:0:0:0:
64,192,141570,1,2,0:0:0:0:
192,192,141670,1,2,0:0:0:0:
320,192,141770,1,2,0:0:0:0:
448,192,141770,1,0,0:0:0:0:
64,192,141870,1,2,0:0:0:0:
192,192,141970,1,2,0:0:0:0:
320,192,142070,1,2,0:0:0:0:
448,192,142070,1,0,0:0:0:0:
64,192,142170,1,2,0:0:0:0:
320,192,142270,1,2,0:0:0:0:
192,192,142370,1,2,0:0:0:0:
448,192,142470,1,2,0:0:0:0:
64,192,142570,1,2,0:0:0:0:
448,192,142670,1,2,0:0:0:0:
64,192,142770,1,2,0:0:0:0:
192,192,142770,1,0,0:0:0:0:
320,192,142970,1,2,0:0:0:0:
192,192,143070,1,2,0:0:0:0:
320,192,143170,1,2,0:0:0:0:
448,192,143170,1,0,0:0:0:0:
64,192,143270,1,2,0:0:0:0:
192,192,143370,1,2,0:0:0:0:
320,192,143470,1,2,0:0:0:0:
64,192,143570,1,2,0:0:0:0:
448,192,143570,1,0,0:0:0:0:
64,192,143770,1,2,0:0:0:0:
192,192,143870,1,2,0:0:0:0:
320,192,143970,1,2,0:0:0:0:
448,192,143970,1,0,0:0:0:0:
192,192,144070,1,2,0:0:0:0:
448,192,144170,1,2,0:0:0:0:
192,192,144270,1,2,0:0:0:0:
64,192,144370,1,2,0:0:0:0:
448,192,144370,1,0,0:0:0:0:
320,192,144570,1,2,0:0:0:0:
192,192,144670,1,2,0:0:0:0:
320,192,144770,1,2,0:0:0:0:
448,192,144770,1,0,0:0:0:0:
64,192,144870,1,2,0:0:0:0:
192,192,144970,1,2,0:0:0:0:
320,192,145070,1,2,0:0:0:0:
64,192,145170,1,2,0:0:0:0:
448,192,145170,1,0,0:0:0:0:
64,192,145370,1,2,0:0:0:0:
192,192,145470,1,2,0:0:0:0:
320,192,145570,1,2,0:0:0:0:
448,192,145570,1,0,0:0:0:0:
64,192,145670,1,2,0:0:0:0:
448,192,145770,1,2,0:0:0:0:
64,192,145870,1,2,0:0:0:0:
320,192,145970,1,2,0:0:0:0:
448,192,145970,1,0,0:0:0:0:
192,192,146170,1,2,0:0:0:0:
320,192,146270,1,2,0:0:0:0:
64,192,146370,1,2,0:0:0:0:
192,192,146370,1,0,0:0:0:0:
448,192,146470,1,2,0:0:0:0:
320,192,146570,1,2,0:0:0:0:
192,192,146670,1,2,0:0:0:0:
64,192,146770,1,2,0:0:0:0:
448,192,146770,1,0,0:0:0:0:
448,192,146970,1,2,0:0:0:0:
320,192,147070,1,2,0:0:0:0:
64,192,147170,1,2,0:0:0:0:
192,192,147170,1,0,0:0:0:0:
320,192,147270,1,2,0:0:0:0:
64,192,147370,1,2,0:0:0:0:
320,192,147470,1,2,0:0:0:0:
64,192,147570,1,2,0:0:0:0:
448,192,147570,1,0,0:0:0:0:
192,192,147770,1,2,0:0:0:0:
320,192,147870,1,2,0:0:0:0:
64,192,147970,1,2,0:0:0:0:
192,192,147970,1,0,0:0:0:0:
448,192,148070,1,2,0:0:0:0:
320,192,148170,1,2,0:0:0:0:
192,192,148270,1,2,0:0:0:0:
64,192,148370,1,2,0:0:0:0:
448,192,148370,1,0,0:0:0:0:
448,192,148570,1,2,0:0:0:0:
320,192,148670,1,2,0:0:0:0:
64,192,148770,1,2,0:0:0:0:
192,192,148770,1,0,0:0:0:0:
448,192,148870,1,2,0:0:0:0:
64,192,148970,1,2,0:0:0:0:
320,192,149070,1,2,0:0:0:0:
64,192,149170,1,4,0:0:0:0:
192,192,149170,1,2,0:0:0:0:
448,192,149170,1,0,0:0:0:0:
320,192,149370,1,10,0:0:0:0:
192,192,149470,1,2,0:0:0:0:
320,192,149570,1,2,0:0:0:0:
448,192,149570,1,0,0:0:0:0:
64,192,149670,1,2,0:0:0:0:
192,192,149770,1,10,0:0:0:0:
320,192,149870,1,2,0:0:0:0:
64,192,149970,1,2,0:0:0:0:
448,192,149970,1,0,0:0:0:0:
192,192,150070,1,2,0:0:0:0:
320,192,150170,1,10,0:0:0:0:
64,192,150270,1,2,0:0:0:0:
448,192,150370,1,2,0:0:0:0:
192,192,150470,1,2,0:0:0:0:
320,192,150570,1,8,0:0:0:0:
448,192,150570,1,2,0:0:0:0:
64,192,150770,1,2,0:0:0:0:
448,192,150770,1,0,0:0:0:0:
320,192,150970,1,10,0:0:0:0:
192,192,151070,1,2,0:0:0:0:
320,192,151170,1,2,0:0:0:0:
448,192,151170,1,0,0:0:0:0:
64,192,151270,1,2,0:0:0:0:
192,192,151370,1,10,0:0:0:0:
320,192,151470,1,2,0:0:0:0:
64,192,151570,1,2,0:0:0:0:
448,192,151570,1,0,0:0:0:0:
192,192,151670,1,2,0:0:0:0:
320,192,151770,1,10,0:0:0:0:
192,192,151870,1,2,0:0:0:0:
448,192,151970,1,2,0:0:0:0:
64,192,152070,1,2,0:0:0:0:
320,192,152170,1,8,0:0:0:0:
448,192,152170,1,2,0:0:0:0:
64,192,152370,1,2,0:0:0:0:
448,192,152370,1,0,0:0:0:0:
192,192,152570,1,10,0:0:0:0:
320,192,152670,1,2,0:0:0:0:
64,192,152770,1,2,0:0:0:0:
192,192,152770,1,0,0:0:0:0:
448,192,152870,1,2,0:0:0:0:
320,192,152970,1,10,0:0:0:0:
192,192,153070,1,2,0:0:0:0:
64,192,153170,1,2,0:0:0:0:
448,192,153170,1,0,0:0:0:0:
320,192,153270,1,2,0:0:0:0:
192,192,153370,1,10,0:0:0:0:
448,192,153470,1,2,0:0:0:0:
64,192,153570,1,2,0:0:0:0:
320,192,153670,1,2,0:0:0:0:
64,192,153770,1,8,0:0:0:0:
192,192,153770,1,2,0:0:0:0:
64,192,153970,1,2,0:0:0:0:
448,192,153970,1,0,0:0:0:0:
192,192,154170,1,10,0:0:0:0:
320,192,154270,1,2,0:0:0:0:
448,192,154270,1,0,0:0:0:0:
64,192,154370,1,2,0:0:0:0:
192,192,154470,1,2,0:0:0:0:
320,192,154570,1,8,0:0:0:0:
448,192,154570,1,2,0:0:0:0:
64,192,154670,1,2,0:0:0:0:
192,192,154770,1,2,0:0:0:0:
320,192,154870,1,2,0:0:0:0:
448,192,154870,1,0,0:0:0:0:
64,192,154970,1,10,0:0:0:0:
320,192,155070,1,2,0:0:0:0:
192,192,155170,1,2,0:0:0:0:
448,192,155270,1,2,0:0:0:0:
64,192,155370,1,10,0:0:0:0:
448,192,155470,1,2,0:0:0:0:
64,192,155570,1,2,0:0:0:0:
192,192,155570,1,0,0:0:0:0:
320,192,155770,1,10,0:0:0:0:
192,192,155870,1,2,0:0:0:0:
320,192,155970,1,2,0:0:0:0:
448,192,155970,1,0,0:0:0:0:
64,192,156070,1,2,0:0:0:0:
192,192,156170,1,10,0:0:0:0:
320,192,156270,1,2,0:0:0:0:
64,192,156370,1,2,0:0:0:0:
448,192,156370,1,0,0:0:0:0:
192,192,156470,1,2,0:0:0:0:
320,192,156570,1,10,0:0:0:0:
64,192,156670,1,2,0:0:0:0:
448,192,156770,1,2,0:0:0:0:
192,192,156870,1,2,0:0:0:0:
320,192,156970,1,2,0:0:0:0:
448,192,156970,1,8,0:0:0:0:
64,192,157170,1,2,0:0:0:0:
448,192,157170,1,0,0:0:0:0:
320,192,157370,1,10,0:0:0:0:
192,192,157470,1,2,0:0:0:0:
320,192,157570,1,2,0:0:0:0:
448,192,157570,1,0,0:0:0:0:
64,192,157670,1,2,0:0:0:0:
192,192,157770,1,10,0:0:0:0:
320,192,157870,1,2,0:0:0:0:
64,192,157970,1,2,0:0:0:0:
448,192,157970,1,0,0:0:0:0:
192,192,158070,1,2,0:0:0:0:
320,192,158170,1,10,0:0:0:0:
192,192,158270,1,2,0:0:0:0:
448,192,158370,1,2,0:0:0:0:
64,192,158470,1,2,0:0:0:0:
320,192,158570,1,2,0:0:0:0:
448,192,158570,1,8,0:0:0:0:
64,192,158770,1,2,0:0:0:0:
448,192,158770,1,0,0:0:0:0:
192,192,158970,1,10,0:0:0:0:
320,192,159070,1,2,0:0:0:0:
64,192,159170,1,2,0:0:0:0:
192,192,159170,1,0,0:0:0:0:
448,192,159270,1,2,0:0:0:0:
320,192,159370,1,10,0:0:0:0:
192,192,159470,1,2,0:0:0:0:
64,192,159570,1,2,0:0:0:0:
448,192,159570,1,0,0:0:0:0:
320,192,159670,1,2,0:0:0:0:
192,192,159770,1,10,0:0:0:0:
320,192,159870,1,2,0:0:0:0:
64,192,159970,1,2,0:0:0:0:
320,192,160070,1,2,0:0:0:0:
64,192,160170,1,8,0:0:0:0:
192,192,160170,1,2,0:0:0:0:
64,192,160370,1,2,0:0:0:0:
448,192,160370,1,0,0:0:0:0:
192,192,160570,1,10,0:0:0:0:
320,192,160670,1,2,0:0:0:0:
64,192,160770,1,2,0:0:0:0:
192,192,160770,1,0,0:0:0:0:
448,192,160870,1,2,0:0:0:0:
320,192,160970,1,10,0:0:0:0:
192,192,161070,1,2,0:0:0:0:
64,192,161170,1,2,0:0:0:0:
448,192,161170,1,0,0:0:0:0:
320,192,161270,1,2,0:0:0:0:
192,192,161370,1,10,0:0:0:0:
320,192,161470,1,2,0:0:0:0:
64,192,161570,1,2,0:0:0:0:
448,192,161670,1,2,0:0:0:0:
64,192,161770,1,8,0:0:0:0:
192,192,161770,1,2,0:0:0:0:
64,192,161970,1,4,0:0:0:0:
320,192,161970,1,2,0:0:0:0:
448,192,161970,1,0,0:0:0:0:
192,192,162170,1,10,0:0:0:0:
448,192,162270,1,2,0:0:0:0:
320,192,162370,1,2,0:0:0:0:
192,192,162470,1,2,0:0:0:0:
64,192,162570,1,8,0:0:0:0:
448,192,162570,1,2,0:0:0:0:
320,192,162770,1,2,0:0:0:0:
448,192,162770,1,0,0:0:0:0:
64,192,162903,1,0,0:0:0:0:
192,192,162903,1,0,0:0:0:0:
448,192,163036,1,0,0:0:0:0:
64,192,163170,1,2,0:0:0:0:
192,192,163170,1,0,0:0:0:0:
320,192,163303,1,0,0:0:0:0:
448,192,163303,1,0,0:0:0:0:
192,192,163436,1,0,0:0:0:0:
64,192,163570,1,2,0:0:0:0:
320,192,163570,1,0,0:0:0:0:
448,192,163570,1,0,0:0:0:0:
192,192,163770,1,10,0:0:0:0:
448,192,163870,1,2,0:0:0:0:
320,192,163970,1,2,0:0:0:0:
192,192,164070,1,2,0:0:0:0:
64,192,164170,1,8,0:0:0:0:
448,192,164170,1,2,0:0:0:0:
320,192,164370,1,2,0:0:0:0:
448,192,164370,1,0,0:0:0:0:
64,192,164503,1,0,0:0:0:0:
192,192,164503,1,0,0:0:0:0:
320,192,164636,1,0,0:0:0:0:
64,192,164770,1,2,0:0:0:0:
448,192,164770,1,0,0:0:0:0:
192,192,164970,1,8,0:0:0:0:
320,192,164970,1,2,0:0:0:0:
64,192,165170,1,2,0:0:0:0:
192,192,165170,1,0,0:0:0:0:
448,192,165170,1,0,0:0:0:0:
320,192,165370,1,10,0:0:0:0:
64,192,165470,1,2,0:0:0:0:
192,192,165570,1,2,0:0:0:0:
320,192,165670,1,2,0:0:0:0:
64,192,165770,1,8,0:0:0:0:
448,192,165770,1,2,0:0:0:0:
320,192,165970,1,2,0:0:0:0:
448,192,165970,1,0,0:0:0:0:
64,192,166103,1,0,0:0:0:0:
192,192,166103,1,0,0:0:0:0:
448,192,166236,1,0,0:0:0:0:
64,192,166370,1,2,0:0:0:0:
192,192,166370,1,0,0:0:0:0:
320,192,166503,1,0,0:0:0:0:
448,192,166503,1,0,0:0:0:0:
192,192,166636,1,0,0:0:0:0:
64,192,166770,1,2,0:0:0:0:
320,192,166770,1,0,0:0:0:0:
448,192,166770,1,0,0:0:0:0:
192,192,166970,1,10,0:0:0:0:
448,192,167070,1,2,0:0:0:0:
320,192,167170,1,2,0:0:0:0:
192,192,167270,1,2,0:0:0:0:
64,192,167370,1,8,0:0:0:0:
448,192,167370,1,2,0:0:0:0:
320,192,167570,1,2,0:0:0:0:
448,192,167570,1,0,0:0:0:0:
64,192,167703,1,0,0:0:0:0:
192,192,167703,1,0,0:0:0:0:
320,192,167836,1,0,0:0:0:0:
64,192,167970,1,2,0:0:0:0:
448,192,167970,1,0,0:0:0:0:
192,192,168070,1,2,0:0:0:0:
320,192,168170,1,10,0:0:0:0:
192,192,168270,1,2,0:0:0:0:
64,192,168370,1,2,0:0:0:0:
320,192,168370,1,0,0:0:0:0:
448,192,168370,1,0,0:0:0:0:
192,192,168570,1,10,0:0:0:0:
448,192,168670,1,2,0:0:0:0:
320,192,168770,1,2,0:0:0:0:
192,192,168870,1,2,0:0:0:0:
64,192,168970,1,2,0:0:0:0:
448,192,168970,1,8,0:0:0:0:
320,192,169170,1,2,0:0:0:0:
448,192,169170,1,0,0:0:0:0:
64,192,169303,1,0,0:0:0:0:
192,192,169303,1,0,0:0:0:0:
448,192,169436,1,0,0:0:0:0:
64,192,169570,1,2,0:0:0:0:
192,192,169570,1,0,0:0:0:0:
320,192,169703,1,0,0:0:0:0:
448,192,169703,1,0,0:0:0:0:
192,192,169836,1,0,0:0:0:0:
64,192,169970,1,2,0:0:0:0:
320,192,169970,1,0,0:0:0:0:
448,192,169970,1,0,0:0:0:0:
192,192,170170,1,10,0:0:0:0:
448,192,170270,1,2,0:0:0:0:
320,192,170370,1,2,0:0:0:0:
192,192,170470,1,2,0:0:0:0:
64,192,170570,1,2,0:0:0:0:
448,192,170570,1,8,0:0:0:0:
320,192,170770,1,2,0:0:0:0:
448,192,170770,1,0,0:0:0:0:
64,192,170903,1,0,0:0:0:0:
192,192,170903,1,0,0:0:0:0:
320,192,171036,1,0,0:0:0:0:
64,192,171170,1,2,0:0:0:0:
448,192,171170,1,0,0:0:0:0:
192,192,171370,1,2,0:0:0:0:
320,192,171370,1,8,0:0:0:0:
64,192,171570,1,2,0:0:0:0:
192,192,171570,1,0,0:0:0:0:
448,192,171570,1,0,0:0:0:0:
320,192,171770,1,10,0:0:0:0:
64,192,171870,1,2,0:0:0:0:
192,192,171970,1,2,0:0:0:0:
320,192,172070,1,2,0:0:0:0:
64,192,172170,1,8,0:0:0:0:
448,192,172170,1,2,0:0:0:0:
320,192,172370,1,2,0:0:0:0:
448,192,172370,1,0,0:0:0:0:
64,192,172503,1,0,0:0:0:0:
192,192,172503,1,0,0:0:0:0:
448,192,172636,1,0,0:0:0:0:
64,192,172770,1,2,0:0:0:0:
192,192,172770,1,0,0:0:0:0:
320,192,172903,1,0,0:0:0:0:
448,192,172903,1,0,0:0:0:0:
192,192,173036,1,0,0:0:0:0:
64,192,173170,1,2,0:0:0:0:
320,192,173170,1,0,0:0:0:0:
448,192,173170,1,0,0:0:0:0:
192,192,173370,1,10,0:0:0:0:
448,192,173470,1,2,0:0:0:0:
320,192,173570,1,2,0:0:0:0:
192,192,173670,1,2,0:0:0:0:
64,192,173770,1,8,0:0:0:0:
448,192,173770,1,2,0:0:0:0:
320,192,173970,1,2,0:0:0:0:
448,192,173970,1,0,0:0:0:0:
64,192,174103,1,0,0:0:0:0:
192,192,174103,1,0,0:0:0:0:
320,192,174236,1,0,0:0:0:0:
64,192,174370,1,2,0:0:0:0:
448,192,174370,1,0,0:0:0:0:
192,192,174570,1,8,0:0:0:0:
320,192,174570,1,2,0:0:0:0:
64,192,174770,1,2,0:0:0:0:
192,192,174770,1,4,0:0:0:0:
448,192,174770,1,0,0:0:0:0:
320,192,174970,1,10,0:0:0:0:
64,192,175070,1,2,0:0:0:0:
192,192,175170,1,2,0:0:0:0:
320,192,175270,1,2,0:0:0:0:
64,192,175370,1,2,0:0:0:0:
448,192,175370,1,8,0:0:0:0:
64,192,175570,1,2,0:0:0:0:
192,192,175570,1,0,0:0:0:0:
320,192,175703,1,0,0:0:0:0:
448,192,175703,1,0,0:0:0:0:
64,192,175836,1,0,0:0:0:0:
320,192,175970,1,2,0:0:0:0:
448,192,175970,1,0,0:0:0:0:
64,192,176103,1,0,0:0:0:0:
192,192,176103,1,0,0:0:0:0:
320,192,176236,1,0,0:0:0:0:
64,192,176370,1,2,0:0:0:0:
192,192,176370,1,0,0:0:0:0:
448,192,176370,1,0,0:0:0:0:
320,192,176570,1,10,0:0:0:0:
64,192,176670,1,2,0:0:0:0:
192,192,176770,1,2,0:0:0:0:
320,192,176870,1,2,0:0:0:0:
64,192,176970,1,2,0:0:0:0:
448,192,176970,1,8,0:0:0:0:
64,192,177170,1,2,0:0:0:0:
192,192,177170,1,0,0:0:0:0:
320,192,177303,1,0,0:0:0:0:
448,192,177303,1,0,0:0:0:0:
192,192,177436,1,0,0:0:0:0:
64,192,177570,1,2,0:0:0:0:
448,192,177570,1,0,0:0:0:0:
192,192,177770,1,2,0:0:0:0:
320,192,177770,1,8,0:0:0:0:
64,192,177970,1,2,0:0:0:0:
320,192,177970,1,0,0:0:0:0:
448,192,177970,1,0,0:0:0:0:
192,192,178170,1,10,0:0:0:0:
448,192,178270,1,2,0:0:0:0:
320,192,178370,1,2,0:0:0:0:
192,192,178470,1,2,0:0:0:0:
64,192,178570,1,2,0:0:0:0:
448,192,178570,1,8,0:0:0:0:
64,192,178770,1,2,0:0:0:0:
192,192,178770,1,0,0:0:0:0:
320,192,178903,1,0,0:0:0:0:
448,192,178903,1,0,0:0:0:0:
64,192,179036,1,0,0:0:0:0:
320,192,179170,1,2,0:0:0:0:
448,192,179170,1,0,0:0:0:0:
64,192,179303,1,0,0:0:0:0:
192,192,179303,1,0,0:0:0:0:
320,192,179436,1,0,0:0:0:0:
64,192,179570,1,2,0:0:0:0:
192,192,179570,1,0,0:0:0:0:
448,192,179570,1,0,0:0:0:0:
320,192,179770,1,10,0:0:0:0:
64,192,179870,1,2,0:0:0:0:
192,192,179970,1,2,0:0:0:0:
320,192,180070,1,2,0:0:0:0:
64,192,180170,1,2,0:0:0:0:
448,192,180170,1,8,0:0:0:0:
64,192,180370,1,2,0:0:0:0:
192,192,180370,1,0,0:0:0:0:
320,192,180503,1,0,0:0:0:0:
448,192,180503,1,0,0:0:0:0:
192,192,180636,1,0,0:0:0:0:
64,192,180770,1,2,0:0:0:0:
448,192,180770,1,0,0:0:0:0:
320,192,180970,1,2,0:0:0:0:
192,192,180970,1,8,0:0:0:0:
64,192,181170,1,2,0:0:0:0:
192,192,181170,1,0,0:0:0:0:
448,192,181170,1,0,0:0:0:0:
320,192,181370,1,10,0:0:0:0:
64,192,181470,1,2,0:0:0:0:
192,192,181570,1,2,0:0:0:0:
320,192,181670,1,2,0:0:0:0:
64,192,181770,1,8,0:0:0:0:
448,192,181770,1,2,0:0:0:0:
64,192,181970,1,2,0:0:0:0:
192,192,181970,1,0,0:0:0:0:
320,192,182103,1,0,0:0:0:0:
448,192,182103,1,0,0:0:0:0:
64,192,182236,1,0,0:0:0:0:
320,192,182370,1,2,0:0:0:0:
448,192,182370,1,0,0:0:0:0:
64,192,182503,1,0,0:0:0:0:
192,192,182503,1,0,0:0:0:0:
320,192,182636,1,0,0:0:0:0:
64,192,182770,1,2,0:0:0:0:
192,192,182770,1,0,0:0:0:0:
448,192,182770,1,0,0:0:0:0:
320,192,182970,1,10,0:0:0:0:
64,192,183070,1,2,0:0:0:0:
192,192,183170,1,2,0:0:0:0:
320,192,183270,1,2,0:0:0:0:
64,192,183370,1,8,0:0:0:0:
448,192,183370,1,2,0:0:0:0:
64,192,183570,1,2,0:0:0:0:
192,192,183570,1,0,0:0:0:0:
320,192,183703,1,0,0:0:0:0:
448,192,183703,1,0,0:0:0:0:
192,192,183836,1,0,0:0:0:0:
64,192,183970,1,2,0:0:0:0:
448,192,183970,1,0,0:0:0:0:
192,192,184170,1,8,0:0:0:0:
320,192,184170,1,2,0:0:0:0:
64,192,184370,1,2,0:0:0:0:
320,192,184370,1,0,0:0:0:0:
448,192,184370,1,0,0:0:0:0:
192,192,184570,1,10,0:0:0:0:
448,192,184670,1,2,0:0:0:0:
320,192,184770,1,2,0:0:0:0:
192,192,184870,1,2,0:0:0:0:
64,192,184970,1,2,0:0:0:0:
448,192,184970,1,8,0:0:0:0:
64,192,185170,1,2,0:0:0:0:
192,192,185170,1,0,0:0:0:0:
320,192,185303,1,0,0:0:0:0:
448,192,185303,1,0,0:0:0:0:
64,192,185436,1,0,0:0:0:0:
320,192,185570,1,2,0:0:0:0:
448,192,185570,1,0,0:0:0:0:
64,192,185703,1,0,0:0:0:0:
192,192,185703,1,0,0:0:0:0:
320,192,185836,1,0,0:0:0:0:
64,192,185970,1,2,0:0:0:0:
192,192,185970,1,0,0:0:0:0:
448,192,185970,1,0,0:0:0:0:
320,192,186170,1,10,0:0:0:0:
64,192,186270,1,2,0:0:0:0:
192,192,186370,1,2,0:0:0:0:
320,192,186470,1,2,0:0:0:0:
64,192,186570,1,2,0:0:0:0:
448,192,186570,1,8,0:0:0:0:
192,192,186670,1,2,0:0:0:0:
320,192,186770,1,2,0:0:0:0:
192,192,186870,1,2,0:0:0:0:
320,192,186970,1,2,0:0:0:0:
448,192,186970,1,8,0:0:0:0:
192,192,187070,1,2,0:0:0:0:
320,192,187170,1,2,0:0:0:0:
192,192,187270,1,2,0:0:0:0:
64,192,187570,128,6,188170:0:0:0:0:
320,192,187570,1,0,0:0:0:50:LR4_BassKickReverbXG.wav
448,192,187570,1,0,0:0:0:100:G5H.wav
448,192,188170,128,0,188370:0:0:0:100:C6H_s.wav
192,192,188370,128,0,188570:0:0:0:100:A5H_s.wav
448,192,188570,1,0,0:0:0:100:A5H_s.wav
320,192,188670,1,0,0:0:0:100:A#5H_Bb5H_s.wav
64,192,188770,1,0,0:0:0:100:A5H_s.wav
192,192,188870,1,0,0:0:0:100:G5H_s.wav
320,192,188970,128,0,189170:0:0:0:100:F5H_s.wav
192,192,189170,128,0,190770:0:0:0:100:G5H.wav
