osu file format v14

[General]
AudioFilename: audio.mp3
AudioLeadIn: 0
PreviewTime: 317044
Countdown: 0
SampleSet: Soft
StackLeniency: 0.4
Mode: 0
LetterboxInBreaks: 0
WidescreenStoryboard: 0

[Editor]
Bookmarks: 2518,28295,44566,52701,60837,68972,77108,85244,93379,101515,109650,117786,125922,134057,142193,154396,162532,170667,178803,186939,195074,203210,211345,219481,227617,231684,235752,243888,247956,252023,256091,260159,264227,268294,276430,284566,292701,300837,308972,317108,325244,333379,341515,349650,357786,365922,374057,382193,386261,390328,394396,398464,402532,408633,414756,426683,440533,450238
DistanceSpacing: 0.4
BeatDivisor: 8
GridSize: 16
TimelineZoom: 8

[Metadata]
Title:Roars of V.E.N.G.E.A.N.C.E -Take Back Everything-
TitleUnicode:Roars of V.E.N.G.E.A.N.C.E -Take Back Everything-
Artist:trung-nova
ArtistUnicode:trung-nova
Creator:nuclei
Version:Howl in the night sky
Source:EGCS 2023
Tags:Electronic whithard
BeatmapID:4521584
BeatmapSetID:2146576

[Difficulty]
HPDrainRate:4
CircleSize:4
OverallDifficulty:9.8
ApproachRate:10
SliderMultiplier:2.7
SliderTickRate:1

[Events]
//Background and Video events
0,0,"91587591_p0_master1200.jpg",0,0
//Break Periods
//Storyboard Layer 0 (Background)
//Storyboard Layer 1 (Fail)
//Storyboard Layer 2 (Pass)
//Storyboard Layer 3 (Foreground)
//Storyboard Layer 4 (Overlay)
//Storyboard Sound Samples

[TimingPoints]
-12,361.44578313253,4,2,1,50,1,0
2518,-285.714285714286,4,2,1,50,0,0
2608,-285.714285714286,4,2,1,5,0,0
2698,-285.714285714286,4,2,1,50,0,0
2788,-285.714285714286,4,2,1,5,0,0
2879,-285.714285714286,4,2,1,50,0,0
2969,-285.714285714286,4,2,1,5,0,0
3060,-285.714285714286,4,2,1,50,0,0
3421,-285.714285714286,4,2,1,5,0,0
3602,-285.714285714286,4,2,1,50,0,0
3692,-285.714285714286,4,2,1,5,0,0
3783,-285.714285714286,4,2,1,50,0,0
3873,-285.714285714286,4,2,1,5,0,0
3963,-285.714285714286,4,2,1,50,0,0
4053,-285.714285714286,4,2,1,5,0,0
4144,-285.714285714286,4,2,1,50,0,0
4234,-285.714285714286,4,2,1,5,0,0
4325,-285.714285714286,4,2,1,50,0,0
4415,-285.714285714286,4,2,1,5,0,0
4686,-285.714285714286,4,2,1,50,0,0
4957,-285.714285714286,4,2,1,5,0,0
5048,-285.714285714286,4,2,1,50,0,0
5319,-285.714285714286,4,2,1,5,0,0
5409,-285.714285714286,4,2,1,50,0,0
5680,-285.714285714286,4,2,1,5,0,0
5771,-285.714285714286,4,2,1,50,0,0
6041,-285.714285714286,4,2,1,5,0,0
6132,-285.714285714286,4,2,1,50,0,0
6403,-285.714285714286,4,2,1,5,0,0
6494,-285.714285714286,4,2,1,50,0,0
6584,-285.714285714286,4,2,1,5,0,0
6674,-285.714285714286,4,2,1,50,0,0
6764,-285.714285714286,4,2,1,5,0,0
6855,-285.714285714286,4,2,1,50,0,0
6945,-285.714285714286,4,2,1,5,0,0
7036,-285.714285714286,4,2,1,50,0,0
7126,-285.714285714286,4,2,1,5,0,0
7216,-285.714285714286,4,2,1,50,0,0
7487,-285.714285714286,4,2,1,5,0,0
7578,-285.714285714286,4,2,1,50,0,0
7849,-285.714285714286,4,2,1,5,0,0
7939,-285.714285714286,4,2,1,50,0,0
8210,-285.714285714286,4,2,1,5,0,0
8301,-285.714285714286,4,2,1,50,0,0
8572,-285.714285714286,4,2,1,5,0,0
8662,-285.714285714286,4,2,1,50,0,0
9113,-285.714285714286,4,2,1,5,0,0
9204,-285.714285714286,4,2,1,50,0,0
9656,-285.714285714286,4,2,1,5,0,0
9747,-285.714285714286,4,2,1,50,0,0
9837,-285.714285714286,4,2,1,5,0,0
10108,-285.714285714286,4,2,1,50,0,0
10198,-285.714285714286,4,2,1,5,0,0
10379,-285.714285714286,4,2,1,50,0,0
10740,-285.714285714286,4,2,1,5,0,0
11012,-285.714285714286,4,2,1,50,0,0
11102,-285.714285714286,4,2,1,5,0,0
11192,-285.714285714286,4,2,1,50,0,0
11282,-285.714285714286,4,2,1,5,0,0
11373,-285.714285714286,4,2,1,50,0,0
11463,-285.714285714286,4,2,1,5,0,0
11554,-222.222222222222,4,2,1,50,0,0
11644,-222.222222222222,4,2,1,5,0,0
11734,-222.222222222222,4,2,1,50,0,0
12005,-222.222222222222,4,2,1,5,0,0
12096,-222.222222222222,4,2,1,50,0,0
12186,-222.222222222222,4,2,1,5,0,0
12277,-222.222222222222,4,2,1,50,0,0
12457,-222.222222222222,4,2,1,5,0,0
12548,-222.222222222222,4,2,1,50,0,0
12728,-222.222222222222,4,2,1,5,0,0
12819,-222.222222222222,4,2,1,50,0,0
12909,-222.222222222222,4,2,1,5,0,0
13000,-222.222222222222,4,2,1,50,0,0
13090,-222.222222222222,4,2,1,5,0,0
13180,-222.222222222222,4,2,1,50,0,0
13632,-222.222222222222,4,2,1,5,0,0
13722,-222.222222222222,4,2,1,50,0,0
13902,-222.222222222222,4,2,1,5,0,0
13993,-222.222222222222,4,2,1,50,0,0
14173,-222.222222222222,4,2,1,5,0,0
14264,-222.222222222222,4,2,1,50,0,0
14354,-222.222222222222,4,2,1,5,0,0
14445,-222.222222222222,4,2,1,50,0,0
14535,-222.222222222222,4,2,1,5,0,0
14626,-222.222222222222,4,2,1,50,0,0
14897,-222.222222222222,4,2,1,5,0,0
14987,-222.222222222222,4,2,1,50,0,0
15077,-222.222222222222,4,2,1,5,0,0
15168,-400,4,2,1,50,0,0
15348,-400,4,2,1,5,0,0
15530,-400,4,2,1,50,0,0
15710,-400,4,2,1,5,0,0
15891,-400,4,2,1,50,0,0
16071,-400,4,2,1,5,0,0
16253,-400,4,2,1,50,0,0
16433,-400,4,2,1,5,0,0
16614,-400,4,2,1,50,0,0
16794,-400,4,2,1,5,0,0
16975,-400,4,2,1,50,0,0
17155,-400,4,2,1,5,0,0
17337,-200,4,2,1,50,0,0
17427,-200,4,2,1,5,0,0
17518,-200,4,2,1,50,0,0
17788,-200,4,2,1,5,0,0
17879,-200,4,2,1,50,0,0
17969,-200,4,2,1,5,0,0
18060,-200,4,2,1,50,0,0
18331,-200,4,2,1,5,0,0
18421,-200,4,2,1,50,0,0
18692,-200,4,2,1,5,0,0
18783,-200,4,2,1,50,0,0
19686,-200,4,2,1,5,0,0
19867,-200,4,2,1,50,0,0
20138,-200,4,2,1,5,0,0
20228,-200,4,2,1,60,0,0
20770,-166.666666666667,4,2,1,60,0,0
21131,-166.666666666667,4,2,1,5,0,0
21312,-166.666666666667,4,2,1,60,0,0
21402,-166.666666666667,4,2,1,5,0,0
21493,-166.666666666667,4,2,1,60,0,0
21583,-166.666666666667,4,2,1,5,0,0
21673,422.535211267606,4,2,1,60,1,0
22306,-166.666666666667,4,2,1,60,0,0
22728,-166.666666666667,4,2,1,5,0,0
22940,-166.666666666667,4,2,1,60,0,0
23045,-166.666666666667,4,2,1,5,0,0
23151,-166.666666666667,4,2,1,60,0,0
23256,-166.666666666667,4,2,1,5,0,0
23363,535.714285714286,4,2,1,60,1,0
25505,697.674418604651,4,2,1,60,1,0
26900,-100,4,2,1,20,0,0
27598,-66.6666666666667,4,2,1,20,0,0
28295,254.237288135593,4,2,2,60,1,0
28358,-100,4,2,2,5,0,0
28422,-100,4,2,2,60,0,0
28676,-125,4,2,2,60,0,0
28866,-125,4,2,2,5,0,0
28930,-125,4,2,2,60,0,0
29311,-100,4,2,2,60,0,0
29374,-100,4,2,2,5,0,0
29439,-100,4,2,2,60,0,0
29693,-125,4,2,2,60,0,0
29883,-125,4,2,2,5,0,0
29947,-125,4,2,2,60,0,0
30710,-100,4,2,2,60,0,0
30900,-100,4,2,2,5,0,0
30964,-100,4,2,2,60,0,0
31430,-166.666666666667,4,2,2,60,0,0
31514,-166.666666666667,4,2,2,5,0,0
31600,-166.666666666667,4,2,2,60,0,0
31769,-166.666666666667,4,2,2,5,0,0
31854,-166.666666666667,4,2,2,60,0,0
32023,-166.666666666667,4,2,2,5,0,0
32108,-166.666666666667,4,2,2,60,0,0
32277,-166.666666666667,4,2,2,5,0,0
32362,-100,4,2,2,60,0,0
32425,-100,4,2,2,5,0,0
32489,-100,4,2,2,60,0,0
32744,-125,4,2,2,60,0,0
32934,-125,4,2,2,5,0,0
32998,-125,4,2,2,60,0,0
33951,-125,4,2,2,5,0,0
34015,-125,4,2,2,60,0,0
34523,-125,4,2,2,5,0,0
34650,-125,4,2,2,60,0,0
35413,-100,4,2,2,60,0,0
36811,-125,4,2,2,60,0,0
39035,-125,4,2,2,5,0,0
39100,-125,4,2,2,60,0,0
39481,-100,4,2,2,60,0,0
39862,-133.333333333333,4,2,2,60,0,0
40879,-125,4,2,2,60,0,0
41069,-125,4,2,2,5,0,0
41133,-125,4,2,2,60,0,0
41515,-100,4,2,2,60,0,0
41705,-100,4,2,2,5,0,0
41769,-100,4,2,2,60,0,0
42532,-66.6666666666667,4,2,2,60,0,0
43612,-66.6666666666667,4,2,2,5,0,0
43676,-66.6666666666667,4,2,2,60,0,0
44121,-83.3333333333333,4,2,2,60,0,0
44566,-200,4,2,3,65,0,0
48633,-166.666666666667,4,2,3,65,0,0
50667,-133.333333333333,4,2,3,65,0,0
51684,-66.6666666666667,4,2,3,65,0,0
52193,-100,4,2,3,65,0,0
52320,-66.6666666666667,4,2,3,65,0,0
52828,-74.0740740740741,4,2,3,65,0,0
54862,-100,4,2,3,65,0,0
55879,-76.9230769230769,4,2,3,65,0,0
57023,-125,4,2,3,65,0,0
57086,-125,4,2,3,5,0,0
57151,-125,4,2,3,65,0,0
57467,-125,4,2,3,5,0,0
57532,-125,4,2,3,65,0,0
57786,-71.4285714285714,4,2,3,65,0,0
57849,-71.4285714285714,4,2,3,5,0,0
57914,-71.4285714285714,4,2,3,65,0,0
58231,-71.4285714285714,4,2,3,5,0,0
58294,-71.4285714285714,4,2,3,65,0,0
58803,-133.333333333333,4,2,3,65,0,0
59057,-153.846153846154,4,2,3,65,0,0
60074,-133.333333333333,4,2,3,65,0,0
60328,-50,4,2,3,65,0,0
60583,-500,4,2,3,65,0,0
60837,-50,4,2,4,70,0,0
61503,-50,4,2,4,5,0,0
61536,-50,4,2,4,70,0,0
61567,-50,4,2,4,5,0,0
61600,-50,4,2,4,70,0,0
61631,-50,4,2,4,5,0,0
61727,-66.6666666666667,4,2,4,70,0,0
61981,-50,4,2,4,70,0,0
62648,-50,4,2,4,5,0,0
62680,-50,4,2,4,70,0,0
62711,-50,4,2,4,5,0,0
62744,-50,4,2,4,70,0,0
62775,-50,4,2,4,5,0,0
62807,-50,4,2,4,70,0,0
62838,-50,4,2,4,5,0,0
62871,-50,4,2,4,70,0,0
62934,-50,4,2,4,5,0,0
62998,-50,4,2,4,70,0,0
63061,-50,4,2,4,5,0,0
63125,-50,4,2,4,70,0,0
63421,-50,4,2,4,5,0,0
63464,-50,4,2,4,70,0,0
63591,-50,4,2,4,5,0,0
63633,-66.6666666666667,4,2,4,70,0,0
63888,-50,4,2,4,70,0,0
64554,-50,4,2,4,5,0,0
64587,-50,4,2,4,70,0,0
64618,-50,4,2,4,5,0,0
64650,-50,4,2,4,70,0,0
64681,-50,4,2,4,5,0,0
64778,-50,4,2,4,70,0,0
65444,-50,4,2,4,5,0,0
65477,-50,4,2,4,70,0,0
65508,-50,4,2,4,5,0,0
65540,-50,4,2,4,70,0,0
65571,-50,4,2,4,5,0,0
65604,-50,4,2,4,70,0,0
65635,-50,4,2,4,5,0,0
65667,-66.6666666666667,4,2,4,70,0,0
65922,-50,4,2,4,70,0,0
66176,-66.6666666666667,4,2,4,70,0,0
66239,-66.6666666666667,4,2,4,5,0,0
66303,-66.6666666666667,4,2,4,70,0,0
66366,-66.6666666666667,4,2,4,5,0,0
66430,-66.6666666666667,4,2,4,70,0,0
66493,-66.6666666666667,4,2,4,5,0,0
66557,-66.6666666666667,4,2,4,70,0,0
66715,-66.6666666666667,4,2,4,5,0,0
66811,-66.6666666666667,4,2,4,70,0,0
66939,-50,4,2,4,70,0,0
68972,-75.187969924812,4,2,4,70,0,0
69227,-166.666666666667,4,2,4,70,0,0
69481,-25,4,2,4,70,0,0
69512,-25,4,2,4,5,0,0
69544,-26.6666666666667,4,2,4,70,0,0
69575,-26.6666666666667,4,2,4,5,0,0
69608,-28.5714285714286,4,2,4,70,0,0
69639,-28.5714285714286,4,2,4,5,0,0
69672,-30.7692307692308,4,2,4,70,0,0
69703,-30.7692307692308,4,2,4,5,0,0
69735,-33.3333333333333,4,2,4,70,0,0
69766,-33.3333333333333,4,2,4,5,0,0
69799,-36.3636363636364,4,2,4,70,0,0
69830,-36.3636363636364,4,2,4,5,0,0
69862,-40,4,2,4,70,0,0
69893,-40,4,2,4,5,0,0
69926,-44.4444444444445,4,2,4,70,0,0
69957,-44.4444444444445,4,2,4,5,0,0
69989,-33.3333333333333,4,2,4,70,0,0
70020,-33.3333333333333,4,2,4,5,0,0
70053,-33.3333333333333,4,2,4,70,0,0
70084,-33.3333333333333,4,2,4,5,0,0
70117,-33.3333333333333,4,2,4,70,0,0
70148,-33.3333333333333,4,2,4,5,0,0
70180,-33.3333333333333,4,2,4,70,0,0
70211,-33.3333333333333,4,2,4,5,0,0
70244,-33.3333333333333,4,2,4,70,0,0
70275,-33.3333333333333,4,2,4,5,0,0
70307,-33.3333333333333,4,2,4,70,0,0
70338,-33.3333333333333,4,2,4,5,0,0
70371,-33.3333333333333,4,2,4,70,0,0
70402,-33.3333333333333,4,2,4,5,0,0
70434,-33.3333333333333,4,2,4,70,0,0
70465,-33.3333333333333,4,2,4,5,0,0
70498,-66.6666666666667,4,2,4,70,0,0
71006,-45.4545454545455,4,2,4,70,0,0
71515,-66.6666666666667,4,2,4,70,0,0
71769,-55.5555555555556,4,2,4,70,0,0
71896,-66.6666666666667,4,2,4,70,0,0
72086,-66.6666666666667,4,2,4,5,0,0
72150,-66.6666666666667,4,2,4,70,0,0
72213,-66.6666666666667,4,2,4,5,0,0
72278,-40.8163265306122,4,2,4,70,0,0
72532,-71.4285714285714,4,2,4,70,0,0
73040,-76.9230769230769,4,2,4,70,0,0
73294,-166.666666666667,4,2,4,70,0,0
73549,-44.4444444444445,4,2,4,70,0,0
73580,-44.4444444444445,4,2,4,5,0,0
73612,-40,4,2,4,70,0,0
73643,-40,4,2,4,5,0,0
73676,-36.3636363636364,4,2,4,70,0,0
73707,-36.3636363636364,4,2,4,5,0,0
73739,-33.3333333333333,4,2,4,70,0,0
73770,-33.3333333333333,4,2,4,5,0,0
73803,-30.7692307692308,4,2,4,70,0,0
73834,-30.7692307692308,4,2,4,5,0,0
73866,-30.7692307692308,4,2,4,70,0,0
73897,-30.7692307692308,4,2,4,5,0,0
73930,-26.6666666666667,4,2,4,70,0,0
73961,-26.6666666666667,4,2,4,5,0,0
73993,-26.6666666666667,4,2,4,70,0,0
74024,-26.6666666666667,4,2,4,5,0,0
74057,-23.5294117647059,4,2,4,70,0,0
74088,-23.5294117647059,4,2,4,5,0,0
74121,-23.5294117647059,4,2,4,70,0,0
74152,-23.5294117647059,4,2,4,5,0,0
74184,-23.5294117647059,4,2,4,70,0,0
74215,-23.5294117647059,4,2,4,5,0,0
74248,-23.5294117647059,4,2,4,70,0,0
74279,-23.5294117647059,4,2,4,5,0,0
74311,-23.5294117647059,4,2,4,70,0,0
74342,-23.5294117647059,4,2,4,5,0,0
74375,-23.5294117647059,4,2,4,70,0,0
74406,-23.5294117647059,4,2,4,5,0,0
74438,-23.5294117647059,4,2,4,70,0,0
74469,-23.5294117647059,4,2,4,5,0,0
74502,-23.5294117647059,4,2,4,70,0,0
74533,-23.5294117647059,4,2,4,5,0,0
74566,-23.5294117647059,4,2,4,70,0,0
74597,-23.5294117647059,4,2,4,5,0,0
74693,-40,4,2,4,70,0,0
74883,-40,4,2,4,5,0,0
74947,-40,4,2,4,70,0,0
75074,-66.6666666666667,4,2,4,70,0,0
75328,-76.9230769230769,4,2,4,70,0,0
75583,-66.6666666666667,4,2,4,70,0,0
75710,-76.9230769230769,4,2,4,70,0,0
75964,-66.6666666666667,4,2,4,70,0,0
76091,-76.9230769230769,4,2,4,70,0,0
76600,-166.666666666667,4,2,4,70,0,0
76854,-76.9230769230769,4,2,4,70,0,0
77108,-66.6666666666667,4,2,4,70,0,0
77362,-133.333333333333,4,2,4,70,0,0
77425,-133.333333333333,4,2,4,5,0,0
77489,-133.333333333333,4,2,4,70,0,0
77807,-133.333333333333,4,2,4,5,0,0
77871,-133.333333333333,4,2,4,70,0,0
77934,-133.333333333333,4,2,4,5,0,0
77998,-133.333333333333,4,2,4,70,0,0
78061,-133.333333333333,4,2,4,5,0,0
78125,-133.333333333333,4,2,4,70,0,0
78188,-133.333333333333,4,2,4,5,0,0
78252,-133.333333333333,4,2,4,70,0,0
78315,-133.333333333333,4,2,4,5,0,0
78379,-133.333333333333,4,2,4,70,0,0
78633,-100,4,2,4,70,0,0
79142,-66.6666666666667,4,2,4,70,0,0
80159,-50,4,2,4,70,0,0
80667,-66.6666666666667,4,2,4,70,0,0
80730,-66.6666666666667,4,2,4,5,0,0
80794,-66.6666666666667,4,2,4,70,0,0
80857,-66.6666666666667,4,2,4,5,0,0
80922,-66.6666666666667,4,2,4,70,0,0
80985,-66.6666666666667,4,2,4,5,0,0
81049,-66.6666666666667,4,2,4,70,0,0
81176,-50,4,2,4,70,0,0
81684,-66.6666666666667,4,2,4,70,0,0
81747,-66.6666666666667,4,2,4,5,0,0
81811,-66.6666666666667,4,2,4,70,0,0
81842,-66.6666666666667,4,2,4,5,0,0
81875,-66.6666666666667,4,2,4,70,0,0
81906,-66.6666666666667,4,2,4,5,0,0
81939,-66.6666666666667,4,2,4,70,0,0
81970,-66.6666666666667,4,2,4,5,0,0
82066,-66.6666666666667,4,2,4,70,0,0
82193,-50,4,2,4,70,0,0
82510,-50,4,2,4,5,0,0
82574,-50,4,2,4,70,0,0
82637,-50,4,2,4,5,0,0
82701,-50,4,2,4,70,0,0
82764,-50,4,2,4,5,0,0
82828,-50,4,2,4,70,0,0
82987,-50,4,2,4,5,0,0
83083,-66.6666666666667,4,2,4,70,0,0
83210,-50,4,2,4,70,0,0
83464,-66.6666666666667,4,2,4,70,0,0
83718,-50,4,2,4,70,0,0
84227,-66.6666666666667,4,2,4,70,0,0
85244,-76.9230769230769,4,2,4,70,0,0
85498,-62.5,4,2,4,70,0,0
85752,-25,4,2,4,70,0,0
85783,-25,4,2,4,5,0,0
85816,-26.6666666666667,4,2,4,70,0,0
85847,-26.6666666666667,4,2,4,5,0,0
85879,-28.5714285714286,4,2,4,70,0,0
85910,-28.5714285714286,4,2,4,5,0,0
85943,-30.7692307692308,4,2,4,70,0,0
85974,-30.7692307692308,4,2,4,5,0,0
86006,-33.3333333333333,4,2,4,70,0,0
86037,-33.3333333333333,4,2,4,5,0,0
86070,-36.3636363636364,4,2,4,70,0,0
86101,-36.3636363636364,4,2,4,5,0,0
86133,-40,4,2,4,70,0,0
86164,-40,4,2,4,5,0,0
86197,-44.4444444444445,4,2,4,70,0,0
86228,-44.4444444444445,4,2,4,5,0,0
86261,-33.3333333333333,4,2,4,70,0,0
86292,-33.3333333333333,4,2,4,5,0,0
86325,-33.3333333333333,4,2,4,70,0,0
86356,-33.3333333333333,4,2,4,5,0,0
86389,-33.3333333333333,4,2,4,70,0,0
86420,-33.3333333333333,4,2,4,5,0,0
86452,-33.3333333333333,4,2,4,70,0,0
86483,-33.3333333333333,4,2,4,5,0,0
86516,-33.3333333333333,4,2,4,70,0,0
86547,-33.3333333333333,4,2,4,5,0,0
86579,-33.3333333333333,4,2,4,70,0,0
86610,-33.3333333333333,4,2,4,5,0,0
86643,-33.3333333333333,4,2,4,70,0,0
86674,-33.3333333333333,4,2,4,5,0,0
86706,-33.3333333333333,4,2,4,70,0,0
86737,-33.3333333333333,4,2,4,5,0,0
86770,-66.6666666666667,4,2,4,70,0,0
87278,-57.1428571428571,4,2,4,70,0,0
87786,-50,4,2,4,70,0,0
87849,-50,4,2,4,5,0,0
87913,-50,4,2,4,70,0,0
88040,-66.6666666666667,4,2,4,70,0,0
88167,-50,4,2,4,70,0,0
88294,-76.9230769230769,4,2,4,70,0,0
88357,-76.9230769230769,4,2,4,5,0,0
88422,-76.9230769230769,4,2,4,70,0,0
88485,-76.9230769230769,4,2,4,5,0,0
88549,-41.6666666666667,4,2,4,70,0,0
88930,-50,4,2,4,70,0,0
89311,-30.3030303030303,4,2,4,70,0,0
90201,-100,4,2,4,70,0,0
90328,-30.3030303030303,4,2,4,70,0,0
90900,-76.9230769230769,4,2,4,70,0,0
91155,-90.9090909090909,4,2,4,70,0,0
91345,-66.6666666666667,4,2,4,70,0,0
91600,-76.9230769230769,4,2,4,70,0,0
91854,-66.6666666666667,4,2,4,70,0,0
91981,-76.9230769230769,4,2,4,70,0,0
92235,-66.6666666666667,4,2,4,70,0,0
92362,-76.9230769230769,4,2,4,70,0,0
92617,-66.6666666666667,4,2,4,70,0,0
92744,-76.9230769230769,4,2,4,70,0,0
92934,-76.9230769230769,4,2,4,5,0,0
92998,-76.9230769230769,4,2,4,70,0,0
93125,-100,4,2,4,70,0,0
93379,-250,4,2,3,60,0,0
93696,-250,4,2,3,5,0,0
93761,-250,4,2,3,60,0,0
93824,-250,4,2,3,5,0,0
93888,-250,4,2,3,60,0,0
93951,-250,4,2,3,5,0,0
94016,-250,4,2,3,60,0,0
94079,-250,4,2,3,5,0,0
94269,-250,4,2,3,60,0,0
94714,-250,4,2,3,5,0,0
94778,-250,4,2,3,60,0,0
94841,-250,4,2,3,5,0,0
94905,-250,4,2,3,60,0,0
95095,-250,4,2,3,5,0,0
95159,-250,4,2,3,60,0,0
95349,-250,4,2,3,5,0,0
95413,-250,4,2,3,60,0,0
95603,-250,4,2,3,5,0,0
95667,-250,4,2,3,60,0,0
95857,-250,4,2,3,5,0,0
95922,-250,4,2,3,60,0,0
96112,-250,4,2,3,5,0,0
96176,-250,4,2,3,60,0,0
96239,-250,4,2,3,5,0,0
96303,-250,4,2,3,60,0,0
96366,-250,4,2,3,5,0,0
96430,-250,4,2,3,60,0,0
96748,-250,4,2,3,5,0,0
96811,-250,4,2,3,60,0,0
96874,-250,4,2,3,5,0,0
96939,-250,4,2,3,60,0,0
97256,-250,4,2,3,5,0,0
97320,-250,4,2,3,60,0,0
97383,-250,4,2,3,5,0,0
97447,-250,4,2,3,60,0,0
98273,-250,4,2,3,5,0,0
98337,-250,4,2,3,60,0,0
98400,-250,4,2,3,5,0,0
98464,-200,4,2,3,60,0,0
98782,-200,4,2,3,5,0,0
98845,-200,4,2,3,60,0,0
98908,-200,4,2,3,5,0,0
98972,-200,4,2,3,60,0,0
100688,-200,4,2,3,5,0,0
100752,-200,4,2,3,60,0,0
101069,-200,4,2,3,5,0,0
101133,-200,4,2,3,60,0,0
101515,-76.9230769230769,4,2,3,60,0,0
101769,-133.333333333333,4,2,3,60,0,0
102023,-76.9230769230769,4,2,3,60,0,0
102532,-133.333333333333,4,2,3,60,0,0
103549,-90.9090909090909,4,2,3,60,0,0
103739,-90.9090909090909,4,2,3,5,0,0
103803,-90.9090909090909,4,2,3,60,0,0
103930,-133.333333333333,4,2,3,60,0,0
104566,-100,4,2,3,60,0,0
104756,-100,4,2,3,5,0,0
104820,-166.666666666667,4,2,3,60,0,0
105328,-76.9230769230769,4,2,3,60,0,0
105583,-333.333333333333,4,2,3,60,0,0
105710,-333.333333333333,4,2,3,25,0,0
105964,-666.666666666667,4,2,3,25,0,0
107108,-66.6666666666667,4,2,3,60,0,0
107617,-66.6666666666667,4,2,3,62,0,0
108125,-66.6666666666667,4,2,3,64,0,0
108506,-66.6666666666667,4,2,3,66,0,0
108697,-133.333333333333,4,2,3,66,0,0
108888,-133.333333333333,4,2,3,68,0,0
108952,-100,4,2,3,68,0,0
109396,-100,4,2,4,80,0,0
109650,-100,4,2,3,50,0,0
113718,-100,4,2,3,60,0,0
113781,-100,4,2,3,5,0,0
113845,-100,4,2,3,60,0,0
113908,-100,4,2,3,5,0,0
113972,-100,4,2,3,60,0,0
114290,-100,4,2,3,5,0,0
114354,-100,4,2,3,60,0,0
114417,-100,4,2,3,5,0,0
114481,-100,4,2,3,60,0,0
114544,-100,4,2,3,5,0,0
114608,-100,4,2,3,60,0,0
114671,-100,4,2,3,5,0,0
114735,-100,4,2,3,65,0,0
114862,-133.333333333333,4,2,3,65,0,0
115117,-100,4,2,3,65,0,0
115371,-80,4,2,3,65,0,0
115625,-66.6666666666667,4,2,3,65,0,0
115752,-50,4,2,3,70,0,0
116069,-50,4,2,3,5,0,0
116261,-50,4,2,3,70,0,0
116451,-50,4,2,3,5,0,0
116642,-66.6666666666667,4,2,3,70,0,0
116832,-66.6666666666667,4,2,3,5,0,0
117023,-100,4,2,3,70,0,0
117213,-100,4,2,3,5,0,0
117278,-100,4,2,3,70,0,0
117532,-100,4,2,4,70,0,0
117786,-71.4285714285714,4,2,5,70,0,0
118294,-83.3333333333333,4,2,5,70,0,0
118803,-57.1428571428571,4,2,5,70,0,0
119184,-57.1428571428571,4,2,5,5,0,0
119248,-57.1428571428571,4,2,5,70,0,0
119693,-57.1428571428571,4,2,5,5,0,0
119756,-57.1428571428571,4,2,5,70,0,0
119820,-71.4285714285714,4,2,5,70,0,0
120328,-83.3333333333333,4,2,5,70,0,0
120837,-57.1428571428571,4,2,5,70,0,0
121218,-57.1428571428571,4,2,5,5,0,0
121282,-57.1428571428571,4,2,5,70,0,0
121854,-80,4,2,5,70,0,0
123888,-50,4,2,4,70,0,0
124142,-71.4285714285714,4,2,4,70,0,0
125159,-100,4,2,4,70,0,0
125922,-66.6666666666667,4,2,5,70,0,0
126939,-45.4545454545455,4,2,5,70,0,0
127956,-66.6666666666667,4,2,5,70,0,0
128972,-45.4545454545455,4,2,5,70,0,0
130371,-50,4,2,5,70,0,0
130625,-83.3333333333333,4,2,5,70,0,0
131006,-57.1428571428571,4,2,5,70,0,0
131642,-83.3333333333333,4,2,5,70,0,0
134057,-66.6666666666667,4,2,4,70,0,0
134566,-200,4,2,6,70,0,0
135074,-166.666666666667,4,2,6,70,0,0
135583,-142.857142857143,4,2,6,70,0,0
136091,-76.9230769230769,4,2,6,70,0,0
136282,-125,4,2,6,70,0,0
136600,-76.9230769230769,4,2,6,70,0,0
136790,-125,4,2,6,70,0,0
137108,-76.9230769230769,4,2,6,70,0,0
137299,-125,4,2,6,70,0,0
137617,-45.4545454545455,4,2,6,70,0,0
137998,-100,4,2,6,70,0,0
138125,-76.9230769230769,4,2,4,70,0,0
138633,-142.857142857143,4,2,6,70,0,0
139142,-125,4,2,6,70,0,0
139333,-142.857142857143,4,2,6,70,0,0
140159,-76.9230769230769,4,2,6,70,0,0
140350,-125,4,2,6,70,0,0
140667,-71.4285714285714,4,2,6,70,0,0
140858,-125,4,2,6,70,0,0
141176,-66.6666666666667,4,2,6,70,0,0
141367,-125,4,2,6,70,0,0
141684,-71.4285714285714,4,2,6,70,0,0
142193,-66.6666666666667,4,2,6,70,0,0
142256,-66.6666666666667,4,2,4,70,0,0
142447,-133.333333333333,4,2,4,70,0,0
142462,-66.6666666666667,4,2,4,5,0,0
142701,-66.6666666666667,4,2,4,70,0,0
142956,-133.333333333333,4,2,4,70,0,0
142970,-66.6666666666667,4,2,4,5,0,0
143210,-133.333333333333,4,2,4,70,0,0
143225,-133.333333333333,4,2,4,5,0,0
143464,-133.333333333333,4,2,4,70,0,0
143479,-133.333333333333,4,2,4,5,0,0
143718,-133.333333333333,4,2,4,70,0,0
143733,-133.333333333333,4,2,4,5,0,0
143972,-133.333333333333,4,2,4,70,0,0
143987,-133.333333333333,4,2,4,5,0,0
144227,-66.6666666666667,4,2,4,70,0,0
144417,-133.333333333333,4,2,4,5,0,0
144481,-133.333333333333,4,2,4,70,0,0
144496,-133.333333333333,4,2,4,5,0,0
144608,-66.6666666666667,4,2,4,70,0,0
144989,-133.333333333333,4,2,4,70,0,0
145004,-133.333333333333,4,2,4,5,0,0
145244,-133.333333333333,4,2,4,70,0,0
145259,-133.333333333333,4,2,4,5,0,0
145498,-133.333333333333,4,2,4,70,0,0
145513,-133.333333333333,4,2,4,5,0,0
145752,-133.333333333333,4,2,4,70,0,0
145767,-133.333333333333,4,2,4,5,0,0
146006,-133.333333333333,4,2,4,70,0,0
146021,-133.333333333333,4,2,4,5,0,0
146261,-66.6666666666667,4,2,3,70,0,0
146324,-133.333333333333,4,2,3,5,0,0
146388,-133.333333333333,4,2,3,70,0,0
146403,-133.333333333333,4,2,3,5,0,0
146515,-133.333333333333,4,2,3,70,0,0
146530,-133.333333333333,4,2,3,5,0,0
146642,-133.333333333333,4,2,3,70,0,0
146657,-133.333333333333,4,2,3,5,0,0
146769,-66.6666666666667,4,2,3,70,0,0
146832,-133.333333333333,4,2,3,5,0,0
146896,-133.333333333333,4,2,3,70,0,0
146911,-133.333333333333,4,2,3,5,0,0
147023,-133.333333333333,4,2,3,70,0,0
147038,-133.333333333333,4,2,3,5,0,0
147150,-133.333333333333,4,2,3,70,0,0
147165,-133.333333333333,4,2,3,5,0,0
147278,-133.333333333333,4,2,3,70,0,0
147293,-133.333333333333,4,2,3,5,0,0
147405,-133.333333333333,4,2,3,70,0,0
147420,-133.333333333333,4,2,3,5,0,0
147532,-133.333333333333,4,2,3,70,0,0
147547,-133.333333333333,4,2,3,5,0,0
147659,-133.333333333333,4,2,3,70,0,0
147674,-133.333333333333,4,2,3,5,0,0
147786,-133.333333333333,4,2,3,70,0,0
148294,-66.6666666666667,4,2,3,70,0,0
148357,-133.333333333333,4,2,3,5,0,0
148422,-133.333333333333,4,2,3,70,0,0
148437,-133.333333333333,4,2,3,5,0,0
148485,-133.333333333333,4,2,3,70,0,0
148500,-133.333333333333,4,2,3,5,0,0
148549,-133.333333333333,4,2,3,70,0,0
148564,-133.333333333333,4,2,3,5,0,0
148676,-66.6666666666667,4,2,3,70,0,0
148739,-133.333333333333,4,2,3,5,0,0
148803,-133.333333333333,4,2,3,70,0,0
148818,-133.333333333333,4,2,3,5,0,0
148867,-133.333333333333,4,2,3,70,0,0
148882,-133.333333333333,4,2,3,5,0,0
148930,-133.333333333333,4,2,3,70,0,0
148945,-133.333333333333,4,2,3,5,0,0
148994,-133.333333333333,4,2,3,70,0,0
149009,-133.333333333333,4,2,3,5,0,0
149057,-133.333333333333,4,2,3,70,0,0
149072,-133.333333333333,4,2,3,5,0,0
149121,-133.333333333333,4,2,3,70,0,0
149136,-133.333333333333,4,2,3,5,0,0
149184,-133.333333333333,4,2,3,70,0,0
149199,-133.333333333333,4,2,3,5,0,0
149248,-133.333333333333,4,2,3,70,0,0
149263,-133.333333333333,4,2,3,5,0,0
149311,-133.333333333333,4,2,3,70,0,0
149326,-133.333333333333,4,2,3,5,0,0
149375,-133.333333333333,4,2,3,70,0,0
149390,-133.333333333333,4,2,3,5,0,0
149439,-133.333333333333,4,2,3,70,0,0
149454,-133.333333333333,4,2,3,5,0,0
149502,-133.333333333333,4,2,3,70,0,0
149517,-133.333333333333,4,2,3,5,0,0
149566,-133.333333333333,4,2,3,70,0,0
149581,-133.333333333333,4,2,3,5,0,0
149629,-133.333333333333,4,2,3,70,0,0
149644,-133.333333333333,4,2,3,5,0,0
149693,-133.333333333333,4,2,3,70,0,0
149708,-133.333333333333,4,2,3,5,0,0
149756,-133.333333333333,4,2,3,70,0,0
149771,-133.333333333333,4,2,3,5,0,0
149820,-133.333333333333,4,2,3,70,0,0
149835,-133.333333333333,4,2,3,5,0,0
149883,-133.333333333333,4,2,3,70,0,0
149898,-133.333333333333,4,2,3,5,0,0
149947,-133.333333333333,4,2,3,70,0,0
149962,-133.333333333333,4,2,3,5,0,0
150011,-133.333333333333,4,2,3,70,0,0
150026,-133.333333333333,4,2,3,5,0,0
150074,-133.333333333333,4,2,3,70,0,0
150089,-133.333333333333,4,2,3,5,0,0
150328,-66.6666666666667,4,2,3,30,0,0
150583,-66.6666666666667,4,2,3,35,0,0
150837,-66.6666666666667,4,2,3,40,0,0
151091,-66.6666666666667,4,2,3,50,0,0
151345,-66.6666666666667,4,2,3,60,0,0
152362,-66.6666666666667,4,2,4,60,0,0
152617,-250,4,2,4,40,0,0
154396,-71.4285714285714,4,2,7,80,0,0
155032,-38.4615384615385,4,2,7,80,0,0
155413,-71.4285714285714,4,2,7,80,0,0
155476,-71.4285714285714,4,2,7,5,0,0
155540,-38.4615384615385,4,2,7,80,0,0
155667,-45.4545454545455,4,2,7,80,0,0
155794,-62.5,4,2,7,80,0,0
155922,-71.4285714285714,4,2,7,80,0,0
156176,-90.9090909090909,4,2,7,80,0,0
156430,-50,4,2,7,80,0,0
156684,-100,4,2,7,80,0,0
156939,-50,4,2,7,80,0,0
157066,-80,4,2,7,80,0,0
157193,-66.6666666666667,4,2,7,80,0,0
157320,-133.333333333333,4,2,7,80,0,0
157447,-100,4,2,7,80,0,0
157828,-100,4,2,7,5,0,0
157956,-50,4,2,7,80,0,0
158210,-100,4,2,7,80,0,0
158464,-50,4,2,7,80,0,0
158972,-71.4285714285714,4,2,7,80,0,0
159227,-66.6666666666667,4,2,7,80,0,0
159608,-40,4,2,7,80,0,0
159989,-71.4285714285714,4,2,7,80,0,0
160117,-40,4,2,7,80,0,0
160498,-57.1428571428571,4,2,7,80,0,0
161006,-50,4,2,7,80,0,0
161133,-40,4,2,7,80,0,0
161261,-66.6666666666667,4,2,7,80,0,0
161515,-100,4,2,7,80,0,0
161769,-66.6666666666667,4,2,7,80,0,0
162278,-133.333333333333,4,2,7,80,0,0
162532,-66.6666666666667,4,2,8,80,0,0
162659,-66.6666666666667,4,2,8,5,0,0
162722,-66.6666666666667,4,2,8,80,0,0
162849,-66.6666666666667,4,2,8,5,0,0
162913,-66.6666666666667,4,2,8,80,0,0
163325,-66.6666666666667,4,2,8,5,0,0
163358,-66.6666666666667,4,2,8,80,0,0
163389,-66.6666666666667,4,2,8,5,0,0
163422,-66.6666666666667,4,2,8,80,0,0
163453,-66.6666666666667,4,2,8,5,0,0
163485,-66.6666666666667,4,2,8,80,0,0
163516,-66.6666666666667,4,2,8,5,0,0
163549,-66.6666666666667,4,2,8,80,0,0
163792,-66.6666666666667,4,2,8,5,0,0
163845,-66.6666666666667,4,2,8,80,0,0
164088,-66.6666666666667,4,2,8,5,0,0
164121,-66.6666666666667,4,2,8,80,0,0
164152,-66.6666666666667,4,2,8,5,0,0
164184,-66.6666666666667,4,2,8,80,0,0
164215,-66.6666666666667,4,2,8,5,0,0
164248,-66.6666666666667,4,2,8,80,0,0
164406,-66.6666666666667,4,2,8,5,0,0
164439,-66.6666666666667,4,2,8,80,0,0
164470,-66.6666666666667,4,2,8,5,0,0
164502,-66.6666666666667,4,2,8,80,0,0
164533,-66.6666666666667,4,2,8,5,0,0
164566,-66.6666666666667,4,2,8,80,0,0
164756,-66.6666666666667,4,2,8,5,0,0
164820,-66.6666666666667,4,2,8,80,0,0
164883,-66.6666666666667,4,2,8,5,0,0
164947,-66.6666666666667,4,2,8,80,0,0
165010,-66.6666666666667,4,2,8,5,0,0
165074,-66.6666666666667,4,2,8,80,0,0
165137,-66.6666666666667,4,2,8,5,0,0
165201,-66.6666666666667,4,2,8,80,0,0
165264,-66.6666666666667,4,2,8,5,0,0
165328,-66.6666666666667,4,2,8,80,0,0
165391,-66.6666666666667,4,2,8,5,0,0
165455,-66.6666666666667,4,2,8,80,0,0
165518,-66.6666666666667,4,2,8,5,0,0
165583,-133.333333333333,4,2,8,80,0,0
165646,-133.333333333333,4,2,8,5,0,0
165710,-66.6666666666667,4,2,8,80,0,0
165773,-66.6666666666667,4,2,8,5,0,0
165837,-66.6666666666667,4,2,8,80,0,0
165900,-66.6666666666667,4,2,8,5,0,0
165964,-66.6666666666667,4,2,8,80,0,0
166027,-66.6666666666667,4,2,8,5,0,0
166091,-66.6666666666667,4,2,8,80,0,0
166154,-66.6666666666667,4,2,8,5,0,0
166218,-133.333333333333,4,2,8,80,0,0
166281,-133.333333333333,4,2,8,5,0,0
166345,-66.6666666666667,4,2,8,80,0,0
166600,-50,4,2,8,80,0,0
166917,-50,4,2,8,5,0,0
166981,-50,4,2,8,80,0,0
167044,-50,4,2,8,5,0,0
167108,-50,4,2,8,80,0,0
167123,-50,4,2,8,5,0,0
167362,-66.6666666666667,4,2,8,80,0,0
167393,-66.6666666666667,4,2,8,5,0,0
167426,-66.6666666666667,4,2,8,80,0,0
167457,-66.6666666666667,4,2,8,5,0,0
167490,-66.6666666666667,4,2,8,80,0,0
167521,-66.6666666666667,4,2,8,5,0,0
167553,-66.6666666666667,4,2,8,80,0,0
167584,-66.6666666666667,4,2,8,5,0,0
167617,-83.3333333333333,4,2,8,80,0,0
167659,-83.3333333333333,4,2,8,5,0,0
167701,-83.3333333333333,4,2,8,80,0,0
167743,-83.3333333333333,4,2,8,5,0,0
167786,-83.3333333333333,4,2,8,80,0,0
167828,-83.3333333333333,4,2,8,5,0,0
167871,-83.3333333333333,4,2,8,80,0,0
167913,-83.3333333333333,4,2,8,5,0,0
167955,-83.3333333333333,4,2,8,80,0,0
167997,-83.3333333333333,4,2,8,5,0,0
168040,-83.3333333333333,4,2,8,80,0,0
168082,-83.3333333333333,4,2,8,5,0,0
168125,-83.3333333333333,4,2,8,80,0,0
168167,-83.3333333333333,4,2,8,5,0,0
168189,-66.6666666666667,4,2,8,80,0,0
168220,-66.6666666666667,4,2,8,5,0,0
168252,-66.6666666666667,4,2,8,80,0,0
168283,-66.6666666666667,4,2,8,5,0,0
168316,-66.6666666666667,4,2,8,80,0,0
168347,-66.6666666666667,4,2,8,5,0,0
168379,-66.6666666666667,4,2,8,80,0,0
168410,-66.6666666666667,4,2,8,5,0,0
168443,-66.6666666666667,4,2,8,80,0,0
168474,-66.6666666666667,4,2,8,5,0,0
168506,-66.6666666666667,4,2,8,80,0,0
168537,-66.6666666666667,4,2,8,5,0,0
168570,-66.6666666666667,4,2,8,80,0,0
168601,-66.6666666666667,4,2,8,5,0,0
168633,-66.6666666666667,4,2,3,70,0,0
168696,-66.6666666666667,4,2,3,5,0,0
168761,-66.6666666666667,4,2,3,70,0,0
168824,-66.6666666666667,4,2,3,5,0,0
168888,-66.6666666666667,4,2,3,70,0,0
170667,-66.6666666666667,4,2,9,70,0,0
170922,-133.333333333333,4,2,9,70,0,0
171684,-76.9230769230769,4,2,9,70,0,0
172511,-133.333333333333,4,2,9,70,0,0
172574,-133.333333333333,4,2,9,5,0,0
172638,-133.333333333333,4,2,9,70,0,0
172701,-50,4,2,9,70,0,0
172956,-133.333333333333,4,2,9,70,0,0
173083,-76.9230769230769,4,2,9,70,0,0
173337,-133.333333333333,4,2,9,70,0,0
173845,-100,4,2,9,70,0,0
174036,-66.6666666666667,4,2,9,70,0,0
174735,-50,4,2,9,70,0,0
175117,-66.6666666666667,4,2,9,70,0,0
175498,-100,4,2,9,70,0,0
176388,-50,4,2,9,70,0,0
177023,-100,4,2,9,70,0,0
177150,-50,4,2,9,70,0,0
177405,-100,4,2,9,70,0,0
177595,-76.9230769230769,4,2,9,70,0,0
178357,-76.9230769230769,4,2,9,5,0,0
178422,-76.9230769230769,4,2,9,70,0,0
178485,-76.9230769230769,4,2,9,5,0,0
178549,-76.9230769230769,4,2,9,70,0,0
178803,-76.9230769230769,4,2,4,70,0,0
178866,-76.9230769230769,4,2,4,5,0,0
179057,-50,4,2,10,70,0,0
179566,-66.6666666666667,4,2,10,70,0,0
180074,-80,4,2,10,70,0,0
180328,-100,4,2,10,70,0,0
180837,-50,4,2,10,70,0,0
181091,-40,4,2,10,70,0,0
181345,-100,4,2,10,70,0,0
181376,-100,4,2,10,5,0,0
181472,-100,4,2,10,70,0,0
181503,-100,4,2,10,5,0,0
181600,-100,4,2,10,70,0,0
181631,-100,4,2,10,5,0,0
181727,-100,4,2,10,70,0,0
181758,-100,4,2,10,5,0,0
181854,-50,4,2,10,70,0,0
184650,-50,4,2,3,70,0,0
184905,-66.6666666666667,4,2,3,70,0,0
186493,-66.6666666666667,4,2,3,5,0,0
186557,-66.6666666666667,4,2,3,70,0,0
186684,-66.6666666666667,4,2,5,70,0,0
186939,-55.5555555555556,4,2,5,70,0,0
187193,-100,4,2,5,70,0,0
187383,-100,4,2,5,5,0,0
187447,-100,4,2,5,70,0,0
188908,-100,4,2,5,5,0,0
188972,-76.9230769230769,4,2,5,70,0,0
189989,-55.5555555555556,4,2,5,70,0,0
190244,-76.9230769230769,4,2,5,70,0,0
190371,-74.0740740740741,4,2,5,70,0,0
190752,-76.9230769230769,4,2,5,70,0,0
191006,-57.1428571428571,4,2,5,70,0,0
191261,-47.6190476190476,4,2,5,70,0,0
191451,-47.6190476190476,4,2,5,5,0,0
191515,-47.6190476190476,4,2,5,70,0,0
192532,-100,4,2,5,70,0,0
192976,-100,4,2,5,5,0,0
193040,-100,4,2,5,70,0,0
193167,-66.6666666666667,4,2,5,70,0,0
193294,-76.9230769230769,4,2,5,70,0,0
193676,-50,4,2,5,70,0,0
193930,-76.9230769230769,4,2,5,70,0,0
194311,-100,4,2,5,70,0,0
195074,-100,4,2,3,60,0,0
201176,-66.6666666666667,4,2,3,60,0,0
202764,-66.6666666666667,4,2,3,5,0,0
202828,-66.6666666666667,4,2,3,60,0,0
202956,-66.6666666666667,4,2,4,65,0,0
203210,-76.9230769230769,4,2,5,70,0,0
203464,-111.111111111111,4,2,5,70,0,0
203591,-76.9230769230769,4,2,5,70,0,0
203718,-66.6666666666667,4,2,5,70,0,0
203972,-57.1428571428571,4,2,5,70,0,0
204481,-66.6666666666667,4,2,5,70,0,0
204735,-57.1428571428571,4,2,5,70,0,0
205244,-66.6666666666667,4,2,5,70,0,0
205752,-57.1428571428571,4,2,5,70,0,0
207023,-66.6666666666667,4,2,5,70,0,0
207278,-40,4,2,4,70,0,0
207913,-50,4,2,4,70,0,0
208803,-133.333333333333,4,2,4,70,0,0
209311,-133.333333333333,4,2,2,70,0,0
211345,-57.1428571428571,4,2,5,70,0,0
211600,-80,4,2,5,70,0,0
211854,-57.1428571428571,4,2,5,70,0,0
213379,-80,4,2,5,70,0,0
213888,-57.1428571428571,4,2,5,70,0,0
214142,-66.6666666666667,4,2,5,70,0,0
214396,-57.1428571428571,4,2,5,70,0,0
218591,-100,4,2,4,70,0,0
218654,-100,4,2,4,5,0,0
218718,-80,4,2,4,70,0,0
218781,-80,4,2,4,5,0,0
218845,-66.6666666666667,4,2,4,70,0,0
218908,-66.6666666666667,4,2,4,5,0,0
219100,-66.6666666666667,4,2,4,70,0,0
219163,-66.6666666666667,4,2,4,5,0,0
219227,-57.1428571428571,4,2,4,70,0,0
219290,-57.1428571428571,4,2,4,5,0,0
219354,-50,4,2,4,70,0,0
219417,-50,4,2,4,5,0,0
219481,-50,4,2,7,70,0,0
219862,-100,4,2,7,70,0,0
220117,-33.3333333333333,4,2,7,70,0,0
220371,-58.8235294117647,4,2,7,70,0,0
220625,-43.4782608695652,4,2,7,70,0,0
221515,-40,4,2,7,70,0,0
221769,-76.9230769230769,4,2,7,70,0,0
222023,-50,4,2,7,70,0,0
222150,-58.8235294117647,4,2,7,70,0,0
222278,-66.6666666666667,4,2,7,70,0,0
222405,-100,4,2,7,70,0,0
223040,-76.9230769230769,4,2,7,70,0,0
223103,-76.9230769230769,4,2,7,5,0,0
223167,-76.9230769230769,4,2,7,70,0,0
223549,-50,4,2,7,70,0,0
224057,-40,4,2,7,70,0,0
224311,-76.9230769230769,4,2,7,70,0,0
224439,-50,4,2,7,70,0,0
224883,-50,4,2,7,5,0,0
224947,-50,4,2,7,70,0,0
225010,-50,4,2,7,5,0,0
225074,-50,4,2,7,70,0,0
225264,-50,4,2,7,5,0,0
225328,-50,4,2,7,70,0,0
225519,-50,4,2,7,5,0,0
225583,-50,4,2,7,70,0,0
225773,-33.3333333333333,4,2,7,70,0,0
225964,-25,4,2,7,70,0,0
226091,-50,4,2,7,70,0,0
226282,-33.3333333333333,4,2,7,70,0,0
226503,-33.3333333333333,4,2,7,5,0,0
226600,-33.3333333333333,4,2,7,70,0,0
226727,-76.9230769230769,4,2,7,70,0,0
227617,-76.9230769230769,4,2,3,70,0,0
228061,-76.9230769230769,4,2,3,5,0,0
228125,-133.333333333333,4,2,9,70,0,0
229650,-66.6666666666667,4,2,9,70,0,0
231303,-133.333333333333,4,2,9,70,0,0
231684,-76.9230769230769,4,2,9,70,0,0
232129,-76.9230769230769,4,2,9,5,0,0
232193,-76.9230769230769,4,2,9,70,0,0
232320,-100,4,2,9,70,0,0
233273,-66.6666666666667,4,2,9,70,0,0
233528,-50,4,2,9,70,0,0
233718,-66.6666666666667,4,2,9,70,0,0
235752,-66.6666666666667,4,2,11,40,0,0
243888,-66.6666666666667,4,2,69,60,0,0
244110,-33.3333333333333,4,2,69,60,0,0
244205,-33.3333333333333,4,2,69,5,0,0
244237,-33.3333333333333,4,2,69,60,0,0
244268,-33.3333333333333,4,2,69,5,0,0
244301,-33.3333333333333,4,2,69,60,0,0
244332,-33.3333333333333,4,2,69,5,0,0
244364,-33.3333333333333,4,2,69,60,0,0
244491,-33.3333333333333,4,2,69,5,0,0
244555,-33.3333333333333,4,2,69,60,0,0
244586,-33.3333333333333,4,2,69,5,0,0
244650,-33.3333333333333,4,2,69,60,0,0
244681,-33.3333333333333,4,2,69,5,0,0
244746,-33.3333333333333,4,2,69,60,0,0
244777,-33.3333333333333,4,2,69,5,0,0
244841,-33.3333333333333,4,2,69,60,0,0
244872,-33.3333333333333,4,2,69,5,0,0
244936,-33.3333333333333,4,2,69,60,0,0
244967,-33.3333333333333,4,2,69,5,0,0
245064,-33.3333333333333,4,2,69,60,0,0
245095,-33.3333333333333,4,2,69,5,0,0
245222,-33.3333333333333,4,2,69,60,0,0
245253,-33.3333333333333,4,2,69,5,0,0
245381,-33.3333333333333,4,2,69,60,0,0
245571,-33.3333333333333,4,2,69,5,0,0
245763,-33.3333333333333,4,2,69,60,0,0
245794,-33.3333333333333,4,2,69,5,0,0
245922,-33.3333333333333,4,2,4,60,0,0
246176,-50,4,2,4,60,0,0
246621,-100,4,2,4,60,0,0
246875,-100,4,2,4,5,0,0
246939,-100,4,2,4,60,0,0
247002,-100,4,2,4,5,0,0
247066,-100,4,2,4,60,0,0
247129,-100,4,2,4,5,0,0
247193,-76.9230769230769,4,2,4,60,0,0
247256,-76.9230769230769,4,2,4,5,0,0
247320,-76.9230769230769,4,2,4,60,0,0
247383,-76.9230769230769,4,2,4,5,0,0
247447,-66.6666666666667,4,2,4,60,0,0
247956,-40,4,2,4,65,0,0
248464,-57.1428571428571,4,2,6,70,0,0
248527,-57.1428571428571,4,2,6,5,0,0
248591,-57.1428571428571,4,2,6,70,0,0
249035,-57.1428571428571,4,2,6,5,0,0
249099,-57.1428571428571,4,2,6,70,0,0
249544,-57.1428571428571,4,2,6,5,0,0
249608,-57.1428571428571,4,2,6,70,0,0
251515,-50,4,2,6,70,0,0
251769,-100,4,2,6,70,0,0
252023,-57.1428571428571,4,2,4,70,0,0
252532,-50,4,2,6,70,0,0
252595,-50,4,2,6,5,0,0
252659,-50,4,2,6,70,0,0
253103,-50,4,2,6,5,0,0
253167,-50,4,2,6,70,0,0
253612,-50,4,2,6,5,0,0
253676,-50,4,2,6,70,0,0
254057,-100,4,2,6,70,0,0
255583,-66.6666666666667,4,2,6,70,0,0
255964,-133.333333333333,4,2,6,70,0,0
256091,-40,4,2,6,70,0,0
256600,-57.1428571428571,4,2,6,70,0,0
256663,-57.1428571428571,4,2,6,5,0,0
256727,-57.1428571428571,4,2,6,70,0,0
257044,-57.1428571428571,4,2,6,5,0,0
257108,-57.1428571428571,4,2,6,70,0,0
258696,-57.1428571428571,4,2,6,5,0,0
258761,-57.1428571428571,4,2,6,70,0,0
259205,-57.1428571428571,4,2,6,5,0,0
259269,-57.1428571428571,4,2,6,70,0,0
259905,-100,4,2,6,70,0,0
260159,-71.4285714285714,4,2,6,70,0,0
260413,-43.4782608695652,4,2,6,70,0,0
260667,-66.6666666666667,4,2,6,70,0,0
260730,-66.6666666666667,4,2,6,5,0,0
260794,-66.6666666666667,4,2,6,70,0,0
261112,-66.6666666666667,4,2,6,5,0,0
261176,-66.6666666666667,4,2,6,70,0,0
264227,-66.6666666666667,4,2,4,70,0,0
264290,-66.6666666666667,4,2,11,65,0,0
264417,-66.6666666666667,4,2,11,5,0,0
264481,-66.6666666666667,4,2,11,65,0,0
266261,-66.6666666666667,4,2,4,70,0,0
266324,-66.6666666666667,4,2,11,60,0,0
266451,-66.6666666666667,4,2,11,5,0,0
266515,-66.6666666666667,4,2,11,60,0,0
268294,-100,4,2,12,50,0,0
268866,-100,4,2,12,5,0,0
268930,-100,4,2,12,50,0,0
269883,-100,4,2,12,5,0,0
269947,-100,4,2,12,50,0,0
270900,-100,4,2,12,5,0,0
270964,-100,4,2,12,50,0,0
271684,-117.647058823529,4,2,12,50,0,0
271939,-142.857142857143,4,2,12,50,0,0
272362,-100,4,2,12,50,0,0
272934,-100,4,2,12,5,0,0
272998,-100,4,2,12,50,0,0
274586,-100,4,2,12,5,0,0
274650,-100,4,2,12,50,0,0
274968,-100,4,2,12,5,0,0
275032,-100,4,2,12,50,0,0
276430,-333.333333333333,4,1,12,50,0,0
278464,-333.333333333333,4,2,12,50,0,0
278845,-200,4,2,12,50,0,0
279035,-200,4,2,12,5,0,0
279100,-200,4,2,12,50,0,0
281069,-200,4,2,12,5,0,0
281133,-200,4,2,12,50,0,0
281705,-200,4,2,12,5,0,0
281769,-200,4,2,12,50,0,0
284311,-200,4,2,12,60,0,0
284566,-111.111111111111,4,2,12,70,0,0
286006,-111.111111111111,4,2,12,5,0,0
286091,-76.9230769230769,4,2,12,70,0,0
286663,-86.9565217391304,4,2,12,70,0,0
286917,-111.111111111111,4,2,12,70,0,0
287193,-181.818181818182,4,2,12,70,0,0
287617,-333.333333333333,4,2,12,70,0,0
288125,-66.6666666666667,4,2,12,70,0,0
288252,-74.0740740740741,4,2,12,70,0,0
288506,-125,4,2,12,70,0,0
292701,-100,4,2,12,70,0,0
294227,-66.6666666666667,4,2,12,70,0,0
294837,-133.333333333333,4,2,12,70,0,0
295455,-133.333333333333,4,2,12,5,0,0
295498,-66.6666666666667,4,2,12,70,0,0
295942,-66.6666666666667,4,2,12,5,0,0
296006,-66.6666666666667,4,2,12,70,0,0
296451,-66.6666666666667,4,2,12,5,0,0
296515,-66.6666666666667,4,2,12,70,0,0
298803,-66.6666666666667,4,2,2,70,0,0
300328,-100,4,2,2,70,0,0
300837,-100,4,2,3,70,0,0
301854,-200,4,2,3,70,0,0
304078,-200,4,2,3,5,0,0
304142,-200,4,2,3,70,0,0
304459,-200,4,2,3,5,0,0
304523,-200,4,2,3,70,0,0
304840,-200,4,2,3,5,0,0
304905,-100,4,2,3,70,0,0
305095,-100,4,2,3,5,0,0
305159,-100,4,2,3,70,0,0
305222,-133.333333333333,4,2,3,70,0,0
305922,-100,4,2,3,70,0,0
306112,-100,4,2,3,5,0,0
306176,-100,4,2,3,70,0,0
306261,-133.333333333333,4,2,3,70,0,0
307320,-100,4,2,3,70,0,0
307574,-80,4,2,3,70,0,0
307701,-66.6666666666667,4,2,3,70,0,0
307956,-76.9230769230769,4,2,3,70,0,0
308146,-76.9230769230769,4,2,3,5,0,0
308210,-76.9230769230769,4,2,3,70,0,0
308972,-100,4,2,3,70,0,0
311006,-76.9230769230769,4,2,3,70,0,0
315074,-133.333333333333,4,2,3,70,0,0
315138,-133.333333333333,4,2,11,50,0,0
316176,-133.333333333333,4,2,11,20,0,0
316515,-133.333333333333,4,2,11,30,0,0
316854,-133.333333333333,4,2,11,40,0,0
317108,-50,4,2,5,80,0,0
317362,-76.9230769230769,4,2,5,80,0,0
317744,-100,4,2,5,80,0,0
318125,-50,4,2,5,80,0,0
318379,-76.9230769230769,4,2,5,80,0,0
318633,-66.6666666666667,4,2,5,80,0,0
318777,-66.6666666666667,4,2,5,5,0,0
318824,-58.8235294117647,4,2,5,80,0,0
319142,-50,4,2,5,80,0,0
319396,-76.9230769230769,4,2,5,80,0,0
319586,-76.9230769230769,4,2,5,5,0,0
319650,-76.9230769230769,4,2,5,80,0,0
320159,-66.6666666666667,4,2,5,80,0,0
320667,-76.9230769230769,4,2,5,80,0,0
321176,-58.8235294117647,4,2,5,80,0,0
321939,-66.6666666666667,4,2,5,80,0,0
322193,-58.8235294117647,4,2,5,80,0,0
322956,-66.6666666666667,4,2,5,80,0,0
323210,-43.4782608695652,4,2,4,80,0,0
323400,-43.4782608695652,4,2,4,5,0,0
323464,-76.9230769230769,4,2,4,80,0,0
323718,-66.6666666666667,4,2,4,80,0,0
323781,-66.6666666666667,4,2,4,5,0,0
323845,-66.6666666666667,4,2,4,80,0,0
323908,-66.6666666666667,4,2,4,5,0,0
323972,-50,4,2,4,80,0,0
324354,-45.4545454545455,4,2,4,80,0,0
324417,-45.4545454545455,4,2,4,5,0,0
324481,-50,4,2,4,80,0,0
324671,-50,4,2,4,5,0,0
324735,-50,4,2,4,80,0,0
324862,-125,4,2,4,80,0,0
325244,-125,4,2,5,80,0,0
325307,-50,4,2,5,80,0,0
325498,-76.9230769230769,4,2,5,80,0,0
326261,-57.1428571428571,4,2,5,80,0,0
326769,-66.6666666666667,4,2,5,80,0,0
326896,-66.6666666666667,4,2,5,5,0,0
326960,-66.6666666666667,4,2,5,80,0,0
327278,-50,4,2,5,80,0,0
327532,-76.9230769230769,4,2,5,80,0,0
328294,-50,4,2,5,80,0,0
328803,-58.8235294117647,4,2,5,80,0,0
329311,-50,4,2,5,80,0,0
332108,-76.9230769230769,4,2,5,80,0,0
332298,-76.9230769230769,4,2,5,5,0,0
332426,-76.9230769230769,4,2,5,80,0,0
332489,-76.9230769230769,4,2,5,5,0,0
332617,-76.9230769230769,4,2,5,80,0,0
332680,-76.9230769230769,4,2,5,5,0,0
332807,-76.9230769230769,4,2,5,80,0,0
333443,-133.333333333333,4,2,5,80,0,0
334142,-76.9230769230769,4,2,5,80,0,0
334396,-58.8235294117647,4,2,5,80,0,0
334523,-58.8235294117647,4,2,5,5,0,0
334587,-58.8235294117647,4,2,5,80,0,0
334714,-58.8235294117647,4,2,5,5,0,0
334778,-58.8235294117647,4,2,5,80,0,0
334905,-43.4782608695652,4,2,5,80,0,0
335286,-86.9565217391304,4,2,5,80,0,0
335477,-133.333333333333,4,2,5,80,0,0
335731,-111.111111111111,4,2,5,80,0,0
335986,-76.9230769230769,4,2,5,80,0,0
336430,-58.8235294117647,4,2,5,80,0,0
337574,-58.8235294117647,4,2,5,5,0,0
337638,-58.8235294117647,4,2,5,80,0,0
338210,-83.3333333333333,4,2,5,80,0,0
338464,-66.6666666666667,4,2,5,80,0,0
339481,-50,4,2,4,80,0,0
339671,-50,4,2,4,5,0,0
339735,-45.4545454545455,4,2,4,80,0,0
339989,-66.6666666666667,4,2,4,80,0,0
340498,-86.9565217391304,4,2,4,80,0,0
340752,-125,4,2,4,80,0,0
341261,-58.8235294117647,4,2,4,80,0,0
341515,-58.8235294117647,4,2,5,80,0,0
342214,-58.8235294117647,4,2,5,5,0,0
342278,-100,4,2,5,80,0,0
342341,-100,4,2,5,5,0,0
342405,-100,4,2,5,80,0,0
342468,-100,4,2,5,5,0,0
342532,-58.8235294117647,4,2,5,80,0,0
343231,-58.8235294117647,4,2,5,5,0,0
343294,-71.4285714285714,4,2,5,80,0,0
343357,-71.4285714285714,4,2,5,5,0,0
343422,-71.4285714285714,4,2,5,80,0,0
343549,-58.8235294117647,4,2,5,80,0,0
344248,-58.8235294117647,4,2,5,5,0,0
344311,-66.6666666666667,4,2,5,80,0,0
344374,-66.6666666666667,4,2,5,5,0,0
344439,-66.6666666666667,4,2,5,80,0,0
344502,-66.6666666666667,4,2,5,5,0,0
344566,-40,4,2,5,80,0,0
345328,-100,4,2,5,80,0,0
345391,-100,4,2,5,5,0,0
345456,-100,4,2,5,80,0,0
345583,-66.6666666666667,4,2,5,80,0,0
345964,-50,4,2,5,80,0,0
346600,-74.0740740740741,4,2,5,80,0,0
346790,-66.6666666666667,4,2,5,80,0,0
347235,-57.1428571428571,4,2,5,80,0,0
347489,-100,4,2,5,80,0,0
350667,-50,4,2,5,80,0,0
350857,-50,4,2,5,5,0,0
350922,-50,4,2,5,80,0,0
351176,-52.6315789473684,4,2,4,80,0,0
351684,-52.6315789473684,4,2,5,80,0,0
352701,-41.6666666666667,4,2,4,80,0,0
353019,-41.6666666666667,4,2,4,5,0,0
353083,-66.6666666666667,4,2,4,80,0,0
353146,-66.6666666666667,4,2,4,5,0,0
353210,-66.6666666666667,4,2,4,80,0,0
353337,-100,4,2,4,80,0,0
353718,-57.1428571428571,4,2,5,80,0,0
353908,-57.1428571428571,4,2,5,5,0,0
353972,-57.1428571428571,4,2,5,80,0,0
354481,-71.4285714285714,4,2,4,80,0,0
354735,-50,4,2,5,80,0,0
354925,-50,4,2,5,5,0,0
354989,-50,4,2,5,80,0,0
355074,-100,4,2,5,80,0,0
355498,-57.1428571428571,4,2,4,80,0,0
355752,-44.4444444444445,4,2,5,80,0,0
356006,-44.4444444444445,4,2,4,80,0,0
356769,-66.6666666666667,4,2,4,80,0,0
357023,-50,4,2,4,80,0,0
357786,-76.9230769230769,4,2,5,80,0,0
358294,-100,4,2,5,80,0,0
359311,-40,4,2,4,80,0,0
359820,-133.333333333333,4,2,5,80,0,0
360010,-133.333333333333,4,2,5,5,0,0
360074,-133.333333333333,4,2,5,80,0,0
360583,-133.333333333333,4,2,4,80,0,0
360837,-133.333333333333,4,2,5,80,0,0
361027,-133.333333333333,4,2,5,5,0,0
361091,-133.333333333333,4,2,5,80,0,0
361854,-83.3333333333333,4,2,5,80,0,0
365667,-83.3333333333333,4,2,7,80,0,0
365922,-57.1428571428571,4,2,9,70,0,0
365985,-57.1428571428571,4,2,9,5,0,0
366049,-57.1428571428571,4,2,9,70,0,0
368019,-57.1428571428571,4,2,9,5,0,0
368083,-57.1428571428571,4,2,9,70,0,0
368337,-76.9230769230769,4,2,9,70,0,0
369989,-50,4,2,9,70,0,0
370052,-50,4,2,9,5,0,0
370117,-50,4,2,9,70,0,0
370625,-76.9230769230769,4,2,9,70,0,0
371833,-57.1428571428571,4,2,9,70,0,0
372023,-142.857142857143,4,2,9,70,0,0
372150,-66.6666666666667,4,2,9,70,0,0
372278,-28.5714285714286,4,2,9,70,0,0
372532,-76.9230769230769,4,2,9,70,0,0
372659,-28.5714285714286,4,2,9,70,0,0
372913,-76.9230769230769,4,2,9,70,0,0
373040,-28.5714285714286,4,2,9,70,0,0
373294,-100,4,2,9,70,0,0
374057,-100,4,2,5,70,0,0
374184,-100,4,2,5,5,0,0
374248,-100,4,2,5,70,0,0
374279,-100,4,2,5,5,0,0
374439,-100,4,2,5,70,0,0
374470,-100,4,2,5,5,0,0
374629,-100,4,2,5,70,0,0
374660,-100,4,2,5,5,0,0
374820,-100,4,2,5,70,0,0
374851,-100,4,2,5,5,0,0
374947,-100,4,2,5,70,0,0
375105,-100,4,2,5,5,0,0
375265,-100,4,2,5,70,0,0
375296,-100,4,2,5,5,0,0
375456,-100,4,2,5,70,0,0
375487,-100,4,2,5,5,0,0
375646,-100,4,2,5,70,0,0
375677,-100,4,2,5,5,0,0
375837,-100,4,2,5,70,0,0
375868,-100,4,2,5,5,0,0
375964,-100,4,2,5,70,0,0
376091,-200,4,2,5,70,0,0
380222,-200,4,2,11,70,0,0
380413,-250,4,2,11,70,0,0
380667,-333.333333333333,4,2,11,70,0,0
380922,-500,4,2,11,70,0,0
381176,-1000,4,2,11,70,0,0
381430,-333.333333333333,4,2,11,70,0,0
381684,-200,4,2,11,70,0,0
381939,-133.333333333333,4,2,5,70,0,0
382193,-66.6666666666667,4,2,7,80,0,0
382701,-250,4,2,6,80,0,0
382828,-250,4,2,6,5,0,0
382892,-250,4,2,6,80,0,0
383210,-222.222222222222,4,2,6,80,0,0
383337,-222.222222222222,4,2,6,5,0,0
383401,-222.222222222222,4,2,6,80,0,0
383718,-200,4,2,6,80,0,0
384227,-166.666666666667,4,2,6,80,0,0
384735,-133.333333333333,4,2,6,80,0,0
385244,-111.111111111111,4,2,6,80,0,0
385752,-50,4,2,6,80,0,0
386133,-100,4,2,6,80,0,0
386261,-66.6666666666667,4,2,4,80,0,0
386769,-200,4,2,6,80,0,0
386896,-200,4,2,6,5,0,0
386960,-200,4,2,6,80,0,0
387278,-166.666666666667,4,2,6,80,0,0
387405,-166.666666666667,4,2,6,5,0,0
387469,-166.666666666667,4,2,6,80,0,0
387786,-133.333333333333,4,2,6,80,0,0
388294,-111.111111111111,4,2,6,80,0,0
388803,-100,4,2,6,80,0,0
389311,-90.9090909090909,4,2,6,80,0,0
389820,-333.333333333333,4,2,6,80,0,0
389947,-66.6666666666667,4,2,6,80,0,0
390201,-100,4,2,6,80,0,0
390328,-62.5,4,2,6,80,0,0
390837,-200,4,2,6,80,0,0
390964,-200,4,2,6,5,0,0
391028,-200,4,2,6,80,0,0
391155,-200,4,2,6,5,0,0
391218,-200,4,2,6,80,0,0
391345,-153.846153846153,4,2,6,80,0,0
391472,-153.846153846153,4,2,6,5,0,0
391536,-153.846153846153,4,2,6,80,0,0
391663,-153.846153846153,4,2,6,5,0,0
391726,-153.846153846153,4,2,6,80,0,0
391854,-125,4,2,6,80,0,0
392362,-105.263157894737,4,2,6,80,0,0
394396,-57.1428571428571,4,2,6,80,0,0
394650,-50,4,2,6,80,0,0
394905,-100,4,2,6,80,0,0
395032,-100,4,2,6,5,0,0
395095,-100,4,2,6,80,0,0
395222,-100,4,2,6,5,0,0
395286,-100,4,2,6,80,0,0
395413,-90.9090909090909,4,2,6,80,0,0
395540,-90.9090909090909,4,2,6,5,0,0
395603,-90.9090909090909,4,2,6,80,0,0
395730,-90.9090909090909,4,2,6,5,0,0
395794,-90.9090909090909,4,2,6,80,0,0
395922,-83.3333333333333,4,2,6,80,0,0
396430,-76.9230769230769,4,2,6,80,0,0
398464,-66.6666666666667,4,2,5,80,0,0
398633,-66.6666666666667,4,2,5,5,0,0
398718,-66.6666666666667,4,2,5,80,0,0
399014,-66.6666666666667,4,2,5,5,0,0
399100,-66.6666666666667,4,2,5,80,0,0
399227,-250,4,2,5,80,0,0
399396,-250,4,2,5,5,0,0
399481,-66.6666666666667,4,2,5,80,0,0
399650,-66.6666666666667,4,2,5,5,0,0
399735,-66.6666666666667,4,2,5,80,0,0
400031,-66.6666666666667,4,2,5,5,0,0
400117,-66.6666666666667,4,2,5,80,0,0
401515,-250,4,2,11,50,0,0
402278,-250,4,2,5,80,0,0
402447,-250,4,2,5,5,0,0
402532,-250,4,2,69,80,0,0
407871,-200,4,2,69,80,0,0
408125,-166.666666666667,4,2,69,80,0,0
408379,-133.333333333333,4,2,69,80,0,0
408633,-277.777777777778,4,2,69,80,0,0
412701,-277.777777777778,4,2,11,20,0,0
412955,265.486725663717,4,2,11,30,1,0
413220,277.777777777778,4,2,11,30,1,0
413497,291.26213592233,4,2,11,30,1,0
413788,306.122448979592,4,2,11,30,1,0
414094,322.58064516129,4,2,11,30,1,0
414416,340.909090909091,4,2,11,30,1,0
414756,361.44578313253,4,2,11,30,1,0
414756,-200,4,2,11,30,0,0
414846,-200,4,2,11,5,0,0
414936,-200,4,2,11,30,0,0
415026,-200,4,2,11,5,0,0
415117,361.44578313253,4,2,11,30,1,0
415117,-200,4,2,11,30,0,0
415207,-200,4,2,11,5,0,0
415297,-200,4,2,11,30,0,0
415387,-200,4,2,11,5,0,0
415478,-200,4,2,11,30,0,0
415568,-200,4,2,11,5,0,0
415659,-200,4,2,11,30,0,0
415929,-200,4,2,11,5,0,0
416020,-200,4,2,11,30,0,0
416110,-200,4,2,11,5,0,0
416201,-200,4,2,11,30,0,0
416291,-200,4,2,11,5,0,0
416382,-200,4,2,11,30,0,0
416472,-200,4,2,11,5,0,0
416562,-588.235294117647,4,2,11,30,0,0
416833,-588.235294117647,4,2,11,5,0,0
416924,-588.235294117647,4,2,11,30,0,0
417195,-588.235294117647,4,2,11,5,0,0
417285,-588.235294117647,4,2,11,30,0,0
417556,-588.235294117647,4,2,11,5,0,0
417647,-588.235294117647,4,2,11,30,0,0
417918,-588.235294117647,4,2,11,5,0,0
418008,-200,4,2,11,30,0,0
418098,-200,4,2,11,5,0,0
418189,-200,4,2,11,30,0,0
418279,-200,4,2,11,5,0,0
418370,-200,4,2,11,30,0,0
418460,-200,4,2,11,5,0,0
418551,-200,4,2,11,30,0,0
418641,-200,4,2,11,5,0,0
418731,-200,4,2,11,30,0,0
418821,-200,4,2,11,5,0,0
418912,-200,4,2,11,30,0,0
419002,-200,4,2,11,5,0,0
419092,-200,4,2,11,30,0,0
419182,-200,4,2,11,5,0,0
419273,-200,4,2,11,30,0,0
419363,-200,4,2,11,5,0,0
419454,-588.235294117647,4,2,11,30,0,0
419725,-588.235294117647,4,2,11,5,0,0
419815,-588.235294117647,4,2,11,30,0,0
420086,-588.235294117647,4,2,11,5,0,0
420177,-588.235294117647,4,2,11,30,0,0
420448,-588.235294117647,4,2,11,5,0,0
420538,-588.235294117647,4,2,11,30,0,0
420809,-588.235294117647,4,2,11,5,0,0
420900,-200,4,2,11,30,0,0
420990,-200,4,2,11,5,0,0
421080,-200,4,2,11,30,0,0
421351,-200,4,2,11,5,0,0
421442,-588.235294117647,4,2,11,30,0,0
421713,-588.235294117647,4,2,11,5,0,0
421803,-200,4,2,11,30,0,0
421893,-200,4,2,11,5,0,0
421984,-588.235294117647,4,2,11,30,0,0
422255,-588.235294117647,4,2,11,5,0,0
422345,-588.235294117647,4,2,11,30,0,0
422525,-588.235294117647,4,2,11,5,0,0
422617,-588.235294117647,4,2,11,30,0,0
422797,-588.235294117647,4,2,11,5,0,0
422888,-588.235294117647,4,2,11,30,0,0
423159,-588.235294117647,4,2,11,5,0,0
423249,-200,4,2,11,30,0,0
423339,-200,4,2,11,5,0,0
423430,-200,4,2,11,30,0,0
423520,-200,4,2,11,5,0,0
423610,-200,4,2,11,30,0,0
423700,-200,4,2,11,5,0,0
423791,-200,4,2,11,30,0,0
423881,-200,4,2,11,5,0,0
423972,-200,4,2,11,30,0,0
424062,-400,4,2,11,30,0,0
424242,-400,4,2,11,5,0,0
424333,-200,4,2,11,30,0,0
424423,-200,4,2,11,5,0,0
424514,-400,4,2,11,30,0,0
424694,-400,4,2,11,5,0,0
424785,-400,4,2,11,30,0,0
424965,-400,4,2,11,5,0,0
425056,-200,4,2,11,30,0,0
425148,-200,4,2,11,5,0,0
425237,-200,4,2,11,30,0,0
425327,-200,4,2,11,5,0,0
425418,-200,4,2,11,30,0,0
425508,-400,4,2,11,30,0,0
425688,-400,4,2,11,5,0,0
425779,-200,4,2,11,30,0,0
425869,-200,4,2,11,5,0,0
425960,-400,4,2,11,30,0,0
426140,-400,4,2,11,5,0,0
426231,-400,4,2,11,30,0,0
426411,-400,4,2,11,5,0,0
426502,-200,4,2,11,30,0,0
426592,-200,4,2,11,5,0,0
426683,-200,4,2,11,30,0,0
426773,-200,4,2,11,5,0,0
426863,-200,4,2,11,30,0,0
426953,-200,4,2,11,5,0,0
427044,-200,4,2,11,30,0,0
427134,-200,4,2,11,5,0,0
427225,-200,4,2,11,30,0,0
427315,-200,4,2,11,5,0,0
427406,-588.235294117647,4,2,11,30,0,0
427677,-588.235294117647,4,2,11,5,0,0
427767,-588.235294117647,4,2,11,30,0,0
428038,-588.235294117647,4,2,11,5,0,0
428129,-588.235294117647,4,2,11,30,0,0
428400,-588.235294117647,4,2,11,5,0,0
428490,-588.235294117647,4,2,11,30,0,0
428761,-588.235294117647,4,2,11,5,0,0
428851,-588.235294117647,4,2,11,30,0,0
429122,-588.235294117647,4,2,11,5,0,0
429213,-588.235294117647,4,2,11,30,0,0
429484,-588.235294117647,4,2,11,5,0,0
429574,-200,4,2,11,30,0,0
429664,-200,4,2,11,5,0,0
429755,-200,4,2,11,30,0,0
429845,-200,4,2,11,5,0,0
429936,-200,4,2,11,30,0,0
430026,-200,4,2,11,5,0,0
430117,-200,4,2,11,30,0,0
430207,-200,4,2,11,5,0,0
430297,-588.235294117647,4,2,11,30,0,0
430568,-588.235294117647,4,2,11,5,0,0
430659,-588.235294117647,4,2,11,30,0,0
430930,-588.235294117647,4,2,11,5,0,0
431020,-588.235294117647,4,2,11,30,0,0
431923,-588.235294117647,4,2,11,5,0,0
432104,-400,4,2,11,30,0,0
432375,-400,4,2,11,5,0,0
432466,-400,4,2,11,30,0,0
433911,422.535211267606,4,2,11,30,1,0
435601,535.714285714286,4,2,11,30,1,0
437743,697.674418604651,4,2,11,30,1,0
439894,-62.5,4,2,11,30,0,0
440533,882.352941176471,4,2,11,30,1,0
440974,-100,4,2,11,20,0,0
444062,-100,4,2,11,80,0,0
444283,-100,4,2,11,40,0,0
444944,-100,4,2,11,30,0,0
445900,-100,4,2,11,5,0,0
446047,-100,4,2,11,20,0,0
446930,-100,4,2,11,10,0,0
447591,-100,4,2,11,5,0,0

[Colours]
Combo1 : 168,247,255
Combo2 : 1,70,252
Combo3 : 255,204,250

[HitObjects]
20,21,2518,6,1,P|28:28|34:43,1,23.6249992790222,0|0,0:0|2:0,0:0:0:0:
104,74,2698,2,1,P|101:84|91:97,1,23.6249992790222,0|0,0:0|2:0,0:0:0:0:
109,173,2879,2,1,P|98:176|82:174,1,23.6249992790222,0|0,0:0|2:0,0:0:0:0:
6,121,3060,1,0,0:0:0:0:
184,112,3241,6,1,P|199:114|239:128,1,47.2499985580445,0|0,0:0|2:0,0:0:0:0:
335,142,3602,6,1,P|342:160|345:172,1,23.6249992790222,0|0,0:0|2:0,0:0:0:0:
418,49,3783,2,1,P|411:67|408:79,1,23.6249992790222,0|0,0:0|2:0,0:0:0:0:
430,237,3963,6,1,P|423:255|420:267,1,23.6249992790222,0|0,0:0|2:0,0:0:0:0:
347,144,4144,2,1,P|354:162|357:174,1,23.6249992790222,0|0,0:0|2:0,0:0:0:0:
428,47,4325,2,1,P|421:65|418:77,1,23.6249992790222,0|0,0:0|2:0,0:0:0:0:
301,4,4686,6,1,P|265:30|262:73,1,70.8749978370667,0|0,0:0|2:0,0:0:0:0:
181,48,5048,2,1,P|185:92|221:116,1,70.8749978370667,0|0,0:0|2:0,0:0:0:0:
158,170,5409,2,1,P|198:188|237:169,1,70.8749978370667,0|0,0:0|2:0,0:0:0:0:
281,126,5771,1,0,0:0:0:0:
219,190,5951,6,1,P|214:211|212:233,1,23.6249992790222,0|0,0:0|2:0,0:0:0:0:
373,119,6132,2,1,P|364:78|355:40,1,70.8749978370667,0|0,0:0|2:0,0:0:0:0:
259,14,6494,6,1,P|254:35|252:57,1,23.6249992790222,0|0,0:0|2:0,0:0:0:0:
152,146,6674,2,1,P|156:167|159:189,1,23.6249992790222,0|0,0:0|2:0,0:0:0:0:
262,232,6855,2,1,P|257:253|255:275,1,23.6249992790222,0|0,0:0|2:0,0:0:0:0:
188,294,7036,2,1,P|192:315|195:337,1,23.6249992790222,0|0,0:0|2:0,0:0:0:0:
441,307,7216,6,1,P|415:271|372:268,1,70.8749978370667,0|0,0:0|2:0,0:0:0:0:
396,187,7578,2,1,P|351:191|327:227,1,70.8749978370667,0|0,0:0|2:0,0:0:0:0:
273,167,7939,2,1,P|254:207|273:246,1,70.8749978370667,0|0,0:0|2:0,0:0:0:0:
448,303,8301,2,1,P|422:267|379:264,1,70.8749978370667,0|0,0:0|2:0,0:0:0:0:
315,291,8662,1,0,0:0:0:0:
475,205,8843,1,0,0:0:0:0:
485,197,8933,6,1,P|491:172|495:138,1,47.2499985580445,0|0,0:0|2:0,0:0:0:0:
491,135,9204,1,0,0:0:0:0:
323,163,9566,6,1,P|327:183|331:202,1,23.6249992790222,0|0,0:0|2:0,0:0:0:0:
400,72,9747,2,1,P|395:92|392:111,1,23.6249992790222,0|0,0:0|2:0,0:0:0:0:
323,163,10108,6,1,P|327:183|331:202,1,23.6249992790222,0|0,0:0|2:0,0:0:0:0:
273,0,10379,2,1,P|277:20|281:39,1,23.6249992790222,0|0,0:0|0:0,0:0:0:0:
400,72,10650,2,1,P|395:92|392:111,1,23.6249992790222,0|0,0:0|2:0,0:0:0:0:
79,91,11012,6,1,P|74:109|71:119,1,23.6249992790222,0|0,0:0|2:0,0:0:0:0:
86,208,11192,2,1,P|81:226|78:236,1,23.6249992790222,0|0,0:0|2:0,0:0:0:0:
99,325,11373,2,1,P|94:343|91:353,1,23.6249992790222,0|0,0:0|2:0,0:0:0:0:
0,298,11554,6,1,P|29:291|48:289,1,30.3749990730286,0|0,0:0|2:0,0:0:0:0:
180,340,11734,1,0,0:0:0:0:
190,347,11825,2,1,P|219:340|255:336,1,60.7499981460572,0|0,0:0|2:0,0:0:0:0:
312,196,12096,2,1,P|341:189|360:187,1,30.3749990730286,0|0,0:0|2:0,0:0:0:0:
485,327,12277,6,1,P|471:364|441:376,1,60.7499981460572,0|0,0:0|2:0,0:0:0:0:
394,249,12548,2,1,P|433:242|458:262,1,60.7499981460572,0|0,0:0|2:0,0:0:0:0:
361,354,12819,2,1,P|348:338|350:322,1,30.3749990730286,0|0,0:0|2:0,0:0:0:0:
504,188,13000,6,1,P|508:171|512:146,1,30.3749990730286,0|0,0:0|2:0,0:0:0:0:
416,144,13180,1,0,0:0:0:0:
409,129,13271,2,1,P|404:112|401:87,1,30.3749990730286,0|0,0:0|0:0,0:0:0:0:
504,29,13542,6,1,P|481:40|449:41,1,30.3749990730286,0|0,0:0|2:0,0:0:0:0:
189,108,13722,6,1,P|203:145|233:157,1,60.7499981460572,0|0,0:0|2:0,0:0:0:0:
280,30,13993,2,1,P|240:23|215:43,1,60.7499981460572,0|0,0:0|2:0,0:0:0:0:
313,135,14264,2,1,P|325:119|323:103,1,30.3749990730286,0|0,0:0|2:0,0:0:0:0:
144,41,14445,6,1,P|127:45|112:50,1,30.3749990730286,0|0,0:0|2:0,0:0:0:0:
48,91,14626,1,0,0:0:0:0:
72,252,14807,6,1,P|104:265|108:264,1,30.3749990730286,0|0,0:0|2:0,0:0:0:0:
137,334,14987,2,1,P|164:312|165:308,1,30.3749990730286,0|0,0:0|2:0,0:0:0:0:
107,158,15168,6,1,P|111:192|114:195,1,33.75,0|0,0:0|2:0,0:0:0:0:
209,147,15530,2,1,P|181:168|180:172,1,33.75,0|0,0:0|2:0,0:0:0:0:
235,243,15891,6,1,P|262:221|263:217,1,33.75,0|0,0:0|2:0,0:0:0:0:
339,225,16253,2,1,P|334:190|331:187,1,33.75,0|0,0:0|2:0,0:0:0:0:
239,247,16614,2,1,P|266:225|267:221,1,33.75,0|0,0:0|2:0,0:0:0:0:
161,172,16975,2,1,P|193:185|197:184,1,33.75,0|0,0:0|2:0,0:0:0:0:
339,113,17337,6,1,P|358:115|381:122,1,33.75,0|0,0:0|2:0,0:0:0:0:
437,159,17518,1,0,0:0:0:0:
391,263,17698,6,1,P|393:282|400:305,1,33.75,0|0,0:0|2:0,0:0:0:0:
512,159,17879,2,1,P|510:178|503:201,1,33.75,0|0,0:0|2:0,0:0:0:0:
362,43,18060,6,1,P|316:39|269:87,1,101.25,0|0,0:0|2:0,0:0:0:0:
316,188,18421,2,1,P|362:192|409:144,1,101.25,0|0,0:0|2:0,0:0:0:0:
238,145,18783,6,1,P|159:158|81:172,1,135,0|0,0:0|0:0,0:0:0:0:
23,263,19325,2,1,P|102:276|180:290,1,135,0|0,0:0|2:0,0:0:0:0:
219,136,19867,6,1,P|158:145|99:156,1,101.25,0|0,0:0|2:0,0:0:0:0:
0,198,20228,5,0,0:0:0:0:
4,235,20408,1,0,0:0:0:0:
32,259,20589,1,0,0:0:0:0:
225,145,20770,6,1,B|270:138|286:183|278:192|298:232|354:228,1,161.999995056153,0|0,0:0|2:0,0:0:0:0:
449,295,21312,6,1,P|472:291|506:288,1,40.4999987640381,0|0,0:0|2:0,0:0:0:0:
400,150,21493,2,1,P|376:146|343:143,1,40.4999987640381,0|0,0:0|2:0,0:0:0:0:
250,239,21673,5,0,0:0:0:0:
265,263,21884,1,0,0:0:0:0:
291,275,22095,1,0,0:0:0:0:
229,154,22306,6,1,B|184:147|168:192|176:201|156:241|100:237,1,161.999995056153,0|0,0:0|2:0,0:0:0:0:
96,156,22940,6,1,P|72:152|39:149,1,40.4999987640381,0|0,0:0|2:0,0:0:0:0:
190,72,23151,2,1,P|213:68|247:65,1,40.4999987640381,0|0,0:0|2:0,0:0:0:0:
68,16,23363,5,0,0:0:0:0:
83,53,23630,1,0,0:0:0:0:
113,72,23898,1,0,0:0:0:0:
96,156,24166,5,0,0:0:0:0:
132,160,24433,1,0,0:0:0:0:
166,145,24701,1,0,0:0:0:0:
194,107,24970,1,0,0:0:0:0:
192,47,25238,1,0,0:0:0:0:
288,196,25505,5,0,0:0:0:0:
250,172,25621,1,0,0:0:0:0:
278,201,25737,1,0,0:0:0:0:
502,20,26900,5,0,0:0:0:0:
335,275,27598,6,1,B|306:252|266:282|265:316|284:365|322:363|400:390|441:309|427:220,1,303.750011587143,0|0,0:0|0:0,0:0:0:0:
380,75,28295,6,1,P|345:83|314:92,1,67.5,12|0,3:1|2:0,0:0:0:0:
338,0,28422,1,0,0:0:0:0:
338,0,28549,1,0,0:0:0:0:
434,151,28676,6,1,P|354:168|277:191,1,162,0|0,3:0|2:0,0:0:0:0:
260,197,28930,1,0,1:0:0:0:
89,238,29057,1,0,3:0:0:0:
201,118,29184,1,0,3:0:0:0:
184,231,29311,6,1,P|167:261|159:298,1,67.5,4|0,3:1|2:0,0:0:0:0:
143,384,29439,1,0,0:0:0:0:
143,384,29566,1,0,0:0:0:0:
89,238,29693,6,1,P|75:155|36:83,1,162,0|0,3:0|2:0,0:0:0:0:
26,76,29947,1,0,1:0:0:0:
217,37,30074,1,0,3:0:0:0:
110,0,30201,1,0,3:0:0:0:
301,155,30328,5,6,3:1:0:0:
220,122,30456,1,0,0:0:0:0:
135,82,30583,1,0,0:0:0:0:
382,134,30710,6,1,B|397:182|453:197|453:197|397:182|356:231,1,202.5,0|0,3:0|2:0,0:0:0:0:
350,239,30964,1,0,1:0:0:0:
301,155,31091,1,0,3:0:0:0:
429,270,31218,1,0,3:0:0:0:
277,326,31345,5,6,3:0:0:0:
264,330,31430,2,1,P|236:322|207:297,1,53.9999983520508,0|0,0:0|2:0,0:0:0:0:
130,384,31600,1,2,3:0:0:0:
121,373,31685,2,1,P|118:344|132:308,1,53.9999983520508,0|0,0:0|2:0,0:0:0:0:
24,265,31854,1,0,0:0:0:0:
30,253,31939,2,1,P|55:240|94:241,1,53.9999983520508,0|0,0:0|2:0,0:0:0:0:
99,124,32108,1,0,3:0:0:0:
112,126,32193,2,1,P|132:145|144:182,1,53.9999983520508,0|0,0:0|2:0,0:0:0:0:
227,217,32362,6,1,P|260:223|292:234,1,67.5,4|0,3:1|2:0,0:0:0:0:
375,257,32489,1,0,0:0:0:0:
375,257,32617,1,0,0:0:0:0:
503,101,32744,6,1,P|425:93|372:151,1,162,0|0,3:0|2:0,0:0:0:0:
367,167,32998,1,0,1:0:0:0:
401,333,33125,1,0,3:0:0:0:
472,234,33252,1,0,3:0:0:0:
292,234,33379,5,4,3:1:0:0:
255,144,33506,1,0,0:0:0:0:
310,72,33633,1,0,0:0:0:0:
167,153,33761,6,1,P|95:120|78:44,1,162,0|0,3:0|2:0,0:0:0:0:
86,22,34015,1,0,1:0:0:0:
177,75,34142,1,0,3:0:0:0:
16,151,34269,1,0,3:0:0:0:
101,244,34396,6,1,P|153:254|204:271,1,108,6|0,3:1|2:0,0:0:0:0:
292,305,34650,1,0,0:0:0:0:
436,179,34778,2,1,P|383:188|350:229,1,108,0|0,3:0|0:0,0:0:0:0:
293,324,35032,1,0,1:0:0:0:
265,204,35159,1,0,3:0:0:0:
265,204,35286,1,0,3:0:0:0:
512,295,35413,6,1,P|490:232|432:201,2,135,4|0|0,3:0|0:0|0:0,0:0:0:0:
485,88,35794,2,1,P|420:75|364:109,2,135,0|0|0,3:0|0:0|0:0,0:0:0:0:
292,8,36176,2,1,P|248:57|250:123,1,135,0|2,3:0|3:1,0:0:0:0:
84,219,36430,5,12,3:1:0:0:
163,69,36557,1,0,0:0:0:0:
265,204,36684,1,0,0:0:0:0:
16,132,36811,2,1,P|119:137|176:224,1,216,0|0,3:0|1:0,0:0:0:0:
56,309,37193,2,1,P|48:257|83:218,1,108,0|0,3:0|3:0,0:0:0:0:
253,368,37447,5,4,3:1:0:0:
437,268,37574,1,0,0:0:0:0:
279,189,37701,1,0,0:0:0:0:
261,289,37828,2,1,P|348:232|353:128,1,216,0|0,3:0|1:0,0:0:0:0:
498,67,38210,2,1,P|455:36|405:50,1,108,0|0,3:0|3:0,0:0:0:0:
260,99,38464,5,6,3:1:0:0:
168,69,38591,1,0,0:0:0:0:
67,38,38718,1,0,0:0:0:0:
250,182,38845,6,1,P|171:200|93:223,1,162,0|0,3:0|2:0,0:0:0:0:
74,227,39100,1,0,1:0:0:0:
266,264,39227,1,0,3:0:0:0:
90,317,39354,1,0,3:0:0:0:
211,349,39481,6,1,P|274:364|328:327,2,135,4|0|2,3:0|0:0|0:0,0:0:0:0:
457,353,39862,2,1,P|367:312|344:217,1,202.500007724762,0|0,3:0|0:0,0:0:0:0:
512,254,40244,2,1,P|448:272|418:252,1,101.250003862381,0|2,3:0|3:1,0:0:0:0:
449,28,40498,5,4,3:1:0:0:
467,190,40625,1,0,0:0:0:0:
512,96,40752,1,0,0:0:0:0:
420,109,40879,2,1,P|340:125|263:150,1,162,0|0,3:0|2:0,0:0:0:0:
244,159,41133,1,0,1:0:0:0:
125,72,41261,1,0,3:0:0:0:
201,86,41388,1,0,3:0:0:0:
197,224,41515,6,1,B|149:239|134:295|134:295|149:239|100:198,1,202.5,4|0,3:1|2:0,0:0:0:0:
48,150,41769,1,0,0:0:0:0:
227,312,41896,2,1,B|275:327|290:383|290:383|275:327|324:286,1,202.5,0|0,3:0|0:0,0:0:0:0:
386,234,42150,1,0,1:0:0:0:
375,357,42278,1,0,3:0:0:0:
375,357,42405,1,0,3:0:0:0:
469,287,42532,6,1,P|448:242|401:227,1,101.250003862381,12|0,3:1|0:0,0:0:0:0:
312,211,42659,1,0,0:0:0:0:
472,141,42786,1,8,0:0:0:0:
370,119,42913,1,8,0:3:0:0:
370,119,42977,1,0,0:0:0:0:
370,119,43040,1,0,0:0:0:0:
489,147,43167,1,8,0:0:0:0:
381,28,43294,1,8,0:3:0:0:
381,28,43358,1,0,0:0:0:0:
381,28,43421,1,8,0:3:0:0:
250,108,43549,6,1,P|203:93|182:48,1,101.250003862381,8|0,0:0|2:0,0:0:0:0:
251,4,43676,1,8,0:3:0:0:
251,4,43739,1,0,0:0:0:0:
251,4,43803,1,8,0:3:0:0:
110,97,43930,1,8,0:0:0:0:
230,197,44057,5,8,0:3:0:0:
246,189,44121,2,1,P|257:136|223:102,2,80.9999975280763,8|8|8,0:3|0:3|0:3,0:0:0:0:
240,279,44311,1,8,0:3:0:0:
254,287,44375,2,1,P|304:270|317:224,2,80.9999975280763,8|8|8,0:3|0:3|0:3,0:0:0:0:
166,254,44566,6,1,P|128:258|95:263,1,67.5,0|0,3:3|0:0,0:0:0:0:
16,272,44820,1,0,3:0:0:0:
47,165,44947,2,1,P|96:170|141:176,1,67.5,0|0,0:0|3:0,0:0:0:0:
249,244,45201,5,0,0:0:0:0:
166,254,45328,1,0,3:0:0:0:
193,117,45456,2,1,P|242:122|287:128,1,67.5,0|0,0:0|3:0,0:0:0:0:
440,212,45710,5,0,0:0:0:0:
357,222,45837,1,0,3:0:0:0:
379,53,45964,2,1,P|428:58|473:64,1,67.5,0|0,0:0|3:0,0:0:0:0:
440,212,46218,5,0,0:0:0:0:
357,222,46345,1,0,3:0:0:0:
388,142,46472,1,0,0:0:0:0:
413,291,46600,6,1,P|407:340|401:385,1,67.5,2|0,3:1|0:0,0:0:0:0:
316,306,46854,1,0,3:0:0:0:
283,212,46981,6,1,P|332:217|377:223,1,67.5,0|0,0:0|3:0,0:0:0:0:
413,291,47235,1,0,0:0:0:0:
316,306,47362,1,0,3:0:0:0:
195,228,47489,6,1,P|200:178|206:133,1,67.5,0|0,0:0|3:0,0:0:0:0:
300,102,47744,1,0,0:0:0:0:
283,212,47871,1,0,3:0:0:0:
186,316,47998,6,1,P|136:321|91:327,1,67.5,0|0,0:0|3:0,0:0:0:0:
22,350,48252,1,0,0:0:0:0:
46,256,48379,1,0,3:0:0:0:
112,321,48506,1,0,0:0:0:0:
185,147,48633,6,1,P|190:187|194:227,1,80.9999975280763,2|0,3:1|0:0,0:0:0:0:
186,316,48888,1,0,3:0:0:0:
194,227,49015,1,0,0:0:0:0:
273,142,49142,6,1,P|278:182|282:222,1,80.9999975280763,0|0,3:0|0:0,0:0:0:0:
273,330,49397,1,0,3:0:0:0:
282,222,49524,1,0,0:0:0:0:
360,138,49650,6,1,P|365:178|369:218,1,80.9999975280763,0|0,3:0|0:0,0:0:0:0:
365,348,49905,1,0,3:0:0:0:
369,218,50032,1,0,0:0:0:0:
447,135,50159,6,1,P|452:175|456:215,1,80.9999975280763,0|0,3:0|0:0,0:0:0:0:
453,369,50414,1,0,3:0:0:0:
456,215,50541,1,0,0:0:0:0:
308,61,50667,6,1,P|253:53|197:47,1,101.250003862381,2|0,3:1|0:0,0:0:0:0:
41,123,50922,1,8,3:0:0:0:
207,48,51049,1,0,0:0:0:0:
298,143,51176,6,1,P|243:135|187:129,1,101.250003862381,0|0,3:0|0:0,0:0:0:0:
8,229,51431,1,8,3:0:0:0:
197,130,51558,1,0,0:0:0:0:
343,218,51684,6,1,B|393:225|393:225|413:246|413:246|149:214|149:214|216:302|216:302|365:321,1,607.500023174287,8|0,3:2|0:0,0:0:0:0:
375,330,52193,2,1,B|405:334|405:334|408:340|408:340|448:345,1,67.5,8|0,3:1|0:0,0:0:0:0:
291,153,52320,2,1,B|246:146|246:146|243:137|243:137|186:128,1,101.250003862381,0|0,3:0|0:0,0:0:0:0:
347,85,52447,5,8,3:0:0:0:
361,91,52511,1,0,3:0:0:0:
371,99,52574,1,0,3:0:0:0:
376,110,52638,1,0,3:0:0:0:
379,123,52701,5,12,3:0:0:0:
478,58,52828,2,1,B|502:100|502:100|447:146|464:220,1,182.250000695229,0|12,3:0|3:0,0:0:0:0:
423,0,53083,1,0,3:0:0:0:
291,153,53210,5,12,3:0:0:0:
487,66,53337,2,1,B|503:111|503:111|441:148|445:224,1,182.250000695229,0|12,3:0|3:0,0:0:0:0:
442,0,53592,1,0,3:0:0:0:
210,189,53718,5,12,3:0:0:0:
495,79,53845,2,1,B|503:127|503:127|435:152|426:227,1,182.250000695229,0|12,3:0|3:0,0:0:0:0:
462,6,54100,1,0,3:0:0:0:
125,227,54227,5,12,3:0:0:0:
503,100,54354,2,1,B|503:148|503:148|432:161|409:234,1,182.250000695229,0|12,3:0|3:0,0:0:0:0:
483,22,54609,1,0,3:0:0:0:
221,178,54735,5,12,3:0:0:0:
280,113,54862,2,1,P|296:83|297:50,1,67.5,0|0,3:0|0:0,0:0:0:0:
251,259,54989,2,1,P|267:287|296:305,1,67.5,12|0,3:0|0:0,0:0:0:0:
139,162,55117,2,1,P|105:162|76:178,1,67.5,0|0,3:0|0:0,0:0:0:0:
221,178,55244,5,12,3:0:0:0:
149,50,55371,2,1,P|178:68|195:96,1,67.5,0|0,3:0|0:0,0:0:0:0:
149,304,55499,2,1,P|150:271|167:242,1,67.5,12|0,3:0|0:0,0:0:0:0:
370,178,55626,2,1,P|341:194|307:194,1,67.5,0|0,3:0|0:0,0:0:0:0:
221,178,55752,5,12,3:0:0:0:
294,96,55879,2,1,P|314:58|297:19,1,87.749995983124,0|0,3:0|0:0,0:0:0:0:
258,279,56006,2,1,P|279:315|321:320,1,87.749995983124,12|0,3:0|0:0,0:0:0:0:
117,157,56133,2,1,P|74:157|49:191,1,87.749995983124,0|0,3:0|0:0,0:0:0:0:
221,178,56261,5,12,3:0:0:0:
123,33,56388,2,1,P|165:38|187:75,1,87.749995983124,0|0,3:0|0:0,0:0:0:0:
148,334,56515,2,1,P|131:295|152:258,1,87.749995983124,12|0,3:0|0:0,0:0:0:0:
396,163,56642,2,1,P|371:197|328:198,1,87.749995983124,0|0,3:0|0:0,0:0:0:0:
39,329,56769,5,12,3:0:0:0:
22,321,56833,1,0,3:0:0:0:
12,302,56896,1,0,3:0:0:0:
9,281,56960,1,0,3:0:0:0:
18,264,57023,2,1,P|36:244|62:238,1,54,4|0,3:0|2:0,0:0:0:0:
286,384,57151,5,12,3:0:0:0:
310,379,57215,1,0,3:0:0:0:
329,358,57278,1,0,3:0:0:0:
339,332,57341,1,0,3:0:0:0:
334,308,57404,2,1,P|316:277|286:260,1,54,4|0,3:0|2:0,0:0:0:0:
4,96,57532,5,12,3:0:0:0:
33,81,57596,1,0,3:0:0:0:
70,92,57659,1,0,3:0:0:0:
99,115,57723,1,0,3:0:0:0:
109,147,57786,2,1,P|109:192|70:225,1,94.4999971160889,4|0,3:0|2:0,0:0:0:0:
423,177,57914,5,12,3:0:0:0:
404,148,57978,1,0,3:0:0:0:
366,139,58041,1,0,3:0:0:0:
330,144,58105,1,0,3:0:0:0:
305,167,58168,2,1,P|281:205|299:253,1,94.4999971160889,4|0,3:0|2:0,0:0:0:0:
144,384,58294,5,12,3:0:0:0:
154,346,58358,1,0,3:0:0:0:
163,309,58422,1,0,3:0:0:0:
174,271,58485,1,0,3:0:0:0:
183,234,58549,1,4,3:0:0:0:
194,197,58612,1,0,3:0:0:0:
203,159,58676,1,0,3:0:0:0:
214,122,58739,1,0,3:0:0:0:
230,72,58803,6,1,B|227:28|227:28|248:5|248:5|254:36|254:36|230:72,1,151.875005793572,6|2,3:0|0:0,0:0:0:0:
194,198,59057,2,1,L|182:240,3,43.874997991562,2|2|2|2,0:0|0:0|0:0|0:0,0:0:0:0:
61,63,59311,6,1,B|103:56|103:56|138:83,1,87.749995983124,2|2,0:0|0:0,0:0:0:0:
291,180,59502,1,0,0:0:0:0:
308,190,59566,2,1,B|350:196|350:196|385:169,1,87.749995983124,2|2,0:0|0:0,0:0:0:0:
459,16,59820,5,2,0:0:0:0:
427,89,59947,1,2,0:0:0:0:
319,110,60074,2,1,P|314:57|337:104,1,151.875005793572,2|0,0:0|0:0,0:0:0:0:
463,166,60328,6,1,B|523:149|523:149|497:135|497:135|489:150|464:165,3,135,2|0|2|0,0:0|0:0|0:0|0:0,0:0:0:0:
456,349,60583,6,1,B|416:339,1,40.5,12|0,0:3|0:0,0:0:0:0:
394,252,60837,6,1,B|328:235|328:235|80:352|80:352|-3:326,1,405,4|0,3:1|0:0,0:0:0:0:
73,213,61091,2,1,B|4:191|4:191|31:249|31:249|176:295|176:295|212:278|212:278|368:324,1,405,12|0,3:3|0:0,0:0:0:0:
291,307,61345,6,1,P|308:346|288:307,1,135,4|0,3:0|0:0,0:0:0:0:
167,203,61472,2,1,P|149:190|168:201,1,67.5,0|0,1:1|2:0,0:0:0:0:
247,153,61536,2,1,P|238:133|248:152,1,67.5,0|0,1:1|2:0,0:0:0:0:
341,161,61600,2,1,P|343:139|342:161,1,67.5,12|0,3:0|2:0,0:0:0:0:
154,305,61727,6,1,B|111:292|111:292|100:299|100:299|24:278,1,101.250003862381,8|0,2:2|0:0,0:0:0:0:
17,115,61854,2,1,B|2:96|2:96|108:126,1,101.250003862381,8|0,3:1|0:0,0:0:0:0:
293,309,61981,2,1,B|307:384|307:384|278:317,1,135,8|0,0:1|0:0,0:0:0:0:
95,220,62108,6,1,B|33:204|33:204|201:162|201:162|243:211|243:211|396:254,1,405,12|0,3:3|0:0,0:0:0:0:
477,113,62362,2,1,B|506:43|506:43|396:95|396:95|435:239|435:239|406:312,1,405,4|0,3:0|1:1,0:0:0:0:
293,309,62617,6,1,B|293:324|271:332|271:332|277:309|293:309,1,67.5,12|0,3:0|2:0,0:0:0:0:
265,268,62680,2,1,B|258:281|234:277|234:277|251:261|265:268,1,67.5,2|0,2:1|2:0,0:0:0:0:
263,221,62744,2,1,B|250:229|231:214|231:214|254:208|263:221,1,67.5,2|0,2:1|2:0,0:0:0:0:
286,180,62807,2,1,B|270:180|262:158|262:158|285:164|286:180,1,67.5,2|0,2:1|2:0,0:0:0:0:
361,159,62871,6,1,B|395:153|395:153|336:249,1,135,2|0,3:0|2:0,0:0:0:0:
179,359,62998,2,1,B|165:364|150:371|137:350|122:352|111:370|114:387|134:406|157:404|146:377|162:370|190:355,1,135,2|0,0:3|2:0,0:0:0:0:
345,342,63125,6,1,B|410:335|410:335|279:304|279:304|261:239|261:239|120:206,1,405,12|0,3:3|0:0,0:0:0:0:
53,226,63379,6,1,B|41:245|41:245|22:234|22:234|33:214|33:214|53:226,1,90,2|0,3:0|2:0,0:0:0:0:
143,137,63464,2,1,B|131:117|131:117|151:106|151:106|162:125|162:125|143:137,1,90,0|0,0:0|0:0,0:0:0:0:
180,262,63549,2,1,B|202:262|202:262|202:284|202:284|179:284|179:284|180:262,1,90,0|0,0:0|2:0,0:0:0:0:
59,137,63633,6,1,B|20:105|20:105|71:149,1,101.250003862381,8|0,3:3|0:0,0:0:0:0:
224,186,63761,2,1,B|266:176|266:176|274:166|274:166|329:153,1,101.250003862381,2|0,1:0|0:0,0:0:0:0:
486,103,63888,6,1,B|526:51|526:51|516:143|516:143|363:183|363:183|329:160|329:160|251:179,1,405,2|0,3:1|0:0,0:0:0:0:
129,340,64142,2,1,B|75:353|75:353|42:381|42:381|259:331|259:331|316:248,1,405,8|0,3:3|0:0,0:0:0:0:
377,90,64396,6,1,B|391:64|362:29|362:29|349:74|377:90,1,135,0|0,3:0|0:0,0:0:0:0:
472,193,64523,2,1,B|475:207|498:209|498:209|487:188|472:193,1,67.5,0|0,1:0|2:0,0:0:0:0:
411,254,64587,2,1,B|403:266|418:284|418:284|424:261|411:254,1,67.5,0|0,1:0|2:0,0:0:0:0:
322,236,64650,2,1,B|307:239|305:262|305:262|326:251|322:236,1,67.5,8|0,3:3|2:0,0:0:0:0:
484,82,64778,6,1,B|540:45|540:45|477:103,1,135,2|0,3:3|0:0,0:0:0:0:
298,144,64905,6,1,B|233:132|233:132|218:106|218:106|81:78|81:78|16:113|16:113|143:146,1,405,4|0,3:3|0:0,0:0:0:0:
229,270,65159,2,1,B|243:310|243:310|196:391|196:391|106:132,1,405,12|0,3:3|0:0,0:0:0:0:
18,112,65413,6,1,B|13:99|13:99|-7:99|-7:99|5:116|5:116|18:112,1,67.5,0|0,3:0|2:0,0:0:0:0:
53,55,65477,2,1,B|55:41|55:41|37:31|37:31|39:52|39:52|53:55,1,67.5,0|0,1:0|2:0,0:0:0:0:
116,39,65540,2,1,B|124:29|124:29|114:10|114:10|106:30|106:30|116:39,1,67.5,0|0,1:0|2:0,0:0:0:0:
178,60,65604,2,1,B|190:55|190:55|190:34|190:34|173:47|173:47|178:60,1,67.5,0|0,1:0|2:0,0:0:0:0:
195,138,65667,6,1,B|182:183|182:183|186:197|186:197|162:274,1,101.250003862381,8|0,3:3|0:0,0:0:0:0:
177,323,65794,2,1,B|164:378|164:378|188:315,1,101.250003862381,8|0,0:2|0:0,0:0:0:0:
402,238,65922,6,1,B|440:230|440:230|416:269|416:269|293:295|293:295|264:269|264:269|88:303,1,405,0|0,3:3|0:0,0:0:0:0:
33,268,66176,6,1,B|20:321|20:321|61:364,1,101.250003862381,12|0,3:3|2:0,0:0:0:0:
188,327,66303,2,1,B|201:274|201:274|160:231,1,101.250003862381,2|0,0:1|2:0,0:0:0:0:
23,270,66430,2,1,B|10:323|10:323|51:366,1,101.250003862381,0|0,3:0|2:0,0:0:0:0:
279,379,66557,6,1,L|337:366,1,50.6250019311906,0|0,1:0|1:0,0:0:0:0:
325,359,66621,2,1,L|383:346,1,50.6250019311906,0|0,1:0|1:0,0:0:0:0:
371,341,66684,2,1,L|429:328,1,50.6250019311906,8|0,3:3|2:0,0:0:0:0:
482,216,66811,2,1,B|507:223|507:223|386:250,1,101.250003862381,2|0,0:3|0:0,0:0:0:0:
150,215,66939,6,1,B|118:221|118:221|169:236|169:236|250:131|250:131|263:122|263:122|333:25|333:25|422:44,1,405,4|0,3:0|0:0,0:0:0:0:
495,120,67193,2,1,B|477:136|477:136|345:106,1,135,12|0,3:0|0:0,0:0:0:0:
220,0,67320,5,4,3:0:0:0:
199,5,67383,1,4,3:0:0:0:
216,19,67447,2,1,B|227:81|156:150|137:73|41:114|43:219,1,270,2|0,3:0|0:0,0:0:0:0:
137,368,67638,2,1,B|109:417|39:382|38:318|81:299|113:277|130:296|172:250|154:158,1,270,2|0,3:0|0:0,0:0:0:0:
126,16,67828,2,1,B|113:-2|63:-9|63:-9|107:3|141:57,1,135,2|0,3:0|0:0,0:0:0:0:
380,113,67956,6,1,B|387:133|405:147|405:147|330:267|298:363,1,270,4|0,3:0|1:0,0:0:0:0:
225,257,68146,2,1,B|238:240|241:218|241:218|383:223|482:203,1,270,4|0,3:0|1:0,0:0:0:0:
428,320,68337,2,1,B|407:316|386:324|386:324|319:199|252:123,1,270,4|2,3:0|1:0,0:0:0:0:
380,113,68528,2,1,B|387:133|405:147|405:147|330:267|298:363,1,270,4|2,3:0|1:0,0:0:0:0:
231,274,68718,5,4,3:0:0:0:
190,287,68782,1,8,1:1:0:0:
146,281,68845,1,8,1:1:0:0:
107,263,68909,1,8,1:1:0:0:
75,232,68972,6,1,B|47:204|47:204|41:204|41:204|7:167|7:167|7:161|7:161|-12:141|-12:141|23:142|23:142|75:232,1,269.324988904152,4|0,3:3|0:0,0:0:0:0:
141,361,69227,2,1,L|154:384,5,26.9999991760254,8|0|0|0|0|0,3:3|0:0|0:0|1:3|0:0|0:0,0:0:0:0:
109,83,69481,6,1,B|117:80|117:80|130:58|130:58|99:48|99:48|78:72|78:72|100:85|100:85|109:83,1,135,2|0,3:3|2:0,0:0:0:0:
147,74,69544,2,1,B|155:71|155:71|176:83|176:83|155:107|155:107|126:97|126:97|138:76|138:76|147:74,1,126.562503017485,0|0,1:3|2:0,0:0:0:0:
192,75,69608,2,1,B|199:77|199:77|219:65|219:65|200:44|200:44|173:53|173:53|184:72|184:72|192:75,1,118.125001126528,0|0,1:3|2:0,0:0:0:0:
227,83,69672,2,1,B|234:84|234:84|244:103|244:103|219:112|219:112|201:91|201:91|219:81|219:81|227:83,1,109.687503138185,0|0,1:3|2:0,0:0:0:0:
267,106,69735,2,1,B|271:110|271:110|291:110|291:110|286:86|286:86|262:81|262:81|262:101|262:101|267:106,1,101.250003862381,8|0,3:3|2:0,0:0:0:0:
289,126,69799,2,1,B|293:130|293:130|293:148|293:148|270:144|270:144|266:121|266:121|284:121|284:121|289:126,1,92.812500885129,2|0,1:3|2:0,0:0:0:0:
309,163,69862,2,1,B|311:168|311:168|325:176|325:176|331:157|331:157|316:143|316:143|308:157|308:157|309:163,1,84.375,2|0,1:3|2:0,0:0:0:0:
317,186,69926,2,1,B|317:191|317:191|310:203|310:203|297:191|297:191|303:173|303:173|315:181|315:181|317:186,1,75.9375028967858,2|0,1:1|2:0,0:0:0:0:
352,211,69989,6,1,B|375:234|375:234|363:254|363:254|352:211,1,101.250003862381,0|0,3:3|2:0,0:0:0:0:
402,206,70053,2,1,B|433:214|433:214|433:237|433:237|402:206,1,101.250003862381,2|0,1:3|2:0,0:0:0:0:
442,176,70117,2,1,B|473:167|473:167|485:187|485:187|442:176,1,101.250003862381,2|0,1:1|2:0,0:0:0:0:
461,129,70180,2,1,B|483:105|483:105|503:117|503:117|461:129,1,101.250003862381,2|0,1:3|2:0,0:0:0:0:
453,78,70244,2,1,B|460:46|460:46|484:46|484:46|453:78,1,101.250003862381,8|0,3:3|2:0,0:0:0:0:
420,37,70307,2,1,B|411:6|411:6|431:-6|431:-6|420:37,1,101.250003862381,2|0,1:1|2:0,0:0:0:0:
370,18,70371,2,1,B|346:-4|346:-4|358:-24|358:-24|370:18,1,101.250003862381,2|0,1:1|2:0,0:0:0:0:
317,26,70434,2,1,B|285:18|285:18|285:-5|285:-5|317:26,1,101.250003862381,2|0,1:1|2:0,0:0:0:0:
275,59,70498,6,1,B|248:66|248:66|243:63|243:63|208:72|208:72|206:77|206:77|180:84,1,101.250003862381,0|0,3:0|0:0,0:0:0:0:
97,109,70625,2,1,B|70:116|70:116|65:113|65:113|30:122|30:122|28:127|28:127|2:134,1,101.250003862381,0|0,1:0|0:0,0:0:0:0:
2,147,70752,2,1,B|27:140|27:140|30:135|30:135|65:125|65:125|70:128|70:128|96:121,1,101.250003862381,8|0,3:3|0:0,0:0:0:0:
280,69,70879,2,1,B|254:76|254:76|249:73|249:73|214:83|214:83|211:88|211:88|186:95,1,101.250003862381,8|0,2:1|0:0,0:0:0:0:
110,302,71006,6,1,B|62:314|62:314|14:285|14:285|42:237|42:237|119:216|119:216|128:217|128:217|217:193|217:193|220:188|220:188|320:162,1,445.500013595581,4|0,3:3|0:0,0:0:0:0:
374,244,71261,2,1,B|419:231|419:231|448:182|448:182|399:154|399:154|321:175|321:175|315:180|315:180|226:204|226:204|221:201|221:201|126:227,1,445.500013595581,14|0,3:3|0:0,0:0:0:0:
123,384,71515,6,1,B|173:369|173:369|183:322,1,101.250003862381,0|0,3:0|0:0,0:0:0:0:
314,163,71642,1,0,1:0:0:0:
271,142,71706,1,0,1:0:0:0:
226,146,71769,2,1,B|211:150|211:150|238:252,1,121.499996292114,8|0,3:3|0:0,0:0:0:0:
396,324,71896,2,1,B|345:336|345:336|313:301,1,101.250003862381,2|0,1:0|0:0,0:0:0:0:
379,13,72023,6,1,B|414:44|414:44|402:95,1,101.250003862381,2|0,3:1|2:0,0:0:0:0:
512,148,72150,2,1,B|480:183|480:183|429:171,1,101.250003862381,2|0,1:0|2:0,0:0:0:0:
128,95,72278,2,1,B|58:76|58:76|65:20|7:-11|7:-11|177:33|177:33|182:30|182:30|255:50|255:50|258:55|258:55|359:82,1,496.125004731417,8|0,3:3|0:0,0:0:0:0:
501,43,72532,6,1,B|501:10|501:10|480:87,2,94.4999971160889,0|0|2,3:0|1:0|1:3,0:0:0:0:
242,315,72786,6,1,B|247:295|247:295|244:292|244:292|254:256|254:256|259:253|259:253|266:226,1,94.4999971160889,8|0,3:3|0:0,0:0:0:0:
308,68,72913,2,1,B|300:94|300:94|295:97|295:97|285:132|285:132|289:136|289:136|284:155,1,94.4999971160889,4|0,3:0|0:0,0:0:0:0:
158,180,73040,6,1,B|184:232|184:232|193:201|193:201|197:198|197:198|211:149|211:149|208:144|208:144|214:121|214:121|200:174|158:180,1,263.249987949372,4|0,3:0|0:0,0:0:0:0:
416,243,73294,2,1,L|442:249,5,26.9999991760254,8|0|0|0|0|0,3:3|0:0|1:0|0:0|1:0|0:0,0:0:0:0:
136,64,73549,6,1,B|110:48|110:48|116:29|116:29|136:64,1,75.9375028967858,0|0,3:0|2:0,0:0:0:0:
106,73,73612,2,1,B|131:87|131:87|126:107|126:107|106:73,1,84.375,2|0,0:0|2:0,0:0:0:0:
87,86,73676,2,1,B|55:86|55:86|50:65|50:65|87:86,1,92.812500885129,2|0,0:0|2:0,0:0:0:0:
61,112,73739,2,1,B|94:111|94:111|100:135|100:135|61:112,1,101.250003862381,2|0,0:0|2:0,0:0:0:0:
34,152,73803,2,1,B|2:169|2:169|-16:152|-16:152|34:152,1,109.687503138185,8|0,3:3|2:0,0:0:0:0:
21,193,73866,2,1,B|53:175|53:175|70:192|70:192|21:193,1,109.687503138185,2|0,0:0|2:0,0:0:0:0:
17,244,73930,2,1,B|-4:280|-4:280|-32:273|-32:273|17:244,1,126.562503017485,2|0,0:0|2:0,0:0:0:0:
28,292,73993,2,1,B|50:255|50:255|78:262|78:262|28:292,1,126.562503017485,2|0,0:0|2:0,0:0:0:0:
69,324,74057,6,1,B|39:343|39:343|36:379|36:379|66:359|66:359|69:324,1,143.437502735853,0|0,3:0|2:0,0:0:0:0:
119,334,74121,2,1,B|111:369|111:369|135:395|135:395|142:360|142:360|119:334,1,143.437502735853,2|0,0:0|2:0,0:0:0:0:
160,304,74184,2,1,B|179:333|179:333|215:336|215:336|195:306|195:306|160:304,1,143.437502735853,2|0,0:0|2:0,0:0:0:0:
167,253,74248,2,1,B|202:260|202:260|228:236|228:236|193:229|193:229|167:253,1,143.437502735853,2|0,0:0|2:0,0:0:0:0:
145,207,74311,6,1,B|109:204|109:204|89:174|89:174|125:177|125:177|145:207,1,143.437502735853,8|0,3:3|2:0,0:0:0:0:
186,176,74375,2,1,B|162:149|162:149|169:114|169:114|193:140|193:140|186:176,1,143.437502735853,2|0,0:0|2:0,0:0:0:0:
235,185,74438,2,1,B|237:148|237:148|266:128|266:128|265:164|265:164|235:183,1,143.437502735853,2|0,0:0|2:0,0:0:0:0:
265,227,74502,2,1,B|291:204|291:204|327:211|327:211|299:234|299:234|265:227,1,143.437502735853,2|0,0:0|2:0,0:0:0:0:
256,278,74566,6,1,B|291:281|291:281|311:311|311:311|275:308|275:308|256:278,1,143.437502735853,0|0,3:0|2:0,0:0:0:0:
423,53,74693,2,1,B|445:41|445:41|400:86,2,84.375,2|0|0,1:1|0:0|0:0,0:0:0:0:
494,252,74820,2,1,B|453:256|453:256|429:291|429:291|472:288|472:288|494:252,1,168.75,8|0,3:3|2:0,0:0:0:0:
280,49,74947,2,1,B|257:37|257:37|302:82,2,84.375,2|0|0,1:1|0:0|0:0,0:0:0:0:
463,168,75074,6,1,P|422:165|378:203,1,101.250003862381,4|0,3:0|0:0,0:0:0:0:
220,362,75201,2,1,P|255:327|255:277,1,101.250003862381,4|0,3:0|0:0,0:0:0:0:
407,298,75328,2,1,P|285:258|238:139,1,263.249987949372,4|0,3:0|0:0,0:0:0:0:
168,78,75583,6,1,P|127:75|83:113,1,101.250003862381,4|0,3:0|0:0,0:0:0:0:
28,348,75710,2,1,P|134:278|149:151,1,263.249987949372,4|0,3:0|0:0,0:0:0:0:
256,283,75964,6,1,P|206:283|171:248,1,101.250003862381,4|0,3:0|0:0,0:0:0:0:
23,235,76091,2,1,P|-2:110|76:10,1,263.249987949372,4|0,3:0|0:0,0:0:0:0:
89,21,76345,6,1,P|136:7|179:32,1,101.250003862381,4|0,3:0|0:0,0:0:0:0:
256,118,76472,1,4,3:0:0:0:
280,144,76536,1,0,0:0:0:0:
308,160,76600,2,1,P|336:175|391:152,1,80.9999975280763,0|0,0:0|0:0,0:0:0:0:
502,86,76854,2,1,P|402:170|364:293,1,263.249987949372,8|0,0:3|0:0,0:0:0:0:
501,358,77108,6,1,B|532:346|532:346|350:297,1,202.500007724762,12|0,3:0|0:0,0:0:0:0:
280,306,77362,6,1,B|278:280|278:280|294:248,1,50.6250019311906,2|0,0:0|2:0,0:0:0:0:
363,173,77489,1,2,0:0:0:0:
372,167,77553,1,2,0:0:0:0:
379,161,77617,6,1,B|418:142|418:142|445:10,1,151.875005793572,2|0,0:0|2:0,0:0:0:0:
446,13,77871,2,1,P|449:-4|443:11,1,50.6250019311906,2|0,0:0|2:0,0:0:0:0:
350,84,77998,2,1,P|333:89|349:87,1,50.6250019311906,2|0,0:0|2:0,0:0:0:0:
460,132,78125,2,1,P|473:143|463:130,1,50.6250019311906,2|0,0:0|2:0,0:0:0:0:
361,2,78252,2,1,P|353:-14|363:0,1,50.6250019311906,2|0,0:0|2:0,0:0:0:0:
283,155,78379,6,1,B|268:228|268:228|262:234|262:234|240:325,1,151.875005793572,2|0,0:0|0:0,0:0:0:0:
314,352,78633,2,1,B|334:340|334:340|268:328|268:328|252:338|252:338|147:318,1,202.5,2|0,0:0|0:0,0:0:0:0:
111,220,78888,5,0,1:2:0:0:
100,200,78951,1,0,1:2:0:0:
95,179,79015,1,0,1:2:0:0:
93,156,79078,1,0,1:2:0:0:
93,134,79142,6,1,B|126:99|126:99|247:115|247:115|250:119|250:119|396:136,1,303.750011587143,2|0,3:1|0:0,0:0:0:0:
447,189,79396,6,1,B|415:224|415:224|354:219,1,101.250003862381,8|0,3:3|0:0,0:0:0:0:
310,81,79523,2,1,B|341:45|341:45|402:50,1,101.250003862381,0|0,1:0|0:0,0:0:0:0:
300,164,79650,2,1,B|250:186|250:186|356:141,1,101.250003862381,2|0,3:1|0:0,0:0:0:0:
469,102,79778,5,2,0:0:0:0:
486,152,79841,1,2,0:0:0:0:
447,189,79905,2,1,P|391:190|357:228,1,101.250003862381,8|2,3:3|0:1,0:0:0:0:
411,369,80032,2,1,P|467:368|501:330,1,101.250003862381,2|0,0:1|0:0,0:0:0:0:
494,324,80159,6,1,B|516:246|516:246|187:371,1,405,4|0,3:0|0:0,0:0:0:0:
19,126,80413,6,1,B|-3:48|-3:48|326:173,1,405,12|0,3:3|0:0,0:0:0:0:
394,276,80667,6,1,L|534:331,1,101.250003862381,0|0,3:0|2:0,0:0:0:0:
292,177,80794,2,1,L|152:122,1,101.250003862381,0|0,1:0|2:0,0:0:0:0:
399,286,80922,2,1,L|539:341,1,101.250003862381,2|0,3:3|2:0,0:0:0:0:
210,225,81049,5,2,3:3:0:0:
181,259,81112,1,2,3:2:0:0:
179,290,81176,6,1,B|176:352|176:352|290:269|290:269|303:192|303:192|420:105,1,405,4|0,3:0|0:0,0:0:0:0:
423,121,81430,2,1,B|476:114|476:114|268:76|268:76|215:133|215:133|137:144,1,405,8|0,3:3|0:0,0:0:0:0:
174,53,81684,6,1,B|185:33|161:6|161:6|154:41|174:53,1,101.250003862381,0|0,3:3|2:0,0:0:0:0:
142,214,81811,6,1,B|132:219|135:237|135:237|147:223|142:214,1,50.6250019311906,2|0,1:3|2:0,0:0:0:0:
221,215,81875,2,1,B|215:224|227:238|227:238|230:220|221:215,1,50.6250019311906,2|0,1:3|2:0,0:0:0:0:
285,177,81939,2,1,B|285:188|301:193|301:193|296:177|285:177,1,50.6250019311906,8|0,3:3|2:0,0:0:0:0:
148,136,82066,6,1,L|45:117,1,101.250003862381,8|0,0:2|0:0,0:0:0:0:
308,283,82193,6,1,B|368:316|368:316|188:361|188:361|223:197,1,405,8|0,3:1|0:0,0:0:0:0:
335,85,82447,6,1,B|376:95|376:95|398:142|398:142|351:196,1,135,8|0,3:3|2:0,0:0:0:0:
285,177,82574,2,1,B|273:136|273:136|302:93|302:93|373:107,1,135,8|0,0:2|2:0,0:0:0:0:
391,174,82701,2,1,B|361:204|361:204|309:200|309:200|286:132,1,135,2|0,3:3|2:0,0:0:0:0:
252,2,82828,6,1,P|239:-18|248:4,1,67.5,8|0,0:2|0:0,0:0:0:0:
250,14,82892,2,1,P|239:35|253:16,1,67.5,8|0,0:2|0:0,0:0:0:0:
261,11,82956,2,1,P|284:9|261:6,1,67.5,8|0,3:3|2:0,0:0:0:0:
391,174,83083,2,1,B|401:223|401:223|405:228|405:228|416:270,1,101.250003862381,10|0,0:2|0:0,0:0:0:0:
202,305,83210,6,1,B|203:281|169:256|169:256|319:280|319:280|321:284|321:284|424:299|424:299|433:328|433:328|545:348,1,405,0|0,3:3|0:0,0:0:0:0:
503,246,83464,2,1,P|444:242|408:297,1,101.250003862381,8|0,3:3|0:0,0:0:0:0:
287,321,83591,5,0,3:3:0:0:
280,330,83655,1,0,3:3:0:0:
275,340,83718,6,1,B|272:359|282:379|309:383|351:365|349:322|337:308|310:285|278:275|236:266|208:227|248:161,1,270,12|0,3:3|1:0,0:0:0:0:
421,154,83909,2,1,B|438:146|451:128|441:102|404:74|368:98|362:115|356:150|363:183|376:223|356:267|279:266,1,270,8|0,3:3|1:0,0:0:0:0:
222,177,84100,2,1,P|282:141|347:162,1,135,8|0,3:3|1:0,0:0:0:0:
460,196,84227,6,1,B|465:213|485:217|485:217|417:204|417:204|415:200|415:200|363:189|363:189|358:165|339:156,1,202.500007724762,12|2,3:3|1:0,0:0:0:0:
124,216,84417,2,1,B|117:197|98:193|98:193|165:206|165:206|167:210|167:210|219:221|219:221|228:247|243:255,1,202.500007724762,8|2,3:3|1:0,0:0:0:0:
392,349,84608,2,1,B|378:363|385:381|385:381|362:317|362:317|365:312|365:312|349:262|349:262|365:249|366:224,1,202.500007724762,12|2,3:3|1:0,0:0:0:0:
195,72,84799,2,1,B|207:57|200:39|200:39|223:103|223:103|220:107|220:107|237:157|237:157|221:175|220:195,1,202.500007724762,8|2,3:3|1:0,0:0:0:0:
465,285,84989,5,12,3:3:0:0:
487,270,85053,1,2,0:1:0:0:
498,247,85117,1,2,0:1:0:0:
498,217,85180,1,2,0:1:0:0:
491,191,85244,6,1,B|506:130|506:130|476:138|476:138|472:135|472:135|442:143|442:143|439:148|439:148|409:156|409:156|471:148|491:191,1,263.249987949372,4|0,3:0|0:0,0:0:0:0:
512,360,85498,2,1,B|486:385|486:385|451:376,5,72,8|0|0|0|0|0,3:3|0:0|0:0|1:0|0:0|0:0,0:0:0:0:
378,65,85752,6,1,B|345:71|345:71|319:49|319:49|352:42|352:42|378:65,1,135,0|0,3:0|2:0,0:0:0:0:
341,69,85816,2,1,B|372:62|372:62|396:83|396:83|364:90|364:90|341:69,1,126.562503017485,2|0,0:0|2:0,0:0:0:0:
308,84,85879,2,1,B|281:97|281:97|255:83|255:83|281:70|281:70|308:84,1,118.125001126528,2|0,0:0|2:0,0:0:0:0:
281,97,85943,2,1,B|305:84|305:84|330:97|330:97|305:109|305:109|281:97,1,109.687503138185,2|0,0:0|2:0,0:0:0:0:
253,113,86006,2,1,B|234:129|234:129|209:124|209:124|228:107|228:107|253:113,1,101.250003862381,8|0,3:3|2:0,0:0:0:0:
231,130,86070,2,1,B|248:114|248:114|272:118|272:118|254:134|254:134|231:130,1,92.812500885129,2|0,0:0|2:0,0:0:0:0:
212,148,86133,2,1,B|205:167|205:167|185:174|185:174|192:154|192:154|212:148,1,84.375,2|0,0:0|2:0,0:0:0:0:
201,169,86197,2,1,B|207:150|207:150|226:143|226:143|219:162|219:162|201:169,1,75.9375028967858,2|0,0:0|2:0,0:0:0:0:
192,208,86261,6,1,B|169:231|169:231|181:251|181:251|192:208,1,101.250003862381,0|0,3:0|2:0,0:0:0:0:
142,203,86325,2,1,B|111:211|111:211|111:234|111:234|142:203,1,101.250003862381,2|0,0:0|2:0,0:0:0:0:
102,173,86389,2,1,B|71:164|71:164|59:184|59:184|102:173,1,101.250003862381,2|0,0:0|2:0,0:0:0:0:
83,126,86452,2,1,B|61:102|61:102|41:114|41:114|83:126,1,101.250003862381,2|0,0:0|2:0,0:0:0:0:
91,75,86516,2,1,B|84:43|84:43|60:43|60:43|91:75,1,101.250003862381,8|0,3:3|2:0,0:0:0:0:
124,34,86579,2,1,B|133:3|133:3|113:-9|113:-9|124:34,1,101.250003862381,2|0,0:0|2:0,0:0:0:0:
174,15,86643,2,1,B|198:-7|198:-7|186:-27|186:-27|174:15,1,101.250003862381,2|0,0:0|2:0,0:0:0:0:
227,23,86706,2,1,B|259:15|259:15|259:-8|259:-8|227:23,1,101.250003862381,2|0,0:0|2:0,0:0:0:0:
249,64,86770,6,1,B|256:90|256:90|261:92|261:92|270:127|270:127|267:132|267:132|274:159,1,101.250003862381,0|0,3:0|0:0,0:0:0:0:
393,14,86896,2,1,B|386:40|386:40|381:42|381:42|372:77|372:77|375:82|375:82|368:109,1,101.250003862381,0|0,1:1|0:0,0:0:0:0:
262,165,87023,2,1,B|255:138|255:138|258:133|258:133|249:98|249:98|244:96|244:96|237:70,1,101.250003862381,8|0,3:3|0:0,0:0:0:0:
402,17,87150,2,1,B|395:43|395:43|390:45|390:45|381:80|381:80|384:85|384:85|377:112,1,101.250003862381,2|0,1:1|0:0,0:0:0:0:
191,257,87278,6,1,B|276:234|276:234|306:252|306:252|312:250|312:250|398:300|398:300|403:308|403:308|432:324|432:324|512:303,1,354.375003379583,8|0,3:2|0:0,0:0:0:0:
487,181,87532,2,1,B|401:203|401:203|384:234|384:234|378:236|378:236|328:322|328:322|328:331|328:331|311:360|311:360|229:382,1,354.375003379583,12|0,3:3|0:0,0:0:0:0:
60,330,87786,6,1,B|26:349|26:349|119:324,1,135,8|0,3:2|2:0,0:0:0:0:
307,201,87913,1,8,1:1:0:0:
283,207,87977,1,8,1:1:0:0:
260,213,88040,2,1,B|182:233|182:233|171:253,1,101.250003862381,8|0,3:3|3:0,0:0:0:0:
63,171,88167,2,1,B|29:151|29:151|122:176,1,135,2|0,0:1|0:0,0:0:0:0:
384,118,88294,6,1,B|425:106|425:106|437:64,1,87.749995983124,2|0,3:1|2:0,0:0:0:0:
168,2,88422,2,1,B|156:43|156:43|187:74,1,87.749995983124,2|0,1:1|2:0,0:0:0:0:
260,213,88549,2,1,B|281:134|281:134|286:131|286:131|312:35|312:35|309:29|309:29|320:-13|320:-13|298:-1|298:-1|291:25|291:25|294:30|294:30|269:126|269:126|263:129|263:129|242:208,1,485.999985168458,8|2,3:3|0:0,0:0:0:0:
218,376,88803,5,0,3:0:0:0:
351,349,88930,2,1,B|384:355|384:355|409:333|409:333|376:326|376:326|351:349,1,135,0|0,1:0|1:0,0:0:0:0:
133,324,89057,2,1,B|88:298|88:298|68:268|68:268|27:244,1,135,8|0,3:3|0:0,0:0:0:0:
18,257,89184,2,1,B|59:281|59:281|95:283|95:283|139:308,1,135,2|0,3:1|0:0,0:0:0:0:
395,176,89311,6,1,B|432:138|432:138|500:138|500:138|511:82|511:82|423:170|423:170|424:175|424:175|393:206|393:206|386:206|386:206|324:268,1,445.500004248619,4|0,3:0|1:0,0:0:0:0:
120,109,89502,2,1,B|94:63|94:63|28:46|28:46|32:-11|32:-11|94:96|94:96|92:101|92:101|114:139|114:139|120:141|120:141|164:217,1,445.500004248619,4|0,3:0|1:0,0:0:0:0:
407,182,89693,2,1,B|444:144|444:144|512:144|512:144|523:88|523:88|435:176|435:176|436:181|436:181|405:212|405:212|398:212|398:212|336:274,1,445.500004248619,4|0,3:0|1:0,0:0:0:0:
106,112,89884,2,1,B|79:66|79:66|14:49|14:49|18:-8|18:-8|80:99|80:99|78:104|78:104|100:142|100:142|106:144|106:144|150:220,1,445.500004248619,4|0,3:0|1:0,0:0:0:0:
235,297,90074,5,4,3:0:0:0:
257,213,90201,2,1,L|275:148,1,67.5,8|8,3:0|3:0,0:0:0:0:
387,340,90328,6,1,B|410:317|410:317|410:311|410:311|454:266|454:266|460:266|460:266|498:227|498:227|480:190|480:190|477:188|477:188|433:95|433:95|435:92|435:92|421:67|421:67|343:145,1,445.500004248619,4|0,3:0|1:0,0:0:0:0:
106,315,90519,2,1,B|89:286|89:286|91:281|91:281|60:226|60:226|54:224|54:224|28:177|28:177|54:145|54:145|58:144|58:144|123:67|123:67|123:63|123:63|142:42|142:42|198:138,1,445.500004248619,4|0,3:0|1:0,0:0:0:0:
235,297,90710,5,8,3:2:0:0:
364,246,90837,1,2,0:0:0:0:
381,247,90900,2,1,P|422:257|444:294,2,87.749995983124,2|2|2,0:0|0:0|0:0,0:0:0:0:
302,337,91091,1,2,0:0:0:0:
295,352,91155,2,1,P|270:377|234:378,2,74.2500022659302,2|2|2,0:0|0:0|0:0,0:0:0:0:
280,233,91345,6,1,P|245:209|188:220,1,101.250003862381,6|0,3:0|0:0,0:0:0:0:
87,107,91472,2,1,P|55:144|59:194,1,101.250003862381,6|0,3:0|0:0,0:0:0:0:
95,333,91600,2,1,P|102:204|204:128,1,263.249987949372,6|0,3:0|0:0,0:0:0:0:
202,49,91854,6,1,P|252:52|280:94,1,101.250003862381,6|0,3:0|0:0,0:0:0:0:
490,126,91981,2,1,P|353:139|278:234,1,263.249987949372,6|0,3:0|0:0,0:0:0:0:
441,289,92235,6,1,P|403:255|353:265,1,101.250003862381,6|0,3:0|0:0,0:0:0:0:
180,258,92362,2,1,P|316:271|391:366,1,263.249987949372,6|0,3:0|0:0,0:0:0:0:
420,203,92617,6,1,P|372:219|356:267,1,101.250003862381,6|0,3:0|0:0,0:0:0:0:
235,336,92744,2,1,P|98:322|23:227,1,263.249987949372,6|0,3:0|2:0,0:0:0:0:
36,150,92998,1,0,0:0:0:0:
188,162,93125,2,1,P|288:129|391:107,1,202.5,12|0,0:3|0:0,0:0:0:0:
391,111,93379,6,1,P|400:139|406:164,1,54,2|0,3:1|0:0,0:0:0:0:
353,236,93570,1,0,0:0:0:0:
342,242,93633,6,1,P|337:259|334:275,1,27,0|0,3:1|2:0,0:0:0:0:
255,312,93761,2,1,P|259:329|262:345,1,27,0|0,0:0|2:0,0:0:0:0:
353,236,93888,6,1,P|348:253|345:269,1,27,0|0,3:1|2:0,0:0:0:0:
266,306,94016,2,1,P|270:323|273:339,1,27,0|0,0:0|2:0,0:0:0:0:
512,384,94269,5,0,0:0:0:0:
481,284,94396,6,1,P|440:282|418:293,1,54,0|0,3:2|0:0,0:0:0:0:
368,227,94587,2,1,P|345:261|344:286,1,54,0|0,0:0|2:0,0:0:0:0:
266,306,94778,2,1,P|275:324|285:331,1,27,0|0,0:0|2:0,0:0:0:0:
344,377,94905,6,1,P|388:368|432:362,1,81,0|0,3:1|2:0,0:0:0:0:
268,225,95159,2,1,P|223:216|180:210,1,81,0|0,3:1|2:0,0:0:0:0:
30,264,95413,6,1,P|13:297|32:356,1,81,2|0,3:2|2:0,0:0:0:0:
96,308,95667,2,1,P|140:299|184:293,1,81,0|0,3:1|2:0,0:0:0:0:
273,217,95922,2,1,P|317:208|361:202,1,81,0|0,3:1|2:0,0:0:0:0:
462,227,96176,6,1,L|495:233,1,27,0|0,3:1|2:0,0:0:0:0:
389,211,96303,2,1,L|356:205,1,27,0|0,0:0|2:0,0:0:0:0:
463,146,96430,6,1,P|505:156|524:181,1,54,0|0,3:1|0:0,0:0:0:0:
388,104,96621,2,1,P|417:72|448:68,1,54,0|0,0:0|2:0,0:0:0:0:
304,121,96811,2,1,P|297:100|303:85,1,27,0|0,0:0|2:0,0:0:0:0:
316,19,96939,1,0,3:1:0:0:
129,117,97193,6,1,L|121:168,1,27,0|0,3:1|2:0,0:0:0:0:
109,233,97320,2,1,L|101:284,1,27,0|0,3:0|2:0,0:0:0:0:
90,350,97447,1,2,3:2:0:0:
244,353,97701,5,0,3:2:0:0:
252,348,97765,1,0,0:0:0:0:
263,340,97828,2,1,P|294:333|338:328,1,54,0|0,0:1|3:1,0:0:0:0:
457,255,98083,5,0,0:0:0:0:
449,250,98147,1,0,0:0:0:0:
438,242,98210,2,1,P|422:238|400:236,1,27,0|0,3:1|2:0,0:0:0:0:
321,172,98337,2,1,P|305:168|283:166,1,27,0|0,0:0|2:0,0:0:0:0:
169,127,98464,6,1,P|118:116|84:138,1,67.5,2|0,3:2|0:0,0:0:0:0:
246,109,98655,2,1,P|280:70|277:30,1,67.5,0|0,0:0|2:0,0:0:0:0:
219,187,98845,2,1,P|226:211|245:220,1,33.75,0|0,0:0|2:0,0:0:0:0:
301,260,98972,1,2,3:2:0:0:
162,384,99227,1,0,3:1:0:0:
228,332,99354,5,2,0:2:0:0:
236,325,99417,1,0,0:0:0:0:
244,316,99481,2,1,P|297:296|360:342,1,135,2|8,3:1|3:3,0:0:0:0:
472,366,99862,2,1,P|419:386|356:340,1,135,0|0,0:0|0:0,0:0:0:0:
381,246,100244,1,8,3:3:0:0:
318,177,100371,5,0,0:0:0:0:
310,170,100434,1,0,0:0:0:0:
302,163,100498,2,1,P|265:141|204:159,1,101.25,0|0,3:3|2:0,0:0:0:0:
176,263,100752,1,8,3:3:0:0:
241,311,100879,2,1,P|263:274|245:213,1,101.25,0|0,0:0|2:0,0:0:0:0:
138,189,101133,1,0,3:3:0:0:
261,93,101261,5,8,3:3:0:0:
270,87,101324,1,0,3:3:0:0:
279,80,101388,1,0,3:3:0:0:
288,73,101451,1,0,3:3:0:0:
301,67,101515,6,1,B|357:46|387:99|387:99|348:70|318:78,1,175.499991966248,2|0,3:2|0:2,0:0:0:0:
131,0,101769,2,1,P|86:20|66:66,1,101.250003862381,8|0,3:3|0:2,0:0:0:0:
35,157,101960,1,2,0:2:0:0:
21,151,102023,2,1,B|-33:125|-18:66|-18:66|-11:114|17:130,1,175.499991966248,2|0,3:2|0:0,0:0:0:0:
111,239,102278,1,8,3:3:0:0:
173,87,102405,1,0,0:2:0:0:
272,203,102532,6,1,L|369:230,1,101.250003862381,2|0,3:2|0:0,0:0:0:0:
151,169,102786,1,8,3:3:0:0:
308,308,102913,2,1,P|364:284|372:236,1,101.250003862381,2|0,0:2|3:0,0:0:0:0:
267,188,103167,1,0,0:0:0:0:
267,188,103294,1,8,3:0:0:0:
465,243,103422,1,2,0:1:0:0:
403,92,103549,6,1,B|382:32|446:-2|446:-2|424:15|420:48|428:39|427:72|403:92,1,222.750006797791,0|0,3:0|2:0,0:0:0:0:
462,142,103803,1,8,3:3:0:0:
448,158,103867,1,0,0:0:0:0:
430,164,103930,2,1,P|380:167|338:139,1,101.250003862381,2|0,0:2|3:0,0:0:0:0:
68,29,104184,1,2,0:0:0:0:
72,49,104248,1,2,0:0:0:0:
84,64,104311,2,1,P|125:91|176:88,1,101.250003862381,8|2,3:3|0:2,0:0:0:0:
330,26,104566,6,1,P|257:92|264:189,1,202.5,0|0,3:0|2:0,0:0:0:0:
320,349,104820,2,1,L|340:384,2,40.4999987640381,8|0|2,3:3|0:0|0:2,0:0:0:0:
125,292,105074,1,0,3:0:0:0:
134,281,105138,1,0,0:0:0:0:
159,263,105201,1,2,0:1:0:0:
196,258,105265,1,2,0:1:0:0:
238,279,105328,6,1,B|294:300|324:247|324:247|285:276|255:268,1,175.499991966248,8|2,3:0|0:1,0:0:0:0:
243,66,105583,6,1,L|232:26,2,40.4999987640381,2|2|2,0:3|0:0|0:0,0:0:0:0:
313,106,105964,2,1,L|302:145,1,40.4999987640381,2|2,0:0|0:0,0:0:0:0:
236,201,106345,1,2,0:0:0:0:
248,212,106472,1,2,0:0:0:0:
245,229,106600,2,1,L|255:268,1,40.4999987640381,2|2,0:0|0:0,0:0:0:0:
271,343,106981,1,2,0:0:0:0:
467,148,107108,6,1,B|452:139|452:139|386:157|386:157|377:171,1,101.250003862381,8|0,3:0|0:0,0:0:0:0:
332,28,107235,2,1,B|316:32|316:32|281:92|281:92|285:107,1,101.250003862381,8|0,3:0|0:0,0:0:0:0:
154,40,107362,2,1,B|145:54|145:54|163:120|163:120|177:129,1,101.250003862381,8|0,3:0|0:0,0:0:0:0:
35,172,107489,2,1,B|39:187|39:187|99:222|99:222|114:218,1,101.250003862381,8|0,3:0|0:0,0:0:0:0:
370,376,107617,5,12,3:0:0:0:
419,350,107680,1,0,0:0:0:0:
430,300,107744,1,8,3:0:0:0:
410,259,107807,1,0,0:0:0:0:
371,244,107871,1,12,3:0:0:0:
335,246,107934,1,0,0:0:0:0:
308,260,107998,1,0,0:0:0:0:
295,281,108061,1,0,0:0:0:0:
295,301,108125,5,12,3:0:0:0:
252,329,108189,1,0,0:0:0:0:
201,326,108252,1,12,3:0:0:0:
170,284,108316,1,0,0:0:0:0:
174,234,108379,5,0,0:0:0:0:
192,225,108443,1,0,0:0:0:0:
201,242,108506,1,12,3:0:0:0:
185,255,108570,1,0,0:0:0:0:
166,247,108633,5,12,3:0:0:0:
146,235,108697,2,1,P|125:221|100:220,2,50.6250019311906,0|0|0,0:0|0:0|0:0,0:0:0:0:
245,165,108888,1,12,3:0:0:0:
259,151,108952,2,1,P|252:118|229:94,2,67.5,0|12|0,0:0|3:0|0:0,0:0:0:0:
339,223,109142,5,2,0:0:0:0:
362,221,109206,1,2,0:0:0:0:
385,202,109269,1,2,0:0:0:0:
399,168,109333,1,2,0:0:0:0:
383,128,109396,1,8,3:3:0:0:
336,106,109460,1,0,0:0:0:0:
316,52,109523,1,0,3:3:0:0:
356,11,109587,1,0,0:0:0:0:
407,36,109650,1,2,3:1:0:0:
256,192,109714,12,0,110540,0:0:0:0:
256,192,110667,5,2,3:1:0:0:
256,192,110731,12,0,111557,0:0:0:0:
256,192,111684,5,2,3:1:0:0:
256,192,111748,12,0,112574,0:0:0:0:
256,192,112701,5,2,3:1:0:0:
256,192,112765,12,0,113591,3:0:0:0:
280,151,113718,6,1,P|297:201|284:233,1,67.5,2|0,3:1|2:0,0:0:0:0:
368,249,113845,2,1,P|333:288|298:293,1,67.5,0|0,3:0|2:0,0:0:0:0:
171,324,113972,1,2,3:2:0:0:
151,317,114036,1,0,0:0:0:0:
129,295,114100,1,0,3:0:0:0:
125,254,114163,1,0,0:0:0:0:
150,210,114227,6,1,P|200:193|232:206,1,67.5,0|0,3:0|2:0,0:0:0:0:
292,360,114354,2,1,P|252:325|247:290,1,67.5,0|0,3:0|2:0,0:0:0:0:
405,181,114481,2,1,P|444:215|449:250,1,67.5,2|0,3:2|2:0,0:0:0:0:
293,132,114608,2,1,P|294:98|313:71,1,67.5,0|0,3:0|2:0,0:0:0:0:
400,56,114735,5,2,3:1:0:0:
410,53,114799,1,0,3:0:0:0:
420,49,114862,2,1,L|470:40,1,50.6250019311906,0|0,3:0|3:0,0:0:0:0:
248,145,114989,5,2,3:2:0:0:
271,138,115053,1,0,3:0:0:0:
293,132,115117,2,1,L|381:116,1,67.5,0|0,3:0|3:0,0:0:0:0:
108,253,115244,5,2,3:2:0:0:
151,244,115308,1,0,3:0:0:0:
195,234,115371,2,1,L|291:216,1,84.375,0|0,3:0|3:0,0:0:0:0:
0,375,115498,5,2,3:2:0:0:
64,364,115562,1,0,3:0:0:0:
130,351,115625,2,1,L|250:329,1,101.250003862381,0|0,3:0|3:0,0:0:0:0:
430,100,115752,6,1,P|427:165|378:209,1,135,12|0,3:0|0:0,0:0:0:0:
174,219,115879,2,1,P|232:188|294:209,1,135,12|0,3:0|0:0,0:0:0:0:
410,380,116006,2,1,P|353:345|339:281,1,135,12|0,3:0|2:0,0:0:0:0:
196,12,116261,6,1,P|125:-1|67:103,1,135,12|0,3:0|0:0,0:0:0:0:
103,172,116388,2,1,P|173:184|231:80,1,135,12|0,3:0|2:0,0:0:0:0:
417,158,116642,6,1,P|470:148|514:227,1,101.250003862381,12|0,3:0|0:0,0:0:0:0:
488,273,116769,2,1,P|434:282|390:203,1,101.250003862381,12|0,3:0|2:0,0:0:0:0:
252,279,117023,6,1,P|216:272|187:324,1,67.5,12|0,3:0|0:0,0:0:0:0:
210,366,117150,2,1,P|245:372|274:320,1,67.5,12|0,3:0|2:0,0:0:0:0:
332,227,117278,5,0,0:0:0:0:
332,216,117341,1,0,0:0:0:0:
327,202,117405,1,0,0:0:0:0:
316,194,117468,1,0,0:0:0:0:
362,136,117532,5,8,0:3:0:0:
338,117,117595,1,0,0:0:0:0:
305,116,117659,1,0,0:0:0:0:
276,129,117722,1,0,0:0:0:0:
232,197,117786,6,1,B|186:208|186:208|153:175,1,94.4999971160889,4|0,3:1|0:0,0:0:0:0:
93,7,117913,2,1,B|126:40|126:40|114:85,1,94.4999971160889,4|0,0:0|0:0,0:0:0:0:
35,254,118040,1,8,3:2:0:0:
21,240,118104,1,2,0:0:0:0:
14,225,118167,2,1,B|26:179|26:179|71:167,1,94.4999971160889,6|2,0:0|0:0,0:0:0:0:
217,53,118294,6,1,L|295:32,1,80.9999975280763,0|0,3:1|0:0,0:0:0:0:
152,174,118422,2,1,L|131:252,1,80.9999975280763,6|0,0:0|0:0,0:0:0:0:
276,129,118549,2,1,L|354:149,1,80.9999975280763,8|0,3:2|0:0,0:0:0:0:
232,197,118676,2,1,L|252:275,1,80.9999975280763,6|0,0:0|0:0,0:0:0:0:
429,192,118803,6,1,B|400:262|475:354|475:354|370:297|308:337,1,354.375003379583,0|0,3:1|0:0,0:0:0:0:
6,58,119057,2,1,P|117:67|151:173,1,236.250002253056,10|0,3:2|2:0,0:0:0:0:
199,362,119248,1,0,0:0:0:0:
187,375,119311,2,1,B|99:303|-1:317|-1:317|-8:210|72:197,1,354.375003379583,2|0,3:2|0:0,0:0:0:0:
399,289,119566,2,1,P|304:224|183:275,1,236.250002253056,10|0,3:2|2:0,0:0:0:0:
65,19,119756,5,0,0:0:0:0:
82,14,119820,2,1,B|127:26|127:26|141:71,1,94.4999971160889,2|0,3:2|0:0,0:0:0:0:
309,78,119947,2,1,B|264:66|264:66|230:98,1,94.4999971160889,6|0,0:0|0:0,0:0:0:0:
18,199,120074,1,8,3:2:0:0:
0,174,120138,1,2,0:0:0:0:
0,145,120201,2,1,B|34:113|34:113|79:125,1,94.4999971160889,4|2,0:0|0:0,0:0:0:0:
180,236,120328,6,1,L|159:157,1,80.9999975280763,2|0,3:2|0:0,0:0:0:0:
229,98,120456,2,1,L|249:19,1,80.9999975280763,4|0,0:0|0:0,0:0:0:0:
272,250,120583,2,1,L|251:171,1,80.9999975280763,8|0,3:2|0:0,0:0:0:0:
341,5,120711,2,1,L|321:84,1,80.9999975280763,4|0,0:0|0:0,0:0:0:0:
370,272,120837,6,1,B|410:210|529:217|529:217|422:165|418:91,1,354.375003379583,2|0,3:2|0:0,0:0:0:0:
109,105,121091,2,1,L|337:167,1,236.250002253056,8|0,3:2|2:0,0:0:0:0:
84,297,121282,1,0,0:0:0:0:
74,283,121345,2,1,B|19:185|19:185|251:247,1,354.375003379583,2|0,3:2|0:0,0:0:0:0:
468,303,121600,5,8,3:2:0:0:
212,355,121727,1,12,3:2:0:0:
370,272,121854,6,1,L|348:353,1,84.375,2|0,3:2|0:0,0:0:0:0:
306,203,121981,1,4,0:0:0:0:
301,219,122044,2,1,L|279:300,1,84.375,2|8,0:0|3:2,0:0:0:0:
257,65,122172,1,0,0:0:0:0:
252,82,122235,2,1,L|202:267,1,168.75,6|0,0:0|0:0,0:0:0:0:
0,374,122489,5,6,0:0:0:0:
208,244,122617,1,10,3:2:0:0:
27,86,122744,1,6,0:2:0:0:
230,163,122871,6,1,L|208:244,1,84.375,2|0,3:2|0:0,0:0:0:0:
319,135,122998,1,4,0:0:0:0:
316,151,123061,2,1,L|294:232,1,84.375,2|8,0:0|3:2,0:0:0:0:
431,40,123189,1,0,0:0:0:0:
427,57,123252,2,1,L|377:242,1,168.75,6|0,0:0|0:0,0:0:0:0:
473,373,123506,5,6,0:0:0:0:
473,373,123570,1,0,0:0:0:0:
473,373,123633,1,10,3:2:0:0:
512,166,123761,1,6,0:2:0:0:
338,334,123888,6,1,B|214:300|214:300|191:261|191:261|52:224|52:224|97:302,1,405,4|0,3:3|0:0,0:0:0:0:
168,356,124142,2,1,B|191:314|191:314|169:273,1,94.4999971160889,8|0,3:3|0:0,0:0:0:0:
73,101,124269,5,8,0:0:0:0:
71,131,124333,1,0,1:0:0:0:
94,147,124396,2,1,L|186:171,1,94.4999971160889,0|0,3:0|0:0,0:0:0:0:
361,213,124523,2,1,L|453:237,1,94.4999971160889,0|0,1:0|0:0,0:0:0:0:
169,17,124650,6,1,L|217:100,1,94.4999971160889,8|0,3:3|0:0,0:0:0:0:
297,262,124777,2,1,L|345:345,1,94.4999971160889,0|0,1:0|0:0,0:0:0:0:
438,9,124905,5,4,3:3:0:0:
403,43,124968,1,2,1:1:0:0:
369,77,125032,1,2,1:1:0:0:
335,110,125095,1,2,1:1:0:0:
301,144,125159,2,1,B|268:154|268:154|258:186|258:186|290:176|290:176|301:144,1,135,8|0,3:3|0:0,0:0:0:0:
449,143,125413,5,0,3:0:0:0:
308,6,125540,1,8,3:2:0:0:
246,201,125667,1,8,3:0:0:0:
235,213,125731,1,0,3:0:0:0:
220,227,125794,2,1,L|186:260,2,33.75,0|0|0,3:0|0:0|3:0,0:0:0:0:
386,241,125922,6,1,P|454:258|474:286,1,101.250003862381,4|0,3:1|0:0,0:0:0:0:
429,372,126049,2,1,P|361:355|341:327,1,101.250003862381,4|0,0:0|0:0,0:0:0:0:
301,144,126176,5,8,3:2:0:0:
299,120,126239,1,2,0:0:0:0:
287,95,126303,1,6,0:0:0:0:
255,76,126367,1,2,0:0:0:0:
198,67,126430,6,1,P|130:84|110:112,1,101.250003862381,0|0,3:1|0:0,0:0:0:0:
205,315,126557,2,1,P|273:298|293:270,1,101.250003862381,6|0,0:0|0:0,0:0:0:0:
45,59,126684,6,1,P|25:126|39:157,1,101.250003862381,8|0,3:2|0:0,0:0:0:0:
355,334,126811,2,1,P|374:266|360:235,1,101.250003862381,6|0,0:0|0:0,0:0:0:0:
35,245,126939,6,1,B|-15:222|-50:297|-51:365|12:393|273:415|72:214|142:166|206:159|356:200,1,445.500013595581,0|0,3:1|0:0,0:0:0:0:
456,68,127193,2,1,B|486:103|540:118|540:118|372:91|120:55,1,445.500013595581,10|0,3:2|0:0,0:0:0:0:
44,49,127447,2,1,B|-67:79|-65:226|82:287|158:198|149:127|149:127|112:96|124:27,1,445.500013595581,2|0,3:2|0:0,0:0:0:0:
383,107,127701,6,1,B|401:74|455:68|455:68|380:-1|277:-1|198:66|198:66|241:70|263:108,1,445.500013595581,10|0,3:2|0:0,0:0:0:0:
267,248,127956,6,1,P|336:298|381:287,1,101.250003862381,2|0,3:2|0:0,0:0:0:0:
512,360,128083,2,1,P|443:310|398:321,1,101.250003862381,6|0,0:0|0:0,0:0:0:0:
276,329,128210,5,8,3:2:0:0:
257,339,128273,1,2,0:0:0:0:
229,338,128337,1,4,0:0:0:0:
193,314,128400,1,2,0:0:0:0:
174,254,128464,6,1,P|185:205|223:173,1,101.250003862381,2|0,3:2|0:0,0:0:0:0:
484,37,128591,2,1,P|472:85|434:117,1,101.250003862381,4|0,0:0|0:0,0:0:0:0:
327,0,128718,6,1,P|376:11|407:49,1,101.250003862381,8|0,3:2|0:0,0:0:0:0:
347,297,128845,2,1,P|299:285|267:247,1,101.250003862381,4|0,0:0|0:0,0:0:0:0:
113,144,128972,6,1,B|117:90|65:61|65:61|342:139|342:139|349:180|390:197,1,445.500013595581,2|0,3:2|0:0,0:0:0:0:
478,174,129227,6,1,P|500:92|474:177,1,445.500013595581,8|0,3:2|0:0,0:0:0:0:
397,352,129481,2,1,B|514:382|562:276|496:138|426:210|369:237|298:190|331:50|362:34|472:53,1,445.500013595581,2|0,3:2|0:0,0:0:0:0:
333,141,129735,2,1,B|334:82|399:37|399:37|206:40|202:220|239:315,1,445.500013595581,8|0,3:2|0:0,0:0:0:0:
507,326,129989,6,1,B|531:349|514:379|467:386|440:383|398:319|444:292|433:250|356:185|285:243,1,297.000009063721,2|4,3:2|0:0,0:0:0:0:
83,242,130180,2,1,B|63:256|46:256|46:256|76:299|69:360|69:360|109:317|172:305|172:305|153:284|153:266,1,297.000009063721,2|0,0:0|0:0,0:0:0:0:
436,255,130371,2,1,B|478:218|530:230|530:230|509:197|453:196|396:217|370:273|451:323|323:358|268:339|231:257,1,405,6|0,0:0|0:0,0:0:0:0:
100,67,130625,6,1,P|36:71|18:95,1,80.9999975280763,6|0,0:0|0:0,0:0:0:0:
47,207,130752,2,1,P|111:203|129:179,1,80.9999975280763,10|0,3:2|0:0,0:0:0:0:
185,36,130879,2,1,P|215:10|254:10,1,80.9999975280763,6|0,0:2|0:0,0:0:0:0:
417,193,131006,6,1,B|474:204|485:135|458:105|414:96|366:110|320:135|347:220,1,236.250002253056,2|4,3:2|0:0,0:0:0:0:
358,278,131197,2,1,B|415:308|414:372|414:372|428:295|349:240,1,236.250002253056,2|0,0:0|0:0,0:0:0:0:
126,283,131388,2,1,B|99:286|84:308|84:308|82:267|139:230|221:243|212:312|206:354|266:382|323:360,1,354.375003379583,6|0,0:0|0:0,0:0:0:0:
512,301,131642,6,1,P|448:305|430:329,1,80.9999975280763,6|0,0:0|0:0,0:0:0:0:
383,208,131769,2,1,P|354:265|366:293,1,80.9999975280763,10|0,3:2|0:0,0:0:0:0:
237,273,131896,2,1,P|272:326|302:330,1,80.9999975280763,6|0,0:2|0:0,0:0:0:0:
369,368,132023,5,12,3:2:0:0:
312,102,132150,1,12,3:2:0:0:
509,298,132278,1,12,3:2:0:0:
496,308,132532,1,12,3:2:0:0:
131,246,132659,1,12,3:2:0:0:
124,257,132913,1,12,3:2:0:0:
412,77,133040,1,0,3:0:0:0:
422,66,133294,1,10,3:2:0:0:
369,368,133422,1,10,3:2:0:0:
387,370,133676,5,2,0:0:0:0:
389,346,133739,1,2,0:0:0:0:
360,304,133803,1,8,0:0:0:0:
343,310,133867,5,0,0:0:0:0:
304,329,133930,1,2,0:0:0:0:
245,298,133994,1,0,0:0:0:0:
229,275,134057,2,1,B|202:235|234:197|234:197|223:187|218:175|218:175|96:211|161:318|161:318|196:358|199:385|91:386|-30:307|6:188|49:161|49:161|21:200|49:248,1,708.750027036668,8|8,3:2|0:1,0:0:0:0:
154,226,134566,6,1,L|211:192,1,67.5,6|0,3:0|0:0,0:0:0:0:
402,81,134756,2,1,L|342:114,1,67.5,4|0,3:0|0:0,0:0:0:0:
278,153,134947,1,4,3:0:0:0:
112,199,135074,6,1,L|189:177,1,80.9999975280763,6|0,3:0|0:0,0:0:0:0:
445,110,135264,2,1,L|365:131,1,80.9999975280763,4|0,3:0|0:0,0:0:0:0:
278,153,135455,1,4,3:0:0:0:
80,155,135583,6,1,L|173:155,1,94.4999971160889,6|0,3:0|0:0,0:0:0:0:
477,155,135773,2,1,L|382:154,1,94.4999971160889,4|0,3:0|0:0,0:0:0:0:
278,153,135964,1,4,3:0:0:0:
87,103,136091,6,1,L|177:127,1,87.749995983124,6|0,3:0|0:0,0:0:0:0:
278,153,136218,1,8,3:2:0:0:
301,160,136282,2,1,L|353:173,1,54,4|0,3:0|0:0,0:0:0:0:
436,203,136409,1,8,3:2:0:0:
460,209,136473,2,1,L|512:222,1,54,4|0,3:0|0:0,0:0:0:0:
107,45,136600,6,1,L|187:91,1,87.749995983124,6|0,3:0|0:0,0:0:0:0:
278,153,136727,1,8,3:2:0:0:
298,165,136790,2,1,L|344:192,1,54,4|0,3:0|0:0,0:0:0:0:
427,244,136918,1,8,3:2:0:0:
448,256,136982,2,1,L|494:283,1,54,4|0,3:0|0:0,0:0:0:0:
149,0,137108,6,1,L|215:66,1,87.749995983124,6|0,3:0|0:0,0:0:0:0:
278,153,137235,1,8,3:2:0:0:
295,170,137299,2,1,L|333:208,1,54,4|0,3:0|0:0,0:0:0:0:
407,281,137426,1,8,3:2:0:0:
424,298,137490,2,1,L|462:336,1,54,4|0,3:0|0:0,0:0:0:0:
437,97,137617,6,1,B|453:63|453:63|402:-16|402:-16|235:258,1,445.500013595581,6|0,3:0|0:0,0:0:0:0:
299,328,137871,1,0,3:0:0:0:
299,328,137934,1,0,3:0:0:0:
299,328,137998,2,1,L|345:340,2,33.75,8|0|0,3:2|0:0|3:0,0:0:0:0:
71,189,138125,6,1,B|124:153|194:180|194:180|192:188|192:188|137:178|108:207|108:207|84:192|-7:372|151:471|301:418|242:254|166:357|162:258,1,614.249971881868,8|8,3:2|0:1,0:0:0:0:
177,31,138633,6,1,L|223:111,1,94.4999971160889,6|0,3:0|0:0,0:0:0:0:
375,374,138823,2,1,L|327:291,1,94.4999971160889,4|0,3:0|0:0,0:0:0:0:
277,201,139014,1,6,3:0:0:0:
219,0,139142,6,1,L|246:104,1,108,6|0,3:0|0:0,0:0:0:0:
325,384,139333,2,1,L|300:292,1,94.4999971160889,4|0,3:0|0:0,0:0:0:0:
277,201,139523,1,6,3:0:0:0:
275,0,139650,6,1,L|275:93,1,94.4999971160889,6|0,3:0|0:0,0:0:0:0:
277,384,139840,2,1,L|277:289,1,94.4999971160889,4|0,3:0|0:0,0:0:0:0:
277,201,140031,1,6,3:0:0:0:
389,24,140159,6,1,L|345:99,1,87.749995983124,6|0,3:0|0:0,0:0:0:0:
287,181,140286,1,8,3:2:0:0:
277,201,140350,2,1,L|250:247,1,54,6|0,3:0|0:0,0:0:0:0:
206,318,140477,1,8,3:2:0:0:
196,338,140541,2,1,L|169:384,1,54,6|0,3:0|0:0,0:0:0:0:
489,85,140667,6,1,L|407:132,1,94.4999971160889,6|0,3:0|0:0,0:0:0:0:
306,188,140794,1,8,3:2:0:0:
277,201,140858,2,1,L|230:228,1,54,6|0,3:0|0:0,0:0:0:0:
157,267,140985,1,8,3:2:0:0:
132,282,141049,2,1,L|85:309,1,54,6|0,3:0|0:0,0:0:0:0:
512,202,141176,6,1,L|399:202,1,101.250003862381,6|0,3:0|0:0,0:0:0:0:
324,200,141303,1,8,3:2:0:0:
277,201,141367,2,1,L|223:201,1,54,6|0,3:0|0:0,0:0:0:0:
133,197,141494,1,8,3:2:0:0:
84,197,141558,2,1,L|30:197,1,54,6|0,3:0|0:0,0:0:0:0:
377,366,141684,6,1,B|409:333|409:333|399:287,1,94.4999971160889,6|0,3:0|0:0,0:0:0:0:
287,366,141811,2,1,B|255:331|255:331|267:286,1,94.4999971160889,0|0,1:0|0:0,0:0:0:0:
354,88,141939,5,0,3:0:0:0:
354,88,142002,1,0,3:0:0:0:
354,88,142066,2,1,L|362:41,2,47.2499985580445,8|0|0,3:2|0:0|3:0,0:0:0:0:
37,189,142193,6,1,B|57:177|68:162|68:162|209:181|353:209,1,303.750011587143,4|0,3:0|0:0,0:0:0:0:
334,214,142447,2,1,L|365:219,1,25.3125009655953,8|0,0:3|2:0,0:0:0:0:
512,72,142701,6,1,B|491:60|480:45|480:45|339:64|195:92,1,303.750011587143,4|0,3:0|0:0,0:0:0:0:
214,97,142956,2,1,L|183:102,1,25.3125009655953,8|0,0:3|2:0,0:0:0:0:
37,189,143210,2,1,L|59:166,1,25.3125009655953,8|0,0:3|2:0,0:0:0:0:
126,10,143464,2,1,L|121:41,1,25.3125009655953,8|0,0:3|2:0,0:0:0:0:
159,207,143718,2,1,L|144:179,1,25.3125009655953,8|0,0:3|2:0,0:0:0:0:
16,67,143972,2,1,L|44:81,1,25.3125009655953,8|0,0:3|2:0,0:0:0:0:
191,277,144227,6,1,B|211:265|222:250|222:250|363:269|507:297,1,303.750011587143,4|0,3:0|2:0,0:0:0:0:
488,302,144481,2,1,L|519:307,1,25.3125009655953,8|0,0:3|2:0,0:0:0:0:
116,192,144608,6,1,B|142:186|155:167|155:167|330:191|520:229,1,405.000015449524,4|0,3:0|0:0,0:0:0:0:
488,302,144989,2,1,L|519:307,1,25.3125009655953,8|0,0:3|2:0,0:0:0:0:
387,359,145244,2,1,L|391:390,1,25.3125009655953,8|0,0:3|2:0,0:0:0:0:
301,280,145498,2,1,L|272:294,1,25.3125009655953,10|0,0:3|2:0,0:0:0:0:
349,173,145752,2,1,L|326:150,1,25.3125009655953,8|0,0:3|2:0,0:0:0:0:
465,185,146006,2,1,L|479:157,1,25.3125009655953,8|0,0:3|2:0,0:0:0:0:
254,203,146261,6,1,P|198:210|123:225,1,101.250003862381,2|0,3:2|2:0,0:0:0:0:
61,233,146388,2,1,L|30:238,1,25.3125009655953,8|0,0:3|2:0,0:0:0:0:
56,242,146515,2,1,L|25:247,1,25.3125009655953,8|0,0:3|2:0,0:0:0:0:
52,249,146642,2,1,L|21:254,1,25.3125009655953,8|0,0:3|2:0,0:0:0:0:
108,96,146769,6,1,P|163:103|239:118,1,101.250003862381,2|0,3:2|2:0,0:0:0:0:
301,126,146896,2,1,L|332:131,1,25.3125009655953,8|0,0:3|2:0,0:0:0:0:
306,135,147023,2,1,L|337:140,1,25.3125009655953,8|0,0:3|2:0,0:0:0:0:
310,142,147150,2,1,L|341:147,1,25.3125009655953,8|0,0:3|2:0,0:0:0:0:
315,151,147278,6,1,L|346:156,1,25.3125009655953,8|0,0:3|2:0,0:0:0:0:
324,168,147405,2,1,L|355:173,1,25.3125009655953,8|0,0:3|2:0,0:0:0:0:
332,217,147532,2,1,L|363:222,1,25.3125009655953,8|0,0:3|2:0,0:0:0:0:
302,300,147659,2,1,L|333:305,1,25.3125009655953,8|0,0:3|2:0,0:0:0:0:
192,355,147786,2,1,L|223:360,1,25.3125009655953,8|0,0:3|0:0,0:0:0:0:
67,295,147913,2,1,L|98:300,1,25.3125009655953,8|0,0:3|0:0,0:0:0:0:
12,167,148040,2,1,L|43:172,1,25.3125009655953,8|0,0:3|0:0,0:0:0:0:
76,23,148167,2,1,L|107:28,1,25.3125009655953,8|0,0:3|0:0,0:0:0:0:
286,11,148294,6,1,P|341:18|417:33,1,101.250003862381,4|0,3:0|2:0,0:0:0:0:
486,35,148422,2,1,L|517:40,1,25.3125009655953,8|0,0:3|2:0,0:0:0:0:
486,35,148485,2,1,L|517:40,1,25.3125009655953,8|0,0:3|2:0,0:0:0:0:
486,35,148549,2,1,L|517:40,1,25.3125009655953,8|0,0:3|2:0,0:0:0:0:
334,135,148676,6,1,P|278:142|203:157,1,101.250003862381,4|0,3:0|2:0,0:0:0:0:
134,159,148803,2,1,L|103:164,1,25.3125009655953,8|0,0:3|2:0,0:0:0:0:
134,159,148867,2,1,L|103:164,1,25.3125009655953,8|0,0:3|2:0,0:0:0:0:
134,159,148930,2,1,L|103:164,1,25.3125009655953,8|0,0:3|2:0,0:0:0:0:
134,159,148994,2,1,L|103:164,1,25.3125009655953,8|0,0:3|2:0,0:0:0:0:
134,159,149057,6,1,L|103:164,1,25.3125009655953,8|0,0:3|2:0,0:0:0:0:
124,169,149121,2,1,L|93:174,1,25.3125009655953,8|0,0:3|2:0,0:0:0:0:
122,191,149184,2,1,L|91:196,1,25.3125009655953,8|0,0:3|2:0,0:0:0:0:
130,216,149248,2,1,L|99:221,1,25.3125009655953,8|0,0:3|2:0,0:0:0:0:
153,237,149311,2,1,L|122:242,1,25.3125009655953,8|0,0:3|2:0,0:0:0:0:
189,242,149375,2,1,L|158:247,1,25.3125009655953,8|0,0:3|2:0,0:0:0:0:
223,218,149439,2,1,L|192:223,1,25.3125009655953,8|0,0:3|2:0,0:0:0:0:
239,175,149502,2,1,L|208:180,1,25.3125009655953,8|0,0:3|2:0,0:0:0:0:
227,122,149566,6,1,L|196:127,1,25.3125009655953,8|0,0:3|2:0,0:0:0:0:
186,74,149629,2,1,L|155:79,1,25.3125009655953,8|0,0:3|2:0,0:0:0:0:
120,60,149693,2,1,L|89:65,1,25.3125009655953,8|0,0:3|2:0,0:0:0:0:
58,95,149756,2,1,L|27:100,1,25.3125009655953,8|0,0:3|2:0,0:0:0:0:
29,160,149820,2,1,L|-2:165,1,25.3125009655953,8|0,0:3|2:0,0:0:0:0:
28,232,149883,2,1,L|-3:237,1,25.3125009655953,8|0,0:3|2:0,0:0:0:0:
64,301,149947,2,1,L|33:306,1,25.3125009655953,8|0,0:3|2:0,0:0:0:0:
130,349,150011,2,1,L|99:354,1,25.3125009655953,8|0,0:3|2:0,0:0:0:0:
217,360,150074,2,1,L|186:365,1,25.3125009655953,12|0,0:3|2:0,0:0:0:0:
398,156,150328,5,0,3:0:0:0:
401,148,150392,1,0,0:0:0:0:
402,136,150456,1,0,3:0:0:0:
398,121,150519,1,0,0:0:0:0:
390,109,150583,1,0,3:0:0:0:
373,103,150646,1,0,0:0:0:0:
356,104,150710,1,0,3:0:0:0:
344,114,150773,1,0,0:0:0:0:
338,132,150837,1,0,3:0:0:0:
345,149,150900,1,0,0:0:0:0:
360,162,150964,1,0,3:0:0:0:
372,183,151028,1,0,0:0:0:0:
377,202,151091,1,0,3:0:0:0:
373,223,151155,1,0,0:0:0:0:
360,243,151218,1,0,3:0:0:0:
335,249,151282,1,0,0:0:0:0:
310,242,151345,5,4,3:0:0:0:
291,220,151409,1,0,3:0:0:0:
284,194,151472,1,0,3:0:0:0:
269,172,151536,1,0,3:0:0:0:
241,162,151600,1,4,3:0:0:0:
216,172,151663,1,0,3:0:0:0:
197,195,151727,1,0,3:0:0:0:
169,213,151790,1,0,3:0:0:0:
132,212,151854,1,4,3:0:0:0:
94,187,151917,1,0,3:0:0:0:
84,143,151981,1,4,3:0:0:0:
104,102,152044,1,0,3:0:0:0:
150,85,152108,5,4,3:0:0:0:
198,105,152172,1,0,3:0:0:0:
216,172,152235,1,0,3:0:0:0:
273,220,152299,1,0,3:0:0:0:
350,193,152362,1,4,3:3:0:0:
457,89,152617,6,1,L|470:52,3,27,0|0|0|0,0:0|0:0|0:0|0:0,0:0:0:0:
350,193,152871,2,1,L|337:156,3,27,0|0|0|0,0:0|0:0|0:0|0:0,0:0:0:0:
455,263,153125,2,1,L|468:226,3,27,0|0|0|0,0:0|0:0|0:0|0:0,0:0:0:0:
383,319,153379,2,1,L|370:282,3,27,0|0|0|0,0:0|0:0|0:0|0:0,0:0:0:0:
410,358,153633,2,1,L|423:321,3,27,0|0|0|0,0:0|0:0|0:0|0:0,0:0:0:0:
402,366,153888,2,1,L|389:329,3,27,0|0|0|0,0:0|0:0|0:0|0:0,0:0:0:0:
490,384,154142,5,8,3:0:0:0:
350,193,154269,1,8,3:0:0:0:
69,269,154396,6,1,B|49:280|49:280|-18:162|-18:162|147:207|147:207|152:204|152:204|210:219|210:219|217:225|217:225|282:243,1,472.499985580445,4|0,3:1|0:0,0:0:0:0:
301,249,154778,1,0,3:2:0:0:
163,282,154905,6,1,B|166:269|166:269|163:265|163:265|169:242|169:242|174:239|174:239|188:189,1,94.4999971160889,12|0,3:2|0:0,0:0:0:0:
131,95,155032,2,1,B|97:75|109:15|109:15|150:61|131:95,1,175.499991966248,0|0,1:0|0:0,0:0:0:0:
220,90,155159,2,1,B|200:56|241:10|241:10|253:70|220:90,1,175.499991966248,0|0,1:0|0:0,0:0:0:0:
290,144,155286,2,1,B|289:105|348:85|348:85|328:143|290:144,1,175.499991966248,0|0,1:0|0:0,0:0:0:0:
163,282,155413,6,1,B|169:258|169:258|166:253|166:253|172:230|172:230|177:227|177:227|188:189,1,94.4999971160889,4|0,3:2|2:0,0:0:0:0:
76,175,155540,2,1,B|57:142|-3:154|-3:154|43:195|76:175,1,175.499991966248,0|0,1:0|0:0,0:0:0:0:
63,264,155667,2,1,B|36:247|-3:282|-3:282|46:292|63:264,1,148.50000453186,0|0,1:0|0:0,0:0:0:0:
102,349,155794,2,1,B|79:349|66:384|66:384|102:372|102:349,1,108,0|0,1:0|0:0,0:0:0:0:
186,193,155922,6,1,B|182:205|182:205|177:207|177:207|171:230|171:230|174:235|174:235|162:280,1,94.4999971160889,12|0,3:2|0:0,0:0:0:0:
225,366,156049,1,2,0:1:0:0:
267,349,156112,1,2,0:1:0:0:
296,313,156176,2,1,L|367:332,1,74.2500022659302,2|2,0:1|0:1,0:0:0:0:
278,213,156303,2,1,L|349:193,1,74.2500022659302,2|0,0:1|0:0,0:0:0:0:
508,273,156430,6,1,B|452:371|452:371|423:263|423:263|468:185|468:185|445:99,1,405,4|0,3:2|0:0,0:0:0:0:
409,33,156684,2,1,L|426:98,3,67.5,0|0|0|0,1:0|1:0|1:0|1:0,0:0:0:0:
269,96,156939,6,1,P|260:140|276:97,1,135,12|0,3:2|0:0,0:0:0:0:
180,60,157066,2,1,P|185:31|175:58,1,84.375,0|0,1:0|0:0,0:0:0:0:
83,68,157193,6,1,P|76:102|88:69,1,101.250003862381,0|0,1:0|0:0,0:0:0:0:
11,24,157320,2,1,P|14:6|8:23,1,50.6250019311906,0|0,1:0|0:0,0:0:0:0:
327,237,157447,6,1,B|278:238|278:238|251:284,2,101.25,4|2|0,3:2|0:1|0:0,0:0:0:0:
355,338,157733,2,1,B|320:372|320:372|269:359,1,101.25,0|0,0:0|2:0,0:0:0:0:
60,281,157956,6,1,B|-22:160|-22:160|57:181|57:181|63:179|63:179|129:197|129:197|135:202|135:202|192:219|192:219|174:250,1,405,12|0,3:2|0:0,0:0:0:0:
101,377,158210,2,1,L|134:318,1,67.5,2|0,3:0|0:0,0:0:0:0:
26,339,158337,2,1,L|59:280,1,67.5,2|0,3:0|0:0,0:0:0:0:
382,101,158464,6,1,B|422:30|422:30|529:91|529:91|436:114|436:114|433:119|433:119|375:135|375:135|369:134|369:134|291:155|291:155|258:213|258:213|312:232|312:232|370:216|370:216|375:219|375:219|406:211,1,675,4|0,3:1|0:0,0:0:0:0:
482,194,158845,1,0,3:2:0:0:
216,127,158972,6,1,B|203:129|203:129|199:126|199:126|176:132|176:132|173:137|173:137|123:152,1,94.4999971160889,12|0,3:2|0:0,0:0:0:0:
291,0,159100,1,0,1:0:0:0:
291,0,159163,1,2,1:0:0:0:
291,0,159227,2,1,B|305:-12|305:-12|285:67,1,101.250003862381,0|2,1:0|1:0,0:0:0:0:
264,281,159354,2,1,B|278:293|278:293|258:213,1,101.250003862381,0|2,1:0|1:0,0:0:0:0:
216,127,159481,6,1,B|179:136|179:136|174:132|174:132|149:139|149:139|146:144|146:144|121:152,1,101.250003862381,4|0,3:2|0:0,0:0:0:0:
98,230,159608,2,1,B|74:256|74:256|77:306|77:306|105:264|105:264|98:230,1,168.75,0|0,1:0|0:0,0:0:0:0:
46,155,159735,2,1,B|11:147|11:147|-30:175|-30:175|19:178|19:178|46:155,1,168.75,0|0,1:0|0:0,0:0:0:0:
82,73,159862,2,1,B|70:39|70:39|26:17|26:17|48:61|48:61|82:73,1,168.75,0|0,1:0|0:0,0:0:0:0:
216,127,159989,6,1,B|171:139|171:139|165:136|165:136|143:142|143:142|141:147|141:147|128:151,1,94.4999971160889,12|0,3:2|0:0,0:0:0:0:
187,225,160117,2,1,B|179:259|179:259|207:301|207:301|210:251|210:251|187:225,1,168.75,2|0,0:1|0:0,0:0:0:0:
172,53,160244,2,1,B|195:26|195:26|192:-23|192:-23|164:18|164:18|172:53,1,168.75,2|0,0:1|0:0,0:0:0:0:
98,230,160371,2,1,B|105:264|105:264|77:306|77:306|74:256|74:256|98:230,1,168.75,2|0,0:1|0:0,0:0:0:0:
378,0,160498,6,1,B|438:34|438:34|456:103|456:103|461:106|461:106|480:179|480:179|478:184|478:184|493:241|493:241|458:302,1,354.375003379583,4|0,3:3|0:0,0:0:0:0:
322,311,160752,2,1,B|302:299|302:299|277:207,1,118.125001126528,0|0,1:0|0:0,0:0:0:0:
369,156,160879,1,0,1:0:0:0:
379,175,160943,1,0,0:0:0:0:
380,196,161006,6,1,P|389:240|373:197,1,135,12|0,3:2|0:0,0:0:0:0:
187,225,161133,2,1,P|156:271|180:219,1,168.75,0|0,1:0|0:0,0:0:0:0:
295,89,161261,2,1,P|305:56|300:91,1,101.250003862381,0|0,1:0|0:0,0:0:0:0:
199,128,161388,2,1,P|170:109|202:123,1,101.250003862381,0|0,1:0|0:0,0:0:0:0:
231,362,161515,6,1,B|146:384|146:384|142:367,2,101.25,4|2|2,3:2|0:1|0:1,0:0:0:0:
91,79,161769,6,1,B|3:28|3:28|30:128|30:128|35:131|35:131|45:170|45:170|43:174|43:174|54:219,1,303.750011587143,2|0,0:1|0:0,0:0:0:0:
0,293,162023,2,1,B|25:334|25:334|75:321,1,101.250003862381,12|0,3:2|0:0,0:0:0:0:
130,159,162150,5,0,3:0:0:0:
130,159,162214,1,0,3:0:0:0:
130,159,162278,2,1,L|146:220,1,50.6250019311906,2|0,3:3|0:0,0:0:0:0:
84,307,162405,2,1,L|132:293,1,50.6250019311906,2|0,3:3|0:0,0:0:0:0:
327,241,162532,6,1,B|358:243|375:234|366:168|450:167|454:272|407:271|371:241|368:231|323:245,1,202.500007724762,0|0,3:1|2:0,0:0:0:0:
236,297,162722,2,1,B|218:322|218:342|279:367|238:440|145:391|170:351|214:335|224:337|234:291,1,202.500007724762,0|0,1:0|2:0,0:0:0:0:
231,190,162913,2,1,B|217:162|200:151|148:192|105:120|194:64|216:105|209:151|201:159|236:191,1,202.500007724762,0|8,1:0|0:2,0:0:0:0:
399,118,163294,6,1,P|382:123|399:121,1,50.6250019311906,4|0,3:1|2:0,0:0:0:0:
437,92,163358,2,1,P|424:79|434:93,1,50.6250019311906,8|0,0:1|2:0,0:0:0:0:
489,96,163422,2,1,P|493:78|486:94,1,50.6250019311906,8|0,0:1|2:0,0:0:0:0:
510,135,163485,2,1,P|527:129|510:132,1,50.6250019311906,8|0,0:1|2:0,0:0:0:0:
495,182,163549,2,1,P|507:194|497:180,1,50.6250019311906,8|0,0:1|0:0,0:0:0:0:
346,323,163655,6,1,P|341:340|348:324,1,50.6250019311906,2|0,0:3|0:0,0:0:0:0:
387,222,163761,6,1,P|391:204|384:220,1,50.6250019311906,2|0,0:3|2:0,0:0:0:0:
397,232,163845,6,1,P|414:226|397:228,1,50.6250019311906,2|0,0:3|0:0,0:0:0:0:
281,244,163951,6,1,P|263:248|279:241,1,50.6250019311906,2|0,0:3|0:0,0:0:0:0:
318,164,164057,6,1,P|305:151|315:165,1,50.6250019311906,8|0,3:2|2:0,0:0:0:0:
284,123,164121,2,1,P|269:133|285:125,1,50.6250019311906,0|0,1:0|2:0,0:0:0:0:
235,119,164184,2,1,P|242:134|237:118,1,50.6250019311906,0|0,0:0|2:0,0:0:0:0:
195,147,164248,2,1,P|212:142|195:144,1,50.6250019311906,0|0,0:0|1:0,0:0:0:0:
158,186,164311,2,1,P|170:198|160:184,1,50.6250019311906,0|0,0:0|1:0,0:0:0:0:
113,187,164375,2,1,P|103:201|114:189,1,50.6250019311906,0|0,0:0|2:0,0:0:0:0:
79,151,164439,2,1,P|62:143|77:153,1,50.6250019311906,0|0,0:0|2:0,0:0:0:0:
85,103,164502,2,1,P|89:85|82:101,1,50.6250019311906,0|0,1:0|2:0,0:0:0:0:
159,37,164566,6,1,B|195:8|195:8|329:24|329:24|332:30|332:30|481:50,1,303.750011587143,2|0,3:1|2:0,0:0:0:0:
512,178,164820,6,1,B|515:212|479:219|476:212|440:222|429:277,1,101.250003862381,2|0,0:1|2:0,0:0:0:0:
440,256,164947,2,1,B|443:290|407:297|404:290|368:300|357:355,1,101.250003862381,2|0,0:1|2:0,0:0:0:0:
218,89,165074,6,1,B|249:102|237:138|230:136|220:172|263:210,1,101.250003862381,8|0,0:2|2:0,0:0:0:0:
249,190,165201,2,1,B|280:203|268:239|261:237|251:273|294:311,1,101.250003862381,8|0,0:1|2:0,0:0:0:0:
0,309,165328,6,1,B|27:288|52:316|47:322|73:348|127:330,1,101.250003862381,0|0,3:0|2:0,0:0:0:0:
103,332,165455,2,1,B|130:311|155:339|150:345|176:371|230:353,1,101.250003862381,2|0,0:1|2:0,0:0:0:0:
291,357,165583,6,1,P|293:374|290:357,1,50.6250019311906,0|0,1:1|2:0,0:0:0:0:
179,252,165710,6,1,B|158:254|148:218|155:215|148:179|114:183,1,101.250003862381,2|0,3:1|2:0,0:0:0:0:
101,180,165837,2,1,B|80:182|70:146|77:143|70:107|36:111,1,101.250003862381,2|0,3:1|2:0,0:0:0:0:
359,237,165964,6,1,B|346:220|372:193|378:198|406:174|386:146,1,101.250003862381,2|0,0:1|2:0,0:0:0:0:
382,133,166091,2,1,B|369:116|395:89|401:94|429:70|409:42,1,101.250003862381,8|0,0:2|2:0,0:0:0:0:
291,357,166218,6,1,P|293:374|290:357,1,50.6250019311906,0|0,3:1|2:0,0:0:0:0:
270,282,166345,6,1,B|250:273|260:237|268:239|279:203|248:189,1,101.250003862381,2|0,3:1|0:0,0:0:0:0:
237,180,166472,2,1,B|217:171|227:135|235:137|246:101|215:87,1,101.250003862381,2|0,0:1|0:0,0:0:0:0:
150,3,166600,6,1,B|103:10|103:10|84:28|84:28|79:29|79:29|46:63|46:63|77:88|77:88|84:85|84:85|112:103|112:103|217:89|217:89|222:92|222:92|319:76,1,405,0|0,3:1|1:0,0:0:0:0:
477,106,166854,6,1,B|484:116|498:119|498:119|517:140|523:197|523:197|514:208|512:220,1,135,0|0,0:0|2:0,0:0:0:0:
375,260,166981,2,1,B|367:249|353:246|353:246|334:225|328:168|328:168|337:157|339:145,1,135,0|0,1:0|2:0,0:0:0:0:
424,168,167108,2,1,L|434:202,1,33.75,8|0,0:2|2:0,0:0:0:0:
74,235,167362,6,1,P|79:218|77:235,1,50.6250019311906,4|0,3:1|2:0,0:0:0:0:
41,267,167426,2,1,P|28:254|42:264,1,50.6250019311906,8|0,0:1|2:0,0:0:0:0:
45,319,167490,2,1,P|27:323|43:316,1,50.6250019311906,8|0,0:1|2:0,0:0:0:0:
84,340,167553,2,1,P|78:357|81:340,1,50.6250019311906,8|0,0:1|2:0,0:0:0:0:
124,328,167617,6,1,P|138:342|122:330,1,53.9999983520508,8|0,1:1|2:0,0:0:0:0:
233,268,167701,6,1,P|227:287|228:267,1,53.9999983520508,0|0,1:0|2:0,0:0:0:0:
331,344,167786,6,1,P|310:349|329:341,1,53.9999983520508,0|0,1:0|2:0,0:0:0:0:
328,354,167871,6,1,P|308:362|326:351,1,53.9999983520508,0|0,3:0|2:0,0:0:0:0:
233,283,167955,6,1,P|231:303|228:283,1,53.9999983520508,0|0,1:0|2:0,0:0:0:0:
126,338,168040,6,1,P|142:350|124:340,1,53.9999983520508,0|0,1:0|2:0,0:0:0:0:
82,347,168125,2,1,P|75:367|79:347,1,53.9999983520508,8|0,3:2|2:0,0:0:0:0:
45,319,168189,2,1,P|27:323|43:316,1,50.6250019311906,0|0,0:0|2:0,0:0:0:0:
41,267,168252,2,1,P|28:254|42:264,1,50.6250019311906,0|0,3:0|2:0,0:0:0:0:
74,235,168316,2,1,P|79:218|77:235,1,50.6250019311906,0|0,0:0|2:0,0:0:0:0:
126,228,168379,2,1,P|131:245|129:228,1,50.6250019311906,8|0,1:1|2:0,0:0:0:0:
165,207,168443,2,1,P|182:211|166:204,1,50.6250019311906,0|0,1:0|2:0,0:0:0:0:
169,155,168506,2,1,P|181:142|167:152,1,50.6250019311906,0|0,1:0|2:0,0:0:0:0:
136,123,168570,2,1,P|131:106|133:123,1,50.6250019311906,0|0,1:0|2:0,0:0:0:0:
83,119,168633,6,1,P|20:88|12:57,1,101.250003862381,4|0,3:0|2:0,0:0:0:0:
246,0,168761,2,1,P|250:70|227:92,1,101.250003862381,4|0,3:0|2:0,0:0:0:0:
87,44,168888,2,1,P|187:28|298:181,1,303.750011587143,4|0,3:0|0:0,0:0:0:0:
222,210,169142,6,1,P|256:248|305:258,1,101.250003862381,4|0,3:0|0:0,0:0:0:0:
509,229,169269,2,1,P|408:213|297:366,1,303.750011587143,4|0,3:0|0:0,0:0:0:0:
296,359,169523,6,1,P|262:321|213:311,1,101.250003862381,4|0,3:0|0:0,0:0:0:0:
9,340,169650,2,1,P|109:355|220:202,1,303.750011587143,4|0,3:0|0:0,0:0:0:0:
142,176,169905,6,1,P|176:138|225:128,1,101.250003862381,4|0,3:0|0:0,0:0:0:0:
387,135,170032,2,1,P|286:150|175:-2,1,303.750011587143,4|2,3:0|0:0,0:0:0:0:
298,0,170286,5,2,0:0:0:0:
325,34,170413,1,2,0:3:0:0:
310,60,170540,1,2,0:0:0:0:
319,79,170667,5,4,3:3:0:0:
498,27,170922,2,1,L|504:2,2,25.3125009655953,8|8|8,0:0|0:2|0:2,0:0:0:0:
430,284,171049,1,4,3:0:0:0:
136,216,171303,5,8,0:3:0:0:
264,250,171430,2,1,L|294:258,2,25.3125009655953,8|0|0,0:1|0:0|0:0,0:0:0:0:
184,296,171557,5,8,0:2:0:0:
165,303,171621,1,8,0:2:0:0:
143,311,171684,2,1,B|65:331|65:331|68:340,1,87.749995983124,8|0,0:3|0:0,0:0:0:0:
41,236,171811,2,1,B|43:243|43:243|120:222,1,87.749995983124,8|0,0:3|0:0,0:0:0:0:
223,84,171939,5,8,0:2:0:0:
209,95,172002,2,1,B|194:112|194:112|217:190,2,87.749995983124,8|0|8,0:2|0:0|0:2,0:0:0:0:
146,23,172193,1,8,0:1:0:0:
127,9,172256,2,1,B|109:-5|109:-5|31:17,2,87.749995983124,8|8|8,0:1|0:1|0:1,0:0:0:0:
42,99,172447,5,8,0:1:0:0:
59,103,172511,2,1,L|107:116,1,50.6250019311906,8|0,0:1|2:0,0:0:0:0:
401,128,172638,5,8,0:1:0:0:
411,128,172701,2,1,B|491:112|528:45|463:-52|316:-5|297:128|342:195,1,405,4|0,3:0|0:0,0:0:0:0:
405,339,172956,2,1,L|421:366,2,25.3125009655953,8|8|8,0:2|0:2|0:2,0:0:0:0:
113,313,173083,6,1,P|220:245|340:289,1,263.249987949372,4|0,3:0|0:0,0:0:0:0:
405,339,173337,2,1,L|421:366,2,25.3125009655953,8|0|8,0:2|0:0|0:2,0:0:0:0:
421,234,173464,2,1,L|437:206,2,25.3125009655953,8|0|0,0:3|0:0|0:0,0:0:0:0:
481,298,173591,2,1,L|511:306,2,25.3125009655953,8|0|0,0:3|0:0|0:0,0:0:0:0:
263,363,173718,5,8,0:0:0:0:
247,352,173782,1,8,0:0:0:0:
242,336,173845,2,1,L|250:303,2,33.75,8|0|0,0:1|0:0|0:0,0:0:0:0:
153,231,173972,1,8,0:3:0:0:
149,215,174036,2,1,L|135:166,2,50.6250019311906,8|0|0,0:3|0:0|0:0,0:0:0:0:
315,181,174163,6,1,B|317:170|317:170|242:150|242:150|239:162,1,101.250003862381,8|0,0:3|0:0,0:0:0:0:
78,106,174290,2,1,B|75:95|75:95|150:75|150:75|153:87,1,101.250003862381,8|8,0:2|0:2,0:0:0:0:
277,2,174417,1,8,0:2:0:0:
257,0,174481,2,1,B|246:-3|246:-3|226:72|226:72|238:75,1,101.250003862381,0|8,0:0|0:1,0:0:0:0:
262,234,174608,5,8,0:1:0:0:
5,263,174735,6,1,B|139:299|89:212|222:193|327:276|241:326|360:358,1,405,4|0,3:0|0:0,0:0:0:0:
140,372,174989,1,2,0:0:0:0:
134,360,175053,1,2,0:0:0:0:
145,357,175117,2,1,P|208:333|336:367,1,202.500007724762,4|0,3:3|0:0,0:0:0:0:
503,360,175371,5,8,0:0:0:0:
503,360,175434,1,8,0:0:0:0:
503,360,175498,2,1,L|511:327,2,33.75,8|0|0,0:3|0:0|0:0,0:0:0:0:
448,273,175625,2,1,L|457:240,2,33.75,8|0|0,0:3|0:0|0:0,0:0:0:0:
452,146,175752,6,1,B|486:139|486:139|511:160,2,67.5,8|8|8,0:3|0:3|0:3,0:0:0:0:
336,148,175943,1,0,0:0:0:0:
316,141,176006,2,1,B|292:115|292:115|298:82,1,67.5,8|0,0:1|0:0,0:0:0:0:
391,78,176133,2,1,B|401:45|401:45|432:33,1,67.5,8|0,0:1|0:0,0:0:0:0:
380,231,176261,5,8,0:3:0:0:
96,133,176388,2,1,B|79:136|79:136|128:149,2,67.5,8|0|0,0:1|0:0|0:0,0:0:0:0:
288,213,176515,5,8,0:2:0:0:
219,246,176600,5,0,0:0:0:0:
295,294,176684,5,0,0:0:0:0:
219,326,176769,6,1,B|176:331|135:287|146:275|156:262|69:118|-61:186|-59:304|9:349|66:308,1,405,4|0,3:0|0:0,0:0:0:0:
128,369,177023,2,1,L|136:336,2,33.75,8|8|8,0:1|0:1|0:1,0:0:0:0:
175,164,177150,6,1,B|231:151|288:213|288:213|203:165|80:223|62:319,1,405,4|0,3:0|0:0,0:0:0:0:
102,366,177405,2,1,L|110:333,2,33.75,8|0|8,0:3|0:0|0:3,0:0:0:0:
67,137,177532,5,8,0:2:0:0:
71,120,177595,2,1,B|90:47|90:47|102:43,2,87.749995983124,8|8|8,0:2|0:2|0:2,0:0:0:0:
184,67,177786,1,8,0:3:0:0:
180,84,177849,2,1,B|160:156|160:156|148:160,2,87.749995983124,8|8|8,0:3|0:0|0:1,0:0:0:0:
245,183,178041,1,8,0:1:0:0:
249,166,178104,2,1,B|268:93|268:93|280:89,2,87.749995983124,8|8|8,0:1|0:2|0:2,0:0:0:0:
511,160,178294,6,1,B|518:124|518:124|498:113|498:113|506:141,1,87.749995983124,8|0,0:2|2:0,0:0:0:0:
358,202,178422,2,1,B|328:182|328:182|333:160|333:160|348:185,1,87.749995983124,8|0,0:3|2:0,0:0:0:0:
409,104,178549,5,8,0:2:0:0:
414,123,178612,1,8,0:2:0:0:
419,142,178676,1,8,0:2:0:0:
425,162,178739,1,8,0:2:0:0:
431,178,178803,2,1,L|459:263,1,87.749995983124,0|0,3:1|2:0,0:0:0:0:
304,366,179057,6,1,B|339:358|339:358|343:352|343:352|383:341|383:341|223:285|223:285|214:285|214:285|79:240,1,405,12|0,3:3|0:0,0:0:0:0:
72,79,179311,2,1,B|49:106|49:106|49:114|49:114|24:147|24:147|185:94|185:94|192:89|192:89|358:33,1,405,12|0,3:3|0:0,0:0:0:0:
334,34,179566,6,1,B|379:16|379:16|385:17|385:17|437:-4,1,101.250003862381,12|0,3:3|0:0,0:0:0:0:
175,184,179693,2,1,B|220:166|220:166|226:167|226:167|278:146,1,101.250003862381,2|0,3:3|0:0,0:0:0:0:
28,331,179820,6,1,B|77:349|77:349|183:307|183:307|189:299|189:299|320:243,1,303.750011587143,12|0,3:3|0:0,0:0:0:0:
500,80,180074,2,1,B|460:65|460:65|373:99|373:99|369:106|369:106|262:151,1,253.125,12|0,3:3|0:0,0:0:0:0:
120,303,180328,2,1,B|152:315|152:315|223:287|223:287|227:281|227:281|315:244,1,202.5,12|0,3:3|0:0,0:0:0:0:
409,196,180583,1,12,3:3:0:0:
441,183,180646,1,0,3:3:0:0:
473,168,180710,1,0,3:3:0:0:
240,79,180837,6,1,B|221:37|221:37|120:10|120:10|251:313,1,405,12|0,3:3|0:0,0:0:0:0:
435,322,181091,2,1,B|476:344|504:329|576:273|515:192|395:155|298:205|380:324|286:402|172:345,1,506.25,12|0,3:3|0:0,0:0:0:0:
102,173,181345,6,1,L|80:120,1,33.75,12|0,3:3|2:0,0:0:0:0:
183,350,181472,2,1,L|205:403,1,33.75,2|0,3:3|2:0,0:0:0:0:
316,182,181600,2,1,L|369:160,1,33.75,14|0,3:3|2:0,0:0:0:0:
139,263,181727,2,1,L|86:285,1,33.75,2|0,3:3|2:0,0:0:0:0:
320,91,181854,6,1,B|365:78|365:78|243:28|243:28|201:143|201:143|87:177,1,405,12|0,3:3|0:0,0:0:0:0:
15,79,182108,2,1,B|-2:40|-2:40|149:78|149:78|184:152|184:152|338:181,1,405,12|0,3:3|0:0,0:0:0:0:
512,172,182362,6,1,B|482:150|482:150|304:183,1,135,12|0,3:3|0:0,0:0:0:0:
349,335,182489,2,1,B|373:353|373:353|484:332|484:332|514:272|514:272|463:234|463:234|347:255|347:255|333:275,1,405,2|0,3:3|0:0,0:0:0:0:
164,359,182744,1,0,3:3:0:0:
149,361,182807,1,0,3:3:0:0:
136,365,182871,2,1,B|79:376|79:376|2:314|2:314|268:266,1,405,12|0,3:3|0:0,0:0:0:0:
398,169,183125,6,1,B|468:155|468:155|477:117|477:117|318:145|318:145|292:180|292:180|193:199,1,405,12|0,3:3|0:0,0:0:0:0:
102,105,183379,6,1,B|135:80|135:80|288:111,1,135,12|0,3:3|0:0,0:0:0:0:
482,231,183506,1,2,3:3:0:0:
486,236,183570,1,0,3:0:0:0:
491,241,183633,2,1,B|461:263|461:263|283:230,1,135,12|0,3:3|0:0,0:0:0:0:
99,96,183761,2,1,B|132:71|132:71|285:102,1,135,2|0,3:3|0:0,0:0:0:0:
398,169,183888,6,1,B|434:175|434:175|471:126|471:126|174:207,1,405,12|0,3:3|0:0,0:0:0:0:
41,263,184142,2,1,B|-2:247|-2:247|85:205|85:205|363:284,1,405,12|0,3:3|0:0,0:0:0:0:
446,322,184396,6,1,B|498:267|498:267|140:350,1,405,12|0,3:3|0:0,0:0:0:0:
49,365,184650,1,12,3:3:0:0:
138,24,184905,6,1,P|195:37|216:95,1,101.250003862381,4|0,3:3|0:0,0:0:0:0:
283,28,185032,2,1,P|300:83|260:131,1,101.250003862381,4|0,3:3|0:0,0:0:0:0:
125,265,185159,2,1,P|192:170|391:185,1,303.750011587143,4|0,3:3|0:0,0:0:0:0:
92,92,185413,6,1,P|123:141|185:141,1,101.250003862381,4|0,3:3|0:0,0:0:0:0:
374,178,185540,2,1,P|228:165|132:276,1,303.750011587143,4|0,3:3|0:0,0:0:0:0:
283,28,185794,2,1,P|300:83|260:131,1,101.250003862381,4|0,3:3|0:0,0:0:0:0:
137,288,185921,2,1,P|204:193|403:208,1,303.750011587143,4|0,3:3|0:0,0:0:0:0:
92,92,186176,6,1,P|123:141|185:141,1,101.250003862381,4|0,3:3|0:0,0:0:0:0:
383,201,186303,2,1,P|237:188|141:299,1,303.750011587143,4|0,3:3|2:0,0:0:0:0:
197,384,186557,1,0,0:0:0:0:
81,223,186684,1,8,0:2:0:0:
477,245,186939,6,1,B|520:264|553:213|466:147|354:178|288:280|333:375,1,364.499988876343,4|0,3:2|0:0,0:0:0:0:
410,323,187193,2,1,B|398:195|340:264|329:137,1,202.5,4|0,3:2|2:0,0:0:0:0:
444,61,187447,5,2,0:0:0:0:
258,110,187701,1,2,0:0:0:0:
165,135,187956,1,2,0:0:0:0:
88,156,188210,1,2,0:0:0:0:
191,283,188464,6,1,B|267:334|470:297|513:137|399:54|293:129|336:199,1,472.5,2|0,0:0|2:0,0:0:0:0:
394,288,188972,6,1,P|431:308|443:349,1,87.749995983124,6|0,3:3|0:0,0:0:0:0:
184,294,189100,2,1,P|158:328|165:371,1,87.749995983124,4|0,3:3|0:0,0:0:0:0:
196,154,189227,2,1,P|278:254|311:380,1,263.249987949372,6|0,3:3|0:0,0:0:0:0:
333,193,189481,6,1,P|339:150|368:114,1,87.749995983124,6|0,3:3|0:0,0:0:0:0:
501,58,189608,2,1,P|373:79|247:44,1,263.249987949372,4|0,3:3|0:0,0:0:0:0:
162,19,189862,6,1,P|124:39|112:80,1,87.749995983124,4|0,3:3|0:0,0:0:0:0:
29,187,189989,2,1,B|-38:222|-76:138|20:88|137:137|174:247|149:314,1,364.499988876343,6|0,3:3|0:0,0:0:0:0:
94,364,190244,6,1,P|56:343|44:302,1,87.749995983124,6|0,3:3|0:0,0:0:0:0:
186,136,190371,2,1,B|237:92|278:164|213:208|179:151|93:228|160:321,1,273.375001042843,4|0,3:3|0:0,0:0:0:0:
169,384,190625,1,0,0:0:0:0:
204,367,190689,1,0,0:0:0:0:
227,341,190752,2,1,P|248:304|238:262,3,87.749995983124,4|0|0|0,0:0|0:0|0:0|0:0,0:0:0:0:
421,263,191006,6,1,B|505:301|534:192|456:172|456:172|408:159|362:180|378:192|337:216|294:204,1,354.375003379583,4|0,3:3|0:0,0:0:0:0:
316,132,191261,2,1,B|295:87|258:77|258:77|200:61|354:11|436:105|448:196|416:275,1,425.2499870224,4|0,3:3|2:0,0:0:0:0:
331,295,191515,5,2,0:0:0:0:
480,101,191769,1,2,0:0:0:0:
415,180,192023,1,2,0:0:0:0:
490,90,192278,1,2,0:0:0:0:
182,127,192532,6,1,B|199:150|227:143|253:55|139:21|101:90|71:168|-23:142|-126:3|-9:-81|187:-35|144:52|98:85,1,472.5,2|0,0:0|2:0,0:0:0:0:
111,322,193040,6,1,P|130:294|160:280,1,67.5,6|0,3:3|0:0,0:0:0:0:
95,83,193167,2,1,P|84:130|115:168,1,101.250003862381,4|0,3:3|0:0,0:0:0:0:
258,211,193294,2,1,P|128:208|36:296,1,263.249987949372,6|0,3:3|0:0,0:0:0:0:
4,376,193549,6,1,P|-2:330|24:291,1,87.749995983124,6|0,3:3|0:0,0:0:0:0:
316,127,193676,2,1,B|357:70|312:2|194:0|126:130|270:217|283:207|295:196|339:237|334:280,1,405,4|0,3:3|0:0,0:0:0:0:
259,289,193930,6,1,P|242:249|258:210,1,87.749995983124,4|0,3:3|0:0,0:0:0:0:
507,107,194057,2,1,B|464:267|385:127|342:287,1,263.249987949372,6|0,3:3|0:0,0:0:0:0:
342,286,194311,6,1,P|333:315|330:352,1,67.5,6|0,3:3|0:0,0:0:0:0:
422,116,194439,2,1,B|362:190|425:253|446:224|493:290|453:358,1,270,4|2,3:3|0:0,0:0:0:0:
504,278,194756,1,2,0:0:0:0:
487,271,194820,2,1,P|453:270|424:286,3,67.5,4|4|4|4,0:0|0:0|0:0|0:0,0:0:0:0:
320,159,195074,1,0,3:0:0:0:
256,192,197108,1,2,3:1:0:0:
256,192,197172,12,0,199015,3:0:0:0:
263,35,199142,5,8,3:0:0:0:
291,37,199206,1,0,3:0:0:0:
319,40,199269,1,2,3:1:0:0:
348,43,199333,1,0,3:0:0:0:
376,46,199396,1,8,3:0:0:0:
222,111,199523,5,8,3:0:0:0:
255,114,199587,1,0,3:0:0:0:
289,117,199650,1,8,3:0:0:0:
323,120,199714,1,0,3:0:0:0:
357,124,199778,1,2,3:2:0:0:
180,183,199905,5,8,3:0:0:0:
220,187,199969,1,0,3:0:0:0:
261,191,200032,1,8,3:0:0:0:
303,195,200096,1,0,3:0:0:0:
344,199,200159,1,12,3:0:0:0:
133,260,200286,5,8,3:0:0:0:
181,264,200350,1,0,3:0:0:0:
228,269,200413,1,12,3:0:0:0:
276,274,200477,1,0,3:0:0:0:
323,279,200540,1,8,3:0:0:0:
0,325,200667,5,12,3:0:0:0:
60,331,200731,1,0,3:0:0:0:
119,337,200794,1,8,3:0:0:0:
179,343,200858,1,0,3:0:0:0:
238,349,200922,1,12,3:0:0:0:
298,355,200986,1,0,3:0:0:0:
357,361,201049,1,8,3:0:0:0:
417,367,201113,1,0,3:0:0:0:
476,373,201176,6,1,P|514:332|483:273,1,101.250003862381,12|0,3:0|0:0,0:0:0:0:
502,159,201303,2,1,P|447:146|411:202,1,101.250003862381,12|0,3:0|0:0,0:0:0:0:
392,292,201430,2,1,P|347:135|197:147,1,303.750011587143,12|0,3:0|0:0,0:0:0:0:
136,182,201684,6,1,P|70:196|30:162,1,101.250003862381,12|0,3:0|0:0,0:0:0:0:
118,62,201811,2,1,P|209:133|107:271,1,303.750011587143,12|0,3:0|0:0,0:0:0:0:
227,127,202066,6,1,P|283:115|339:134,1,101.250003862381,12|0,3:0|0:0,0:0:0:0:
492,255,202193,6,1,P|391:198|364:8,1,303.750011587143,12|0,3:0|0:0,0:0:0:0:
390,232,202447,6,1,P|348:297|321:301,1,101.250003862381,12|0,3:0|0:0,0:0:0:0:
130,345,202574,2,1,P|292:309|417:422,1,303.750011587143,12|0,3:0|2:0,0:0:0:0:
172,173,202828,5,0,0:0:0:0:
162,165,202892,1,0,0:0:0:0:
142,164,202956,1,8,0:3:0:0:
123,181,203019,1,0,0:0:0:0:
119,218,203083,1,0,0:0:0:0:
150,256,203146,1,0,0:0:0:0:
230,275,203210,6,1,P|265:148|340:41,1,263.249987949372,4|2,3:1|0:0,0:0:0:0:
198,5,203464,6,1,P|223:21|236:48,1,60.7499981460572,10|0,3:2|0:0,0:0:0:0:
417,37,203591,2,1,P|438:74|438:117,1,87.749995983124,6|0,0:0|0:0,0:0:0:0:
429,261,203718,6,1,P|279:260|189:377,1,303.750011587143,2|0,3:2|0:0,0:0:0:0:
181,126,203972,2,1,B|183:111|172:87|172:87|243:184|157:260|147:246|135:229|63:299|102:371,1,354.375003379583,10|0,3:2|0:0,0:0:0:0:
189,372,204227,2,1,B|186:295|113:244|31:263|31:263|29:175|101:166,1,354.375003379583,2|0,3:2|0:0,0:0:0:0:
106,72,204481,6,1,P|154:83|180:125,1,101.250003862381,10|0,3:2|0:0,0:0:0:0:
414,194,204608,2,1,P|462:182|488:140,1,101.250003862381,4|0,0:0|0:0,0:0:0:0:
314,244,204735,6,1,B|296:263|298:293|298:293|244:233|309:134|331:207|407:114|348:31,1,354.375003379583,2|0,3:2|0:0,0:0:0:0:
289,91,204989,2,1,B|265:79|257:49|257:49|227:124|322:195|317:119|420:180|394:279,1,354.375003379583,10|0,3:2|0:0,0:0:0:0:
460,340,205244,2,1,P|423:371|379:353,1,101.250003862381,2|0,3:2|0:0,0:0:0:0:
190,214,205371,5,4,0:0:0:0:
190,214,205434,1,2,0:0:0:0:
190,214,205498,1,10,3:2:0:0:
314,244,205625,1,6,0:0:0:0:
30,278,205752,6,1,B|-11:297|-30:359|-30:359|47:271|199:302,1,354.375003379583,2|0,3:2|0:0,0:0:0:0:
257,81,206006,2,1,B|175:37|70:76|76:196|88:199|98:205|80:259|30:277,1,354.375003379583,10|0,3:2|0:0,0:0:0:0:
41,55,206261,2,1,P|191:132|199:301,1,354.375003379583,2|0,3:2|0:0,0:0:0:0:
146,368,206515,5,10,3:2:0:0:
7,202,206642,1,4,0:0:0:0:
233,233,206769,6,1,B|309:230|360:157|342:75|342:75|429:72|438:144,1,354.375003379583,2|0,3:2|0:0,0:0:0:0:
512,205,207023,2,1,P|466:224|438:266,1,101.250003862381,10|0,3:2|0:0,0:0:0:0:
145,224,207150,2,1,P|105:193|89:145,1,101.250003862381,4|0,3:2|0:0,0:0:0:0:
378,338,207278,6,1,B|350:290|350:290|345:288|345:288|304:221|304:221|306:216|306:216|217:57|217:57|264:107|318:84|318:84|355:149,1,506.25,4|0,3:3|0:0,0:0:0:0:
260,304,207532,2,1,B|226:238|226:238|290:39|290:39|261:-6,2,337.5,8|2|0,3:3|0:1|3:0,0:0:0:0:
145,39,207913,6,1,B|115:23|115:23|160:120,1,135,0|0,1:0|1:0,0:0:0:0:
260,304,208040,1,8,3:3:0:0:
375,39,208167,2,1,B|404:23|404:23|359:120,1,135,0|0,1:0|1:0,0:0:0:0:
260,304,208294,1,0,3:0:0:0:
120,60,208422,2,1,B|87:50|87:50|148:137,1,135,0|0,1:0|1:0,0:0:0:0:
260,304,208549,1,8,3:3:0:0:
399,61,208676,2,1,B|431:51|431:51|369:138,1,135,0|0,1:0|1:0,0:0:0:0:
260,304,208803,6,1,L|271:237,1,67.5000025749207,0|2,3:0|1:0,0:0:0:0:
246,52,208972,1,2,1:0:0:0:
246,52,209057,2,1,L|258:119,1,67.5000025749207,8|2,3:3|1:0,0:0:0:0:
315,179,209227,1,2,1:0:0:0:
212,190,209311,1,0,0:0:0:0:
5,154,211345,6,1,B|-10:133|-26:127|-26:127|19:99|120:126|144:185|144:185|59:175|24:270,1,354.375003379583,4|2,3:3|0:0,0:0:0:0:
102,328,211600,2,1,P|155:315|185:285,1,84.375,10|0,3:2|0:0,0:0:0:0:
293,322,211727,2,1,P|308:269|297:228,1,84.375,6|0,0:0|0:0,0:0:0:0:
253,78,211854,2,1,B|228:50|277:-5|314:0|360:36|387:81|345:147|284:155|263:168|260:152|209:175|216:258,1,354.375003379583,2|0,3:2|0:0,0:0:0:0:
478,302,212108,2,1,B|507:331|496:371|496:371|487:317|448:279|431:306|398:242|424:179|424:179|422:213|444:236,1,354.375003379583,10|0,3:2|0:0,0:0:0:0:
512,183,212362,6,1,B|529:134|453:46|347:77|329:177|329:177|329:223|292:242,1,354.375003379583,2|0,3:2|0:0,0:0:0:0:
41,63,212617,2,1,B|24:53|6:56|6:56|39:22|136:30|172:101|172:101|172:158|221:191|281:168,1,354.375003379583,10|0,3:2|0:0,0:0:0:0:
482,63,212871,2,1,B|494:38|531:26|531:26|369:55|248:100,1,354.375003379583,2|0,3:2|0:0,0:0:0:0:
54,205,213125,2,1,B|13:215|0:278|13:313|77:399|192:317|168:257|157:229|157:229|134:214|115:175,1,354.375003379583,10|0,3:2|0:0,0:0:0:0:
233,23,213379,6,1,P|290:30|318:65,1,84.375,2|0,3:2|0:0,0:0:0:0:
482,63,213506,2,1,P|504:115|488:157,1,84.375,4|2,0:0|0:0,0:0:0:0:
512,223,213633,6,1,P|455:216|427:181,1,84.375,10|0,3:2|0:0,0:0:0:0:
263,183,213760,2,1,P|240:130|256:88,1,84.375,6|0,0:0|0:0,0:0:0:0:
386,15,213888,6,1,B|411:4|423:5|423:5|379:86|323:258|323:258|296:263|275:292,1,354.375003379583,2|0,3:2|0:0,0:0:0:0:
447,321,214142,6,1,B|488:316|504:334|504:334|454:271|385:321|385:321|351:384|283:358,1,303.750011587143,10|0,3:2|0:0,0:0:0:0:
47,291,214396,6,1,B|-27:253|-56:376|37:402|100:376|114:332|114:332|162:273|239:331,1,354.375003379583,2|0,3:2|0:0,0:0:0:0:
72,181,214650,2,1,B|-10:191|4:65|100:73|150:119|148:165|148:165|173:237|266:209,1,354.375003379583,10|0,3:2|0:0,0:0:0:0:
394,162,214905,5,2,3:2:0:0:
421,120,214968,1,2,0:0:0:0:
423,85,215032,1,6,0:2:0:0:
417,62,215095,1,2,0:0:0:0:
406,46,215159,5,10,3:2:0:0:
356,43,215222,1,0,0:0:0:0:
324,59,215286,1,4,3:2:0:0:
307,76,215349,1,0,0:0:0:0:
299,88,215413,5,4,3:3:0:0:
304,123,215477,1,0,3:0:0:0:
308,157,215540,1,4,3:2:0:0:
313,192,215604,1,0,3:0:0:0:
318,226,215667,1,8,3:2:0:0:
65,268,215794,5,4,3:3:0:0:
59,227,215857,1,0,3:0:0:0:
53,185,215921,1,2,3:2:0:0:
49,144,215984,1,0,3:0:0:0:
43,102,216048,1,4,3:2:0:0:
335,332,216176,5,8,3:2:0:0:
272,340,216240,1,0,3:0:0:0:
212,346,216303,1,12,3:2:0:0:
150,355,216367,1,0,3:0:0:0:
90,364,216430,1,4,3:3:0:0:
67,26,216557,5,4,3:2:0:0:
116,19,216620,1,0,3:0:0:0:
167,12,216684,1,10,3:2:0:0:
216,7,216747,1,0,3:0:0:0:
267,0,216811,1,4,3:2:0:0:
420,77,216939,5,2,3:2:0:0:
435,145,217002,1,0,3:0:0:0:
390,201,217066,1,4,3:2:0:0:
319,195,217129,1,0,3:0:0:0:
276,137,217193,1,8,3:2:0:0:
211,109,217256,1,0,3:0:0:0:
150,147,217320,1,4,3:2:0:0:
141,216,217383,1,0,3:0:0:0:
199,256,217447,5,4,3:3:0:0:
293,267,217532,5,0,3:3:0:0:
304,361,217617,5,0,3:3:0:0:
376,302,217701,5,4,3:3:0:0:
457,350,217786,5,0,3:3:0:0:
438,256,217871,5,2,3:2:0:0:
510,195,217956,5,4,3:3:0:0:
417,181,218040,5,0,3:3:0:0:
355,108,218125,5,0,3:3:0:0:
386,18,218210,5,4,3:3:0:0:
346,103,218294,5,0,3:3:0:0:
262,147,218379,5,0,3:3:0:0:
169,127,218464,5,12,3:2:0:0:
244,40,218591,6,1,P|264:35|244:42,1,67.5,8|0,0:2|2:0,0:0:0:0:
167,137,218718,2,1,P|184:156|164:138,1,84.375,8|0,0:2|2:0,0:0:0:0:
35,149,218845,2,1,P|25:179|31:147,1,101.250003862381,8|0,0:2|2:0,0:0:0:0:
208,344,219100,6,1,P|176:350|208:340,1,101.250003862381,8|0,0:1|2:0,0:0:0:0:
298,224,219227,2,1,P|272:196|301:221,1,118.125001126528,10|0,0:3|2:0,0:0:0:0:
458,210,219354,2,1,P|470:169|461:212,1,135,8|0,0:2|2:0,0:0:0:0:
151,18,219481,6,1,B|58:42|58:42|46:62|46:62|93:50|93:50|98:52|98:52|164:38|164:38|166:30|166:30|201:21|201:21|299:77|299:77|199:104|199:104|196:109|196:109|111:132|111:132|106:129|106:129|32:149,1,675,4|0,3:1|0:0,0:0:0:0:
31,163,219862,2,1,L|96:145,1,67.5,0|0,3:0|0:0,0:0:0:0:
181,273,219989,5,8,3:2:0:0:
133,335,220117,2,1,B|112:323|112:323|95:259|95:259|87:261|87:261|109:341|109:341|133:335,1,202.500007724762,2|0,1:1|0:0,0:0:0:0:
231,211,220244,2,1,B|251:222|251:222|268:286|268:286|276:284|276:284|254:204|254:204|231:211,1,202.500007724762,2|0,1:1|0:0,0:0:0:0:
23,320,220371,6,1,B|139:288|139:288|143:290|143:290|245:263|245:263|248:259|248:259|353:231,1,344.250006566048,2|0,3:2|0:0,0:0:0:0:
449,125,220625,6,1,B|474:95|474:95|467:57|467:57|441:86|441:86|449:125,1,155.250002961159,0|0,1:0|0:0,0:0:0:0:
476,280,220752,2,1,B|488:317|488:317|525:329|525:329|513:292|513:292|476:280,1,155.250002961159,0|0,1:0|0:0,0:0:0:0:
352,231,220879,2,1,B|313:223|313:223|284:249|284:249|322:256|322:256|352:231,1,155.250002961159,0|0,1:0|0:0,0:0:0:0:
424,209,221006,5,8,3:2:0:0:
399,301,221133,2,1,B|373:330|373:330|380:368|380:368|406:339|406:339|399:301,1,155.250002961159,2|0,1:0|0:0,0:0:0:0:
449,125,221261,2,1,B|476:93|468:52|468:52|440:83|449:125,1,155.250002961159,2|0,1:0|0:0,0:0:0:0:
166,118,221388,5,2,1:0:0:0:
166,118,221451,1,2,1:2:0:0:
166,118,221515,2,1,B|105:134|105:134|84:57|84:57|194:28|194:28|227:48|227:48|233:47|233:47|271:69|271:69|276:76|276:76|346:116|346:116|273:135,1,506.25,4|0,3:2|0:0,0:0:0:0:
268,158,221769,2,1,B|225:169|225:169|213:212,3,87.749995983124,0|0|0|0,1:0|1:0|1:0|1:0,0:0:0:0:
180,322,222023,6,1,P|219:302|178:318,1,135,8|0,3:2|0:0,0:0:0:0:
111,241,222150,2,1,P|122:205|108:239,1,114.750002188683,2|0,1:2|1:2,0:0:0:0:
21,286,222278,2,1,P|-1:261|18:287,1,101.250003862381,2|0,1:1|0:0,0:0:0:0:
77,384,222405,2,1,L|94:318,1,67.5,2|0,3:1|0:0,0:0:0:0:
456,208,222532,6,1,B|440:203|440:203|418:286,2,101.25,4|0|0,3:2|1:0|1:0,0:0:0:0:
361,188,222786,1,0,0:0:0:0:
506,313,222913,1,2,3:1:0:0:
506,313,222976,1,2,3:1:0:0:
506,313,223040,2,1,B|494:355|494:355|451:367,1,87.749995983124,8|0,3:2|2:0,0:0:0:0:
366,356,223167,1,0,1:0:0:0:
353,347,223231,2,1,B|321:315|321:315|332:272,1,87.749995983124,8|0,3:2|0:0,0:0:0:0:
416,116,223358,1,0,1:0:0:0:
429,112,223422,2,1,B|471:102|471:102|503:134,1,87.749995983124,8|2,3:2|1:3,0:0:0:0:
176,116,223549,6,1,B|130:37|130:37|219:61|219:61|224:58|224:58|278:73|278:73|281:77|281:77|300:83|300:83|357:181|357:181|264:156|264:156|205:190|205:190|196:225|196:225|191:227|191:227|181:266|181:266|184:271|184:271,1,675,4|0,3:2|0:0,0:0:0:0:
263,359,223930,1,2,3:1:0:0:
104,236,224057,2,1,B|45:220|45:220|31:195|31:195|109:216,1,168.75,8|0,3:2|0:0,0:0:0:0:
276,258,224184,1,0,1:1:0:0:
276,258,224248,1,0,1:1:0:0:
276,258,224311,2,1,L|361:280,1,87.749995983124,0|0,1:1|1:1,0:0:0:0:
46,384,224439,6,1,B|-11:284|-11:284|122:320|122:320|126:327|126:327|178:340|178:340|184:337|184:337|263:359,1,405,4|0,3:2|0:0,0:0:0:0:
504,263,224693,6,1,B|520:246|520:246|509:234|509:234|441:302,1,135,2|0,1:1|0:0,0:0:0:0:
242,193,224820,2,1,B|235:169|235:169|251:165|251:165|276:258,1,135,2|0,1:1|2:0,0:0:0:0:
413,137,224947,2,1,B|419:113|419:113|403:109|403:109|378:202,1,135,2|0,1:1|2:0,0:0:0:0:
339,384,225074,5,8,3:2:0:0:
242,193,225201,2,1,B|235:169|235:169|251:165|251:165|276:258,1,135,2|0,1:1|2:0,0:0:0:0:
339,384,225328,1,2,2:3:0:0:
504,263,225456,2,1,B|520:246|520:246|509:234|509:234|442:301,1,135,2|0,2:1|2:0,0:0:0:0:
405,126,225583,6,1,B|422:96|422:96|421:129,1,67.5,4|0,3:2|0:0,0:0:0:0:
203,97,225773,6,1,B|203:45|203:45|227:88,1,101.250003862381,4|0,3:2|0:0,0:0:0:0:
62,235,225964,6,1,B|27:175|27:175|84:209,1,135,2|0,3:3|0:0,0:0:0:0:
7,325,226091,6,1,B|-8:332|-8:332|39:319,1,67.5,4|0,3:2|0:0,0:0:0:0:
91,84,226282,6,1,B|68:67|68:67|124:124,1,101.250003862381,4|0,3:2|0:0,0:0:0:0:
341,48,226472,6,1,B|343:21|343:21|323:94,1,101.250003862381,2|0,3:3|2:0,0:0:0:0:
319,307,226600,5,2,3:1:0:0:
319,307,226663,1,0,3:0:0:0:
319,307,226727,2,1,L|256:244,1,87.749995983124,2|0,3:1|3:0,0:0:0:0:
410,147,226854,1,2,3:2:0:0:
410,147,226917,1,0,3:0:0:0:
410,147,226981,2,1,L|347:209,1,87.749995983124,2|0,3:2|3:0,0:0:0:0:
249,364,227108,2,1,B|207:352|207:352|195:309,1,87.749995983124,8|0,3:2|0:0,0:0:0:0:
195,185,227235,5,0,3:2:0:0:
195,185,227299,1,0,3:2:0:0:
195,185,227362,1,8,3:2:0:0:
371,366,227489,1,0,3:2:0:0:
320,100,227617,6,1,B|290:58|240:104|248:176|302:201|325:174|400:198|398:259,1,263.249987949372,4|0,3:3|0:0,0:0:0:0:
404,81,227871,2,1,B|413:30|478:50|501:119|462:164|430:150|372:203|400:258,1,263.249987949372,4|0,3:3|2:0,0:0:0:0:
484,245,228125,6,1,L|513:292,6,50.6250019311906,8|8|8|0|8|0|8,0:0|0:0|0:0|0:0|0:1|0:0|0:3,0:0:0:0:
317,279,228633,2,1,L|310:333,6,50.6250019311906,8|8|8|0|8|0|8,0:3|0:3|0:3|0:0|0:2|0:0|0:1,0:0:0:0:
416,333,229142,2,1,L|425:387,6,50.6250019311906,8|8|8|0|8|8|8,0:1|0:1|0:1|0:0|0:2|0:2|0:2,0:0:0:0:
324,146,229650,6,1,P|272:118|229:130,1,101.250003862381,4|0,3:3|0:0,0:0:0:0:
123,264,229778,2,1,P|173:232|184:189,1,101.250003862381,4|0,3:3|0:0,0:0:0:0:
5,53,229905,2,1,P|45:135|245:113,1,303.750011587143,4|0,3:3|0:0,0:0:0:0:
87,0,230159,6,1,P|88:59|120:90,1,101.250003862381,4|0,3:3|0:0,0:0:0:0:
268,16,230286,2,1,P|186:56|208:256,1,303.750011587143,4|0,3:3|0:0,0:0:0:0:
321,98,230540,6,1,P|261:99|230:131,1,101.250003862381,4|0,3:3|0:0,0:0:0:0:
305,279,230668,2,1,P|265:197|65:219,1,303.750011587143,4|0,3:3|0:0,0:0:0:0:
223,332,230922,6,1,P|221:272|189:241,1,101.250003862381,4|0,3:3|0:0,0:0:0:0:
42,316,231049,2,1,P|124:276|102:76,1,303.750011587143,4|8,3:3|0:2,0:0:0:0:
105,91,231303,6,1,L|65:106,4,25.3125009655953,8|8|8|0|8,0:2|0:2|0:2|0:0|0:2,0:0:0:0:
76,204,231557,2,1,L|64:208,4,12.6562504827976,8|0|8|0|8,0:3|0:0|0:3|0:0|0:3,0:0:0:0:
411,100,231684,6,1,B|425:83|474:99|474:99|422:52|332:69|316:140,1,263.249987949372,4|0,3:3|0:0,0:0:0:0:
169,37,231939,2,1,B|164:15|114:4|114:4|182:-10|252:49|230:119,1,263.249987949372,4|0,3:3|2:0,0:0:0:0:
259,206,232193,1,8,0:1:0:0:
259,206,232256,1,8,0:1:0:0:
259,206,232320,2,1,L|250:238,2,33.75,8|0|0,0:1|0:0|0:0,0:0:0:0:
245,259,232447,2,1,L|253:291,2,33.75,8|0|0,0:2|0:0|0:0,0:0:0:0:
262,313,232574,1,0,0:0:0:0:
390,201,232701,5,8,0:3:0:0:
407,279,232828,1,8,0:3:0:0:
347,350,232956,1,8,0:2:0:0:
220,382,233083,1,8,0:1:0:0:
131,297,233210,5,8,0:2:0:0:
121,280,233273,2,1,B|127:255|127:255|147:241,4,50.6250019311906,8|0|8|0|8,0:2|0:0|0:2|0:0|0:2,0:0:0:0:
88,175,233464,1,8,0:3:0:0:
116,159,233528,2,1,B|148:149|148:149|179:163,4,67.5,8|0|8|0|0,0:3|0:0|0:3|0:0|0:0,0:0:0:0:
195,42,233718,6,1,P|240:60|256:107,1,101.250003862381,4|0,3:0|0:0,0:0:0:0:
371,250,233845,2,1,P|419:241|446:200,1,101.250003862381,4|0,3:0|0:0,0:0:0:0:
484,110,233972,2,1,P|340:141|275:273,1,303.750011587143,4|8,3:0|0:3,0:0:0:0:
200,351,234227,6,1,P|151:355|114:322,1,101.250003862381,4|0,3:0|0:0,0:0:0:0:
54,245,234354,2,1,P|200:238|297:348,1,303.750011587143,4|8,3:0|0:2,0:0:0:0:
371,250,234608,6,1,P|419:241|446:200,1,101.250003862381,4|0,3:3|0:0,0:0:0:0:
484,110,234735,2,1,P|340:141|275:273,1,303.750011587143,4|8,3:3|0:0,0:0:0:0:
200,351,234989,6,1,P|151:355|114:322,1,101.250003862381,4|0,3:3|0:0,0:0:0:0:
54,245,235116,2,1,P|200:238|297:348,1,303.750011587143,4|8,3:3|0:1,0:0:0:0:
388,382,235371,1,8,0:1:0:0:
388,382,235434,1,0,0:0:0:0:
388,382,235498,1,4,0:3:0:0:
211,59,235752,5,2,0:1:0:0:
168,50,235837,1,0,0:0:0:0:
135,65,235922,1,0,0:0:0:0:
124,94,236006,1,0,0:0:0:0:
132,116,236091,1,0,0:0:0:0:
145,123,236176,1,0,0:0:0:0:
157,123,236261,5,2,0:0:0:0:
101,133,236345,1,0,0:0:0:0:
79,165,236430,1,0,0:0:0:0:
82,195,236515,1,0,0:0:0:0:
94,213,236600,1,0,0:0:0:0:
109,222,236684,1,0,0:0:0:0:
123,222,236769,5,2,0:3:0:0:
188,196,236854,1,0,0:0:0:0:
229,198,236939,1,0,0:0:0:0:
258,215,237023,1,0,0:0:0:0:
271,236,237108,1,0,0:0:0:0:
270,257,237193,1,0,0:0:0:0:
268,267,237278,5,2,0:0:0:0:
192,261,237362,1,0,0:0:0:0:
167,216,237447,1,0,0:0:0:0:
171,187,237532,1,0,0:0:0:0:
185,174,237617,1,0,0:0:0:0:
195,171,237701,1,0,0:0:0:0:
208,171,237786,5,2,0:3:0:0:
271,177,237871,1,0,0:0:0:0:
308,152,237956,1,0,0:0:0:0:
324,126,238040,1,0,0:0:0:0:
329,103,238125,1,0,0:0:0:0:
327,87,238210,1,0,0:0:0:0:
321,78,238294,5,2,0:0:0:0:
386,105,238379,1,0,0:0:0:0:
426,97,238464,1,0,0:0:0:0:
445,80,238549,1,0,0:0:0:0:
452,63,238633,1,0,0:0:0:0:
452,47,238718,1,0,0:0:0:0:
443,34,238803,5,2,0:1:0:0:
386,105,238888,1,0,0:0:0:0:
405,173,238972,1,0,0:0:0:0:
430,202,239057,1,0,0:0:0:0:
456,212,239142,1,0,0:0:0:0:
472,211,239227,1,0,0:0:0:0:
484,207,239311,5,2,0:0:0:0:
438,159,239396,1,0,0:0:0:0:
391,159,239481,1,0,0:0:0:0:
358,175,239566,1,0,0:0:0:0:
342,200,239650,1,0,0:0:0:0:
338,220,239735,1,0,0:0:0:0:
339,235,239820,5,2,0:1:0:0:
303,293,239905,1,0,0:0:0:0:
264,317,239989,1,0,0:0:0:0:
226,318,240074,1,0,0:0:0:0:
200,308,240159,1,0,0:0:0:0:
184,292,240244,1,0,0:0:0:0:
179,280,240328,5,2,0:0:0:0:
218,241,240413,1,0,0:0:0:0:
226,202,240498,1,0,0:0:0:0:
225,176,240583,1,0,0:0:0:0:
217,157,240667,1,0,0:0:0:0:
205,146,240752,1,0,0:0:0:0:
196,142,240837,5,2,0:3:0:0:
157,167,240922,1,0,0:0:0:0:
123,177,241006,1,0,0:0:0:0:
99,174,241091,1,0,0:0:0:0:
85,163,241176,1,0,0:0:0:0:
78,147,241261,1,0,0:0:0:0:
79,137,241345,5,2,0:0:0:0:
113,147,241430,1,0,0:0:0:0:
129,173,241515,1,0,0:0:0:0:
133,193,241600,1,0,0:0:0:0:
131,207,241684,1,0,0:0:0:0:
126,215,241769,1,0,0:0:0:0:
121,219,241854,5,2,0:3:0:0:
167,216,241939,1,0,0:0:0:0:
204,227,242023,1,0,0:0:0:0:
224,241,242108,1,0,0:0:0:0:
236,257,242193,1,0,0:0:0:0:
241,271,242278,1,0,0:0:0:0:
242,283,242362,5,2,0:0:0:0:
289,223,242447,1,0,0:0:0:0:
335,214,242532,1,0,0:0:0:0:
369,218,242617,1,0,0:0:0:0:
390,228,242701,1,0,0:0:0:0:
403,239,242786,1,0,0:0:0:0:
408,247,242871,5,2,0:1:0:0:
341,291,242956,1,0,0:0:0:0:
280,274,243040,1,0,0:0:0:0:
260,237,243125,1,0,0:0:0:0:
256,206,243210,1,0,0:0:0:0:
261,182,243294,1,0,0:0:0:0:
269,169,243379,5,2,0:0:0:0:
280,161,243464,1,0,0:0:0:0:
313,153,243549,1,0,0:0:0:0:
364,166,243633,1,2,0:3:0:0:
419,141,243718,1,0,0:0:0:0:
428,68,243803,1,0,0:0:0:0:
364,15,243888,1,2,3:1:0:0:
139,114,244110,6,1,B|139:76|139:76|149:66|149:66|139:114,1,101.250003862381,0|0,0:0|0:0,0:0:0:0:
97,135,244174,2,1,B|69:107|69:107|69:94|69:94|97:135,1,101.250003862381,0|0,0:0|2:0,0:0:0:0:
73,176,244237,2,1,B|34:176|34:176|25:166|25:166|73:176,1,101.250003862381,0|0,0:0|2:0,0:0:0:0:
83,226,244301,2,1,B|55:253|55:253|42:253|42:253|83:226,1,101.250003862381,0|0,0:0|2:0,0:0:0:0:
118,256,244364,6,1,B|118:294|118:294|108:303|108:303|118:256,1,101.250003862381,0|0,0:0|0:0,0:0:0:0:
197,237,244460,6,1,B|230:256|230:256|233:269|233:269|197:237,1,101.250003862381,0|0,0:0|2:0,0:0:0:0:
214,156,244555,6,1,B|247:136|247:136|260:140|260:140|214:156,1,101.250003862381,0|0,0:0|2:0,0:0:0:0:
144,96,244650,6,1,B|144:57|144:57|153:48|153:48|144:96,1,101.250003862381,0|0,0:0|2:0,0:0:0:0:
59,134,244746,6,1,B|25:114|25:114|22:101|22:101|59:134,1,101.250003862381,0|0,0:0|2:0,0:0:0:0:
53,225,244841,6,1,B|19:244|19:244|6:240|6:240|53:225,1,101.250003862381,0|0,0:0|2:0,0:0:0:0:
117,290,244936,6,1,B|116:328|116:328|107:337|107:337|117:290,1,101.250003862381,0|0,0:0|2:0,0:0:0:0:
243,145,245064,2,1,B|276:125|276:125|289:129|289:129|243:145,1,101.250003862381,0|0,0:0|2:0,0:0:0:0:
36,118,245222,2,1,B|2:98|2:98|0:85|0:85|36:118,1,101.250003862381,0|0,0:0|2:0,0:0:0:0:
243,277,245381,2,1,B|275:296|275:296|278:309|278:309|243:277,1,101.250003862381,0|0,0:0|0:0,0:0:0:0:
148,53,245540,2,1,B|147:14|147:14|157:5|157:5|148:53,1,101.250003862381,0|0,0:0|2:0,0:0:0:0:
16,244,245763,2,1,B|-17:264|-17:264|-30:260|-30:260|16:244,1,101.250003862381,0|0,0:0|2:0,0:0:0:0:
147,187,245922,5,4,3:3:0:0:
457,327,246176,6,1,B|503:339|503:339|510:312|510:312|483:334|457:327,3,135,0|0|0|0,1:0|1:0|1:0|0:0,0:0:0:0:
466,253,246430,1,2,1:0:0:0:
392,285,246557,1,2,1:0:0:0:
384,266,246621,2,1,L|366:200,1,67.5,2|0,1:0|0:0,0:0:0:0:
443,165,246748,1,2,1:0:0:0:
448,187,246812,2,1,L|465:252,1,67.5,2|0,1:0|2:0,0:0:0:0:
133,229,246939,6,1,L|150:294,1,67.5,8|0,0:0|2:0,0:0:0:0:
292,259,247066,2,1,L|258:317,1,67.5,8|0,0:0|2:0,0:0:0:0:
76,157,247193,6,1,L|33:232,1,87.749995983124,10|0,0:0|2:0,0:0:0:0:
361,181,247320,2,1,L|383:265,1,87.749995983124,10|0,0:0|2:0,0:0:0:0:
147,114,247447,6,1,B|125:71|125:71|72:69,1,101.250003862381,8|0,0:0|0:0,0:0:0:0:
294,133,247574,2,1,B|326:97|326:97|376:109,1,101.250003862381,8|0,0:0|0:0,0:0:0:0:
194,383,247701,6,1,B|192:335|192:335|169:382,1,101.250003862381,8|0,0:1|0:0,0:0:0:0:
227,29,247828,2,1,B|228:76|228:76|251:29,1,101.250003862381,8|0,0:1|0:0,0:0:0:0:
127,297,247956,6,1,B|89:323|-6:332|-59:237|-40:104|5:54|162:66|277:122|172:161|121:84|68:143|97:253,1,506.25,12|0,3:2|0:0,0:0:0:0:
294,133,248210,2,1,B|332:107|427:98|480:193|461:326|416:376|259:364|144:308|249:269|300:346|353:287|324:177,1,506.25,8|0,0:1|0:0,0:0:0:0:
212,192,248464,6,1,P|205:231|216:193,1,118.125001126528,6|0,3:0|2:0,0:0:0:0:
378,178,248591,1,0,0:0:0:0:
381,167,248655,2,1,P|418:153|379:163,1,118.125001126528,4|0,3:0|0:0,0:0:0:0:
274,58,248782,1,0,0:0:0:0:
269,46,248845,2,1,P|238:21|266:48,1,118.125001126528,4|0,3:0|0:0,0:0:0:0:
307,257,248972,6,1,P|337:282|309:254,1,118.125001126528,6|0,3:0|2:0,0:0:0:0:
387,55,249099,1,0,0:0:0:0:
379,47,249163,2,1,P|386:8|375:46,1,118.125001126528,4|0,3:0|0:0,0:0:0:0:
174,110,249290,1,0,0:0:0:0:
161,108,249353,2,1,P|123:121|162:111,1,118.125001126528,4|0,3:0|0:0,0:0:0:0:
471,107,249481,6,1,P|508:93|469:103,1,118.125001126528,6|0,3:0|2:0,0:0:0:0:
204,22,249608,1,0,0:0:0:0:
193,25,249672,2,1,P|162:0|190:27,1,118.125001126528,4|0,3:0|0:0,0:0:0:0:
207,282,249799,1,0,0:0:0:0:
199,292,249862,2,1,P|192:331|203:292,1,118.125001126528,4|0,3:0|0:0,0:0:0:0:
385,34,249989,6,1,B|395:27|413:20|413:20|379:58|364:166,1,118.125001126528,6|0,3:0|0:0,0:0:0:0:
166,218,250117,1,8,3:2:0:0:
156,220,250180,2,1,B|144:214|129:202|129:202|179:213|280:172,1,118.125001126528,4|0,3:0|0:0,0:0:0:0:
424,319,250307,1,8,3:2:0:0:
432,326,250371,2,1,B|433:338|430:357|430:357|414:308|328:241,1,118.125001126528,4|0,3:0|0:0,0:0:0:0:
226,55,250498,6,1,B|224:42|227:23|227:23|243:72|329:139,1,118.125001126528,6|0,3:0|0:0,0:0:0:0:
275,336,250626,1,8,3:2:0:0:
272,346,250689,2,1,B|262:353|243:360|243:360|278:322|293:214,1,118.125001126528,4|0,3:0|0:0,0:0:0:0:
492,163,250816,1,8,3:2:0:0:
502,160,250880,2,1,B|513:165|528:177|528:177|478:166|377:207,1,118.125001126528,4|0,3:0|0:0,0:0:0:0:
156,220,251006,6,1,B|144:214|129:202|129:202|179:213|280:172,1,118.125001126528,6|0,3:0|0:0,0:0:0:0:
424,317,251134,1,8,3:2:0:0:
431,325,251197,2,1,B|432:337|429:356|429:356|413:307|327:240,1,118.125001126528,4|0,3:0|0:0,0:0:0:0:
383,43,251324,1,8,3:2:0:0:
385,33,251388,2,1,B|395:25|412:18|412:18|379:56|364:165,1,118.125001126528,4|0,3:0|0:0,0:0:0:0:
300,212,251515,6,1,B|244:251|265:314|351:350|401:296|421:207|356:193|277:188|260:104|302:47,1,405,6|0,3:0|0:0,0:0:0:0:
299,53,251769,6,1,L|309:16,2,33.75,0|0|0,3:0|0:0|3:0,0:0:0:0:
220,36,251896,2,1,L|230:-1,2,33.75,8|0|0,3:2|0:0|3:0,0:0:0:0:
214,174,252023,6,1,B|167:161|167:161|82:14|82:14|-3:90|-3:90|473:218,1,826.875007885695,8|8,3:2|0:1,0:0:0:0:
445,128,252532,6,1,B|434:124|421:112|423:103|423:103|425:94|445:90|463:95|478:108|475:117|475:117|473:126|462:132|446:128,1,135,6|0,3:0|2:0,0:0:0:0:
475,314,252659,1,0,0:0:0:0:
481,323,252722,2,1,B|489:315|506:310|512:316|512:316|519:322|512:342|500:354|481:361|474:354|474:354|468:348|468:335|480:323,1,135,4|0,3:0|0:0,0:0:0:0:
311,262,252850,1,0,0:0:0:0:
302,265,252913,2,1,B|304:276|300:293|291:295|291:295|282:298|269:283|264:265|268:245|277:243|277:243|286:241|297:247|301:263,1,135,6|0,3:0|0:0,0:0:0:0:
490,219,253040,6,1,B|487:207|491:190|500:187|500:187|509:184|522:200|527:218|523:237|514:239|514:239|505:242|495:235|490:219,1,135,6|0,3:0|2:0,0:0:0:0:
374,341,253167,1,0,0:0:0:0:
368,350,253230,2,1,B|378:352|391:365|389:373|389:373|387:382|367:386|350:381|335:368|337:359|337:359|339:351|351:344|367:349,1,135,4|0,3:0|0:0,0:0:0:0:
345,177,253358,1,0,0:0:0:0:
332,166,253421,2,1,B|323:173|306:178|300:171|300:171|293:165|299:146|313:133|332:126|338:133|338:133|344:140|345:152|333:164,1,135,6|0,3:0|0:0,0:0:0:0:
481,323,253549,6,1,B|489:315|506:310|513:316|513:316|520:322|513:341|500:355|481:361|475:354|475:354|468:348|469:335|480:323,1,135,6|0,3:0|2:0,0:0:0:0:
311,262,253676,1,0,0:0:0:0:
301,263,253739,2,1,B|303:273|299:291|291:293|291:293|282:296|269:280|264:263|268:244|277:241|277:241|285:239|297:245|301:262,1,135,4|0,3:0|0:0,0:0:0:0:
445,128,253867,1,0,0:0:0:0:
447,119,253930,2,1,B|436:115|423:103|426:94|426:94|428:85|447:81|466:86|481:99|478:108|478:108|475:117|465:123|449:119,1,135,6|0,3:0|0:0,0:0:0:0:
399,272,254057,6,1,L|416:206,1,67.5,6|0,3:0|0:0,0:0:0:0:
345,177,254184,1,8,3:2:0:0:
332,166,254248,2,1,L|349:100,1,67.5,6|0,3:0|0:0,0:0:0:0:
259,110,254375,1,8,3:2:0:0:
246,99,254439,2,1,L|263:33,1,67.5,6|0,3:0|0:0,0:0:0:0:
201,263,254566,6,1,L|218:197,1,67.5,6|0,3:0|0:0,0:0:0:0:
147,168,254693,1,8,3:2:0:0:
134,157,254757,2,1,L|151:91,1,67.5,6|0,3:0|0:0,0:0:0:0:
61,101,254884,1,8,3:2:0:0:
48,90,254948,2,1,L|65:24,1,67.5,6|0,3:0|0:0,0:0:0:0:
201,263,255074,6,1,L|218:197,1,67.5,6|0,3:0|0:0,0:0:0:0:
298,206,255201,1,8,3:2:0:0:
312,204,255265,2,1,L|329:138,1,67.5,6|0,3:0|0:0,0:0:0:0:
403,192,255392,1,8,3:2:0:0:
420,189,255456,2,1,L|437:123,1,67.5,6|0,3:0|0:0,0:0:0:0:
119,306,255583,6,1,B|83:268|83:268|94:219,1,101.250003862381,6|0,3:0|0:0,0:0:0:0:
262,341,255710,2,1,B|310:326|310:326|325:279,1,101.250003862381,0|0,1:0|0:0,0:0:0:0:
174,384,255837,5,0,3:0:0:0:
174,384,255900,1,0,3:0:0:0:
174,384,255964,2,1,L|180:359,2,25.3125009655953,8|0|0,3:2|0:0|3:0,0:0:0:0:
294,151,256091,6,1,B|310:141|310:141|358:149|358:149|375:196|375:196|310:183|310:183|297:188|297:188|226:173|226:173|219:164|219:164|121:143|121:143|113:137|113:137|-7:109,1,506.25,4|0,3:0|0:0,0:0:0:0:
1,100,256345,2,1,B|-18:66|31:4|94:21|150:57|174:132|98:179|38:213|9:254|-2:299|97:365|186:363|253:273|153:147|82:167,1,506.25,8|0,3:0|0:0,0:0:0:0:
200,133,256600,6,1,L|232:20,1,118.125001126528,6|0,3:0|2:0,0:0:0:0:
337,232,256727,1,0,0:0:0:0:
344,241,256790,2,1,L|376:128,1,118.125001126528,6|8,3:0|3:3,0:0:0:0:
472,354,256917,1,0,0:0:0:0:
480,362,256981,2,1,L|512:249,1,118.125001126528,6|0,3:0|2:0,0:0:0:0:
344,13,257108,6,1,L|376:126,1,118.125001126528,6|0,3:0|0:0,0:0:0:0:
216,124,257235,1,0,0:0:0:0:
208,134,257299,2,1,L|240:247,1,118.125001126528,6|8,3:0|3:3,0:0:0:0:
75,232,257425,1,0,0:0:0:0:
64,242,257489,2,1,L|96:355,1,118.125001126528,6|0,3:0|0:0,0:0:0:0:
311,368,257617,6,1,L|343:255,1,118.125001126528,6|0,3:0|0:0,0:0:0:0:
183,257,257744,1,0,0:0:0:0:
175,247,257808,2,1,L|207:134,1,118.125001126528,6|8,3:0|3:3,0:0:0:0:
42,149,257934,1,0,0:0:0:0:
31,139,257998,2,1,L|63:26,1,118.125001126528,6|0,3:0|0:0,0:0:0:0:
256,43,258125,6,1,B|267:22|267:22|303:30|303:30|276:54|276:54|256:43,1,118.125001126528,6|0,3:0|0:0,0:0:0:0:
135,173,258253,1,0,1:0:0:0:
122,184,258316,2,1,B|133:204|133:204|109:231|109:231|101:195|101:195|122:184,1,118.125001126528,6|8,3:0|3:0,0:0:0:0:
216,124,258442,1,0,1:0:0:0:
214,139,258506,2,1,B|237:139|237:139|248:173|248:173|213:162|213:162|214:139,1,118.125001126528,6|0,3:0|0:0,0:0:0:0:
336,81,258633,6,1,B|347:60|347:60|383:68|383:68|356:92|356:92|336:81,1,118.125001126528,6|0,3:0|2:0,0:0:0:0:
151,256,258761,1,0,1:0:0:0:
138,267,258824,2,1,B|149:287|149:287|125:314|125:314|117:278|117:278|138:267,1,118.125001126528,6|8,3:0|3:0,0:0:0:0:
273,188,258951,1,0,1:0:0:0:
271,203,259015,2,1,B|294:203|294:203|305:237|305:237|270:226|270:226|271:203,1,118.125001126528,6|0,3:0|0:0,0:0:0:0:
410,125,259142,6,1,B|421:104|421:104|457:112|457:112|430:136|430:136|410:125,1,118.125001126528,6|0,3:0|2:0,0:0:0:0:
183,333,259269,1,0,1:0:0:0:
170,344,259332,2,1,B|181:364|181:364|157:391|157:391|149:355|149:355|170:344,1,118.125001126528,6|8,3:0|3:0,0:0:0:0:
329,254,259460,1,0,1:0:0:0:
327,269,259524,2,1,B|350:269|350:269|361:303|361:303|326:292|326:292|327:269,1,118.125001126528,6|0,3:0|0:0,0:0:0:0:
265,122,259650,5,4,3:0:0:0:
278,69,259714,1,0,1:0:0:0:
240,25,259778,1,0,1:0:0:0:
179,37,259841,1,0,1:0:0:0:
159,101,259905,6,1,L|178:127,2,33.75,8|0|0,3:0|0:0|3:0,0:0:0:0:
105,178,260032,2,1,L|85:151,2,33.75,0|0|0,3:0|0:0|3:0,0:0:0:0:
484,99,260159,6,1,B|496:52|496:52|463:19,1,94.4999971160889,4|0,3:0|0:0,0:0:0:0:
448,16,260286,2,1,B|401:28|401:28|389:73,1,94.4999971160889,4|0,3:0|0:0,0:0:0:0:
409,295,260413,2,1,B|398:341|398:341|306:387|306:387|337:246|337:246|341:243|341:243|357:169|357:169|354:164|354:164|371:81,1,465.750008883476,12|0,3:3|0:0,0:0:0:0:
271,0,260667,6,1,B|262:15|262:15|299:40|290:89,1,101.250003862381,6|0,3:0|2:0,0:0:0:0:
184,134,260794,1,0,0:0:0:0:
199,141,260858,2,1,B|213:150|213:150|194:190|226:227,1,101.250003862381,6|8,3:0|3:3,0:0:0:0:
314,281,260985,1,0,0:0:0:0:
299,288,261049,2,1,B|284:297|284:297|303:337|271:374,1,101.250003862381,6|0,3:0|2:0,0:0:0:0:
139,254,261176,6,1,B|143:270|143:270|101:285|97:335,1,101.250003862381,6|0,3:0|0:0,0:0:0:0:
360,164,261303,1,0,0:0:0:0:
352,192,261367,2,1,B|347:208|347:208|389:223|393:273,1,101.250003862381,6|8,3:0|3:3,0:0:0:0:
111,6,261494,1,0,0:0:0:0:
123,32,261558,2,1,B|127:48|127:48|85:63|81:113,1,101.250003862381,6|0,3:0|0:0,0:0:0:0:
271,0,261684,6,1,B|262:15|262:15|299:40|290:89,1,101.250003862381,6|0,3:0|0:0,0:0:0:0:
158,117,261811,1,0,0:0:0:0:
199,141,261875,2,1,B|213:150|213:150|194:190|226:227,1,101.250003862381,6|8,3:0|3:3,0:0:0:0:
314,281,262002,1,0,0:0:0:0:
281,296,262066,2,1,B|266:305|266:305|285:345|253:382,1,101.250003862381,6|0,3:0|0:0,0:0:0:0:
3,318,262193,6,1,P|8:269|49:242,1,101.250003862381,12|0,3:0|0:0,0:0:0:0:
73,91,262320,2,1,P|121:83|157:116,1,101.250003862381,12|0,3:0|0:0,0:0:0:0:
367,105,262447,2,1,P|424:239|338:363,1,303.750011587143,12|0,3:0|0:0,0:0:0:0:
252,382,262701,6,1,P|203:376|176:335,1,101.250003862381,12|0,3:0|0:0,0:0:0:0:
67,355,262828,2,1,P|46:211|162:114,1,303.750011587143,12|0,3:0|0:0,0:0:0:0:
181,40,263083,2,1,P|229:45|256:86,1,101.250003862381,12|0,3:0|0:0,0:0:0:0:
367,105,263210,6,1,P|423:238|337:362,1,303.750011587143,12|0,3:0|0:0,0:0:0:0:
252,382,263464,6,1,P|203:376|176:335,1,101.250003862381,12|0,3:0|0:0,0:0:0:0:
67,355,263591,2,1,P|46:211|162:114,1,303.750011587143,12|2,3:0|0:2,0:0:0:0:
235,163,263845,1,2,0:2:0:0:
250,178,263909,1,2,0:2:0:0:
256,199,263972,1,10,0:2:0:0:
181,255,264100,1,10,0:2:0:0:
76,53,264227,6,1,P|188:18|329:181,1,303.750011587143,4|0,3:1|2:0,0:0:0:0:
256,224,264481,1,2,0:0:0:0:
322,145,264608,1,2,0:0:0:0:
440,159,264989,1,2,0:1:0:0:
474,293,265371,1,2,0:1:0:0:
332,378,265752,5,2,0:3:0:0:
187,256,266006,1,2,0:3:0:0:
322,126,266261,6,1,P|218:23|76:53,1,303.750011587143,4|0,3:1|2:0,0:0:0:0:
25,164,266515,1,2,0:0:0:0:
71,79,266642,1,2,0:0:0:0:
203,65,267023,1,2,0:1:0:0:
296,178,267405,1,2,0:1:0:0:
203,323,267786,5,2,0:3:0:0:
1,280,268040,1,2,0:3:0:0:
283,178,268294,6,1,P|215:183|151:204,1,135,4|0,3:0|0:0,0:0:0:0:
81,241,268549,1,0,0:0:0:0:
398,163,268676,2,1,P|314:154|243:54,1,202.5,2|0,3:2|2:0,0:0:0:0:
302,0,268930,5,0,0:0:0:0:
386,20,269057,1,0,0:0:0:0:
433,89,269184,1,0,0:0:0:0:
417,349,269311,6,1,P|462:303|446:240,1,135,2|0,3:3|0:0,0:0:0:0:
398,163,269566,1,0,0:0:0:0:
285,340,269693,2,1,P|251:258|321:180,1,202.5,2|0,3:2|2:0,0:0:0:0:
398,163,269947,5,0,0:0:0:0:
424,86,270074,1,0,3:0:0:0:
343,272,270201,2,1,L|296:259,2,45,0|0|0,3:0|3:0|3:0,0:0:0:0:
278,255,270328,5,2,3:3:0:0:
208,217,270456,1,0,0:0:0:0:
201,134,270583,1,0,0:0:0:0:
285,19,270710,6,1,P|193:19|121:95,1,202.5,2|0,3:2|2:0,0:0:0:0:
51,136,270964,1,0,0:0:0:0:
19,216,271091,1,0,0:0:0:0:
70,285,271218,1,0,0:0:0:0:
201,134,271345,5,2,3:2:0:0:
216,132,271430,2,1,P|258:142|288:176,1,90,0|0,0:0|0:0,0:0:0:0:
352,126,271599,1,2,0:0:0:0:
361,136,271684,2,1,P|380:169|378:207,1,76.5000014591217,2|2,0:0|0:0,0:0:0:0:
454,223,271854,1,2,0:0:0:0:
460,238,271939,2,1,P|452:268|428:289,1,62.9999980773926,2|2,0:0|0:0,0:0:0:0:
412,364,272108,1,0,3:0:0:0:
395,372,272193,1,0,0:0:0:0:
359,377,272278,1,0,3:0:0:0:
314,357,272362,6,1,P|276:308|308:247,1,135,2|0,3:3|0:0,0:0:0:0:
378,206,272617,1,2,0:2:0:0:
266,23,272744,2,1,P|361:34|397:124,1,202.5,2|0,3:2|2:0,0:0:0:0:
316,156,272998,1,0,0:0:0:0:
251,100,273125,1,2,0:3:0:0:
176,137,273252,1,0,0:0:0:0:
71,336,273379,6,1,P|91:274|53:222,1,135,2|0,3:3|0:0,0:0:0:0:
209,334,273633,1,2,0:3:0:0:
0,161,273761,2,1,P|127:147|207:249,1,270,2|2,3:2|0:3,0:0:0:0:
224,331,274142,1,2,3:0:0:0:
424,269,274269,2,1,L|467:280,2,45,0|0|0,3:0|3:0|3:0,0:0:0:0:
385,335,274396,6,1,P|301:284|290:187,1,202.5,2|0,3:3|2:0,0:0:0:0:
335,122,274650,1,2,0:2:0:0:
131,160,274778,2,1,P|181:76|278:65,1,202.5,2|0,3:2|2:0,0:0:0:0:
335,122,275032,1,0,0:0:0:0:
399,0,275159,5,2,0:3:0:0:
512,137,275286,1,0,0:0:0:0:
424,269,275413,6,1,P|410:203|431:136,1,135,2|0,3:3|0:0,0:0:0:0:
474,68,275667,1,2,0:2:0:0:
273,307,275794,2,1,P|251:243|200:195,1,135,2|0,3:3|0:0,0:0:0:0:
131,160,276049,1,2,0:3:0:0:
359,327,276176,5,2,3:2:0:0:
334,223,276303,2,1,L|321:176,2,45,0|0|0,3:0|3:0|3:0,0:0:0:0:
347,228,276430,6,1,L|391:236,3,40.4999987640381,0|0|0|2,3:0|0:0|0:0|0:3,0:0:0:0:
182,125,277193,5,0,0:0:0:0:
134,188,277320,1,0,0:0:0:0:
216,198,277447,6,1,L|260:206,3,40.4999987640381,2|0|0|2,0:3|0:0|0:0|0:3,0:0:0:0:
100,115,278210,1,0,3:0:0:0:
45,176,278337,1,0,3:0:0:0:
36,185,278400,1,0,0:0:0:0:
27,195,278464,5,2,3:3:0:0:
77,280,278591,1,0,0:0:0:0:
134,188,278718,1,2,0:2:0:0:
0,265,278845,2,1,P|0:311|45:353,1,101.250003862381,2|0,3:2|2:0,0:0:0:0:
121,350,279100,5,0,0:0:0:0:
199,206,279227,1,2,0:3:0:0:
77,280,279354,1,0,0:0:0:0:
156,280,279481,5,2,3:3:0:0:
117,209,279608,1,0,0:0:0:0:
241,279,279735,1,2,0:3:0:0:
36,349,279862,1,2,3:2:0:0:
411,191,280117,5,2,0:3:0:0:
470,248,280244,1,2,3:0:0:0:
419,311,280371,1,0,3:0:0:0:
413,322,280434,1,0,0:0:0:0:
407,332,280498,5,2,3:3:0:0:
355,254,280625,1,0,0:0:0:0:
470,248,280752,1,2,0:2:0:0:
294,316,280879,6,1,P|237:302|190:292,1,101.25,2|0,3:2|2:0,0:0:0:0:
96,318,281133,1,0,0:0:0:0:
165,202,281261,1,2,0:3:0:0:
224,384,281388,1,0,0:0:0:0:
56,231,281515,6,1,P|113:217|160:207,1,101.25,2|0,3:3|2:0,0:0:0:0:
265,216,281769,1,2,0:2:0:0:
171,90,281896,5,2,3:3:0:0:
155,196,282023,1,0,0:0:0:0:
246,138,282150,1,2,0:3:0:0:
249,54,282278,1,2,3:2:0:0:
200,56,282405,1,0,3:0:0:0:
193,41,282468,1,0,0:0:0:0:
186,26,282532,6,1,L|111:10,2,45,0|2|2,3:0|0:0|0:0,0:0:0:0:
67,9,282786,2,1,L|-8:-7,2,45,2|2|2,0:2|0:2|0:2,0:0:0:0:
318,101,283040,6,1,L|362:91,2,45,2|2|2,0:2|0:2|0:2,0:0:0:0:
437,84,283294,2,1,L|481:74,2,45,2|2|2,0:2|0:2|0:2,0:0:0:0:
199,205,283549,6,1,L|124:189,2,45,2|2|2,3:2|0:2|0:2,0:0:0:0:
80,188,283803,2,1,L|5:172,2,45,2|2|2,0:2|0:2|0:2,0:0:0:0:
337,328,284057,6,1,L|412:312,2,45,2|2|2,0:2|0:2|0:2,0:0:0:0:
146,369,284311,2,1,L|71:385,2,45,10|2|2,3:3|0:2|0:2,0:0:0:0:
221,170,284566,6,1,B|268:196|315:151|297:141|339:88|395:115|383:138|423:165|486:112|477:40|431:8|431:8|484:23|532:125|478:225|338:269|308:214|283:158|134:151|90:272|139:332|139:332|177:381|270:388|304:297|240:259|194:269|196:279|200:290|139:277|139:277|83:236|94:153,1,1376.9999579773,4|0,3:1|2:0,0:0:0:0:
123,24,286091,6,1,B|44:-21|44:-21|-11:76|-11:76|26:66|26:66|35:68|35:68|81:55|81:55|92:48|92:48|158:31|158:31|216:65|216:65|194:100|194:100|157:112,1,526.499975898744,2|2,1:1|1:0,0:0:0:0:
92,159,286600,1,4,3:1:0:0:
77,165,286663,2,1,L|3:185,2,77.6250014805794,0|0|0,0:0|0:0|0:0,0:0:0:0:
132,234,286854,1,0,0:0:0:0:
124,248,286917,2,1,L|93:300,2,60.7499981460572,0|2|0,0:0|0:3|0:0,0:0:0:0:
215,240,287108,1,0,0:0:0:0:
221,260,287193,2,1,L|233:307,3,49.5000015106202,0|0|2|0,0:0|0:0|0:3|0:0,0:0:0:0:
291,207,287532,5,0,0:0:0:0:
308,216,287617,2,1,L|343:236,3,40.4999987640381,0|0|2|0,0:0|0:0|0:3|0:0,0:0:0:0:
311,117,288125,6,1,B|314:105|314:105|389:125|389:125|387:136,1,101.250003862381,2|0,1:1|0:0,0:0:0:0:
449,328,288252,2,1,B|428:291|428:291|477:107|477:107|513:86,1,273.375001042843,8|0,1:1|0:0,0:0:0:0:
507,71,288506,2,1,L|449:93,1,54,2|0,1:1|0:0,0:0:0:0:
235,143,288633,5,2,0:2:0:0:
235,143,288888,5,0,0:0:0:0:
162,107,289015,1,0,0:0:0:0:
84,129,289142,1,2,0:3:0:0:
84,129,289396,5,0,0:0:0:0:
33,192,289523,1,0,0:0:0:0:
122,305,289650,1,2,0:3:0:0:
49,271,289778,1,0,0:0:0:0:
195,271,289905,1,0,0:0:0:0:
214,192,290032,1,2,0:3:0:0:
229,180,290095,1,2,0:3:0:0:
251,176,290159,1,2,0:3:0:0:
331,187,290286,1,0,0:0:0:0:
375,254,290413,1,2,0:2:0:0:
339,326,290540,1,0,0:0:0:0:
260,325,290667,5,2,0:2:0:0:
438,160,290837,5,0,0:0:0:0:
187,94,291006,5,0,0:0:0:0:
283,251,291176,1,2,0:2:0:0:
345,51,291430,5,2,0:3:0:0:
345,51,291557,1,0,0:0:0:0:
345,51,291684,1,2,0:2:0:0:
262,27,291811,1,0,0:0:0:0:
186,56,291939,5,0,0:0:0:0:
225,89,292066,1,2,0:3:0:0:
236,148,292193,1,2,0:2:0:0:
319,189,292320,1,2,0:3:0:0:
359,288,292447,1,2,0:3:0:0:
490,384,292574,1,0,0:0:0:0:
140,151,292701,6,1,B|57:138|104:46|113:5|88:-30|58:-17|-95:-98|-27:87|-44:112|-46:126|29:135|113:119|196:129|259:173|235:216|220:227|183:252|143:312|199:378|204:466|278:480|323:475|349:478|480:437|529:133|399:28|214:293|183:328|162:329|141:321|47:410|186:129|105:77|-74:47|-117:334|-30:341|59:352|80:228|153:282,1,1350,4|2,3:1|0:3,0:0:0:0:
271,143,294227,6,1,B|351:136|351:136|362:141|362:141|456:133|456:133|479:82|479:82|426:49|426:49|377:53|377:53|364:47|364:47|264:56|264:56|214:107|214:107|269:146,1,607.500023174287,2|2,1:1|1:0,0:0:0:0:
417,258,294735,5,4,3:1:0:0:
423,275,294837,2,1,L|445:337,2,40.5000015449524,0|0|0,0:0|0:0|0:0,0:0:0:0:
314,265,295021,1,0,0:0:0:0:
310,282,295085,2,1,L|294:374,2,50.6250019311906,0|0|0,0:0|0:0|0:0,0:0:0:0:
217,222,295286,1,0,0:0:0:0:
205,235,295371,2,1,L|158:295,1,67.5000025749207,0|0,0:0|2:0,0:0:0:0:
101,172,295498,6,1,B|72:135|72:135|18:177|18:177|70:190|70:190|75:197|75:197|123:210|123:210|130:207|130:207|226:230,1,303.750011587143,8|0,1:1|0:0,0:0:0:0:
384,142,295752,6,1,B|452:149|482:118|459:44|415:45|333:123|404:155|270:183|264:143,1,303.750011587143,4|0,3:1|2:0,0:0:0:0:
270,70,296006,2,1,B|230:28|212:139|145:157|83:118|105:42|154:-15|223:-29|298:-22|269:13|288:70,1,405.000015449524,0|0,0:0|0:0,0:0:0:0:
365,222,296388,2,1,B|384:244|339:267|311:298|362:333,1,101.250003862381,0|0,0:0|2:0,0:0:0:0:
481,365,296515,5,2,1:1:0:0:
417,301,296600,1,2,1:1:0:0:
381,384,296684,1,2,1:1:0:0:
172,145,296960,5,0,0:0:0:0:
103,213,297150,1,2,0:3:0:0:
121,302,297278,1,0,0:0:0:0:
103,213,297532,5,2,0:3:0:0:
121,302,297659,1,0,0:0:0:0:
257,164,297786,5,2,0:2:0:0:
172,145,297913,1,2,0:3:0:0:
103,213,298040,1,2,0:3:0:0:
121,302,298167,5,2,0:2:0:0:
145,319,298231,1,0,0:0:0:0:
176,326,298294,1,2,0:3:0:0:
295,249,298422,1,2,0:2:0:0:
257,164,298549,1,2,0:2:0:0:
172,145,298676,1,2,0:3:0:0:
155,133,298739,1,2,0:3:0:0:
142,111,298803,6,1,P|137:65|136:8,1,101.250003862381,12|0,3:1|0:0,0:0:0:0:
103,213,298930,1,0,0:0:0:0:
93,228,299057,1,8,0:0:0:0:
244,150,299184,6,1,P|289:145|347:144,1,101.250003862381,8|0,0:3|0:0,0:0:0:0:
142,111,299311,1,0,0:0:0:0:
127,101,299438,1,8,0:0:0:0:
205,252,299566,6,1,P|209:297|211:355,1,101.250003862381,8|0,0:3|0:0,0:0:0:0:
244,150,299693,1,8,0:3:0:0:
254,135,299820,1,8,0:0:0:0:
103,213,299947,6,1,P|57:217|0:219,1,101.250003862381,8|0,0:3|0:0,0:0:0:0:
205,252,300074,1,8,0:3:0:0:
220,262,300201,1,8,0:0:0:0:
127,101,300328,6,1,B|89:66|42:80|42:80|61:-28|227:-25|262:94|200:164,1,405,8|8,0:3|0:3,0:0:0:0:
123,297,300837,1,0,3:0:0:0:
123,297,301091,5,2,3:1:0:0:
205,252,301218,1,0,0:0:0:0:
349,351,301345,1,0,3:0:0:0:
416,298,301472,1,0,0:0:0:0:
416,298,301536,1,0,0:0:0:0:
416,298,301600,1,0,3:0:0:0:
273,306,301727,1,0,0:0:0:0:
268,77,301854,6,1,P|296:133|314:203,1,135,2|0,3:2|3:0,0:0:0:0:
450,91,302172,1,0,0:0:0:0:
432,86,302235,2,1,P|398:83|369:99,1,67.5,2|0,0:0|3:0,0:0:0:0:
225,165,302489,1,0,0:0:0:0:
207,171,302553,1,0,0:0:0:0:
191,172,302617,2,1,P|158:164|134:141,1,67.5,0|0,3:0|0:0,0:0:0:0:
5,344,302871,6,1,P|69:351|115:305,1,135,2|0,3:1|3:1,0:0:0:0:
123,289,303189,1,0,0:0:0:0:
119,263,303252,1,0,0:0:0:0:
11,172,303379,1,0,3:0:0:0:
134,141,303506,1,0,0:0:0:0:
19,36,303633,1,0,3:0:0:0:
19,36,303761,1,0,0:0:0:0:
187,4,303888,6,1,L|284:30,1,101.25,2|0,3:2|2:0,0:0:0:0:
302,37,304142,1,0,3:0:0:0:
265,263,304269,2,1,L|238:165,1,101.25,2|0,0:0|2:0,0:0:0:0:
232,148,304523,1,0,0:0:0:0:
379,63,304650,2,1,L|353:160,1,101.25,0|0,3:0|2:0,0:0:0:0:
332,314,304905,6,1,B|380:329|395:385|395:385|380:329|429:288,1,202.5,2|0,3:2|2:0,0:0:0:0:
445,278,305159,1,0,3:0:0:0:
464,279,305222,2,1,L|512:292,2,50.6250019311906,0|0|0,0:0|0:0|0:0,0:0:0:0:
460,188,305413,2,1,L|508:174,3,50.6250019311906,0|0|0|0,3:0|0:0|0:0|0:0,0:0:0:0:
424,103,305667,5,8,3:2:0:0:
387,70,305731,1,0,0:0:0:0:
354,62,305794,1,0,0:0:0:0:
336,66,305858,1,0,0:0:0:0:
322,76,305922,2,1,B|207:106|252:28|127:62,1,202.5,2|0,3:1|2:0,0:0:0:0:
49,85,306176,5,0,3:0:0:0:
55,103,306261,2,1,L|72:168,1,67.5000025749207,0|0,0:0|0:0,0:0:0:0:
242,245,306430,5,0,3:0:0:0:
223,241,306515,2,1,L|157:223,1,67.5000025749207,0|0,0:0|0:0,0:0:0:0:
1,331,306684,5,8,3:2:0:0:
23,305,306769,5,8,0:2:0:0:
53,278,306854,5,8,0:2:0:0:
71,258,306939,5,2,3:2:0:0:
319,367,307193,5,8,3:0:0:0:
319,367,307256,1,0,0:0:0:0:
319,367,307320,2,1,L|338:295,1,67.5,0|0,0:0|0:0,0:0:0:0:
421,282,307447,1,0,3:0:0:0:
421,282,307510,1,0,0:0:0:0:
421,282,307574,2,1,L|377:207,1,84.375,0|0,0:0|0:0,0:0:0:0:
453,147,307701,6,1,B|425:139|425:139|423:134|423:134|384:124|384:124|379:126|379:126|357:121,1,101.250003862381,8|0,3:3|0:0,0:0:0:0:
363,31,307828,2,1,B|338:45|338:45|333:43|333:43|298:63|298:63|296:68|296:68|277:80,1,101.250003862381,8|0,0:2|0:0,0:0:0:0:
44,116,307956,2,1,P|171:111|252:209,1,263.249987949372,2|0,3:2|2:0,0:0:0:0:
239,293,308210,5,8,3:0:0:0:
223,324,308294,5,0,0:0:0:0:
191,340,308379,5,0,0:0:0:0:
94,238,308464,5,0,3:0:0:0:
128,236,308548,5,0,0:0:0:0:
158,256,308633,5,0,0:0:0:0:
92,363,308718,6,1,P|98:342|112:325,4,43.874997991562,8|0|0|0|0,3:3|0:0|3:0|0:0|3:0,0:0:0:0:
197,179,308972,6,1,P|245:162|290:175,1,67.5,12|0,3:0|0:0,0:0:0:0:
421,324,309100,2,1,P|382:290|371:245,1,67.5,0|0,3:0|0:0,0:0:0:0:
429,58,309227,2,1,P|419:108|385:140,1,67.5,12|0,3:0|0:0,0:0:0:0:
349,189,309354,1,0,3:0:0:0:
276,45,309481,6,1,P|314:78|325:123,1,67.5,12|0,3:0|0:0,0:0:0:0:
259,323,309609,2,1,P|268:272|302:240,1,67.5,0|0,3:0|0:0,0:0:0:0:
512,193,309736,2,1,P|464:209|419:197,1,67.5,12|0,3:0|0:0,0:0:0:0:
349,189,309862,1,0,3:0:0:0:
257,107,309989,6,1,P|305:90|350:103,1,67.5,12|0,3:0|0:0,0:0:0:0:
322,307,310117,2,1,P|283:273|272:228,1,67.5,0|0,3:0|0:0,0:0:0:0:
466,145,310244,2,1,P|456:195|422:227,1,67.5,12|0,3:0|0:0,0:0:0:0:
349,189,310371,1,0,3:0:0:0:
238,169,310498,6,1,P|247:118|281:86,1,67.5,12|0,3:0|0:0,0:0:0:0:
385,291,310626,2,1,P|337:308|292:295,1,67.5,0|0,3:0|0:0,0:0:0:0:
420,97,310753,2,1,P|458:130|469:175,1,67.5,12|0,3:0|0:0,0:0:0:0:
349,189,310879,1,0,3:0:0:0:
429,202,311006,6,1,P|471:209|512:193,1,87.749995983124,12|0,3:0|0:0,0:0:0:0:
325,111,311133,2,1,P|310:71|276:45,1,87.749995983124,0|0,3:0|0:0,0:0:0:0:
292,246,311261,2,1,P|264:280|259:323,1,87.749995983124,12|0,3:0|0:0,0:0:0:0:
349,189,311388,1,0,3:0:0:0:
420,97,311515,6,1,P|447:63|453:20,1,87.749995983124,12|0,3:0|0:0,0:0:0:0:
232,168,311642,2,1,P|189:161|149:177,1,87.749995983124,0|0,3:0|0:0,0:0:0:0:
385,291,311770,2,1,P|400:331|434:357,1,87.749995983124,12|0,3:0|0:0,0:0:0:0:
349,189,311896,1,0,3:0:0:0:
385,291,312023,6,1,P|427:297|467:281,1,87.749995983124,12|0,3:0|0:0,0:0:0:0:
420,97,312150,2,1,P|404:56|370:30,1,87.749995983124,0|0,3:0|0:0,0:0:0:0:
232,168,312278,2,1,P|204:201|198:244,1,87.749995983124,12|0,3:0|0:0,0:0:0:0:
349,189,312405,1,0,3:0:0:0:
467,281,312531,6,1,P|494:247|500:204,1,87.749995983124,12|0,3:0|0:0,0:0:0:0:
370,30,312658,2,1,P|327:23|287:39,1,87.749995983124,0|0,3:0|0:0,0:0:0:0:
198,244,312786,2,1,P|213:284|247:310,1,87.749995983124,12|0,3:0|0:0,0:0:0:0:
349,189,312913,1,0,3:0:0:0:
115,123,313040,5,12,3:3:0:0:
65,137,313104,1,0,3:0:0:0:
34,179,313167,1,0,3:0:0:0:
35,233,313231,1,0,3:0:0:0:
69,278,313294,1,4,3:0:0:0:
225,102,313422,5,8,3:3:0:0:
209,51,313486,1,0,3:0:0:0:
168,20,313549,1,4,3:0:0:0:
114,21,313613,1,0,3:0:0:0:
69,55,313676,1,0,3:0:0:0:
246,212,313803,5,12,3:3:0:0:
297,196,313867,1,0,3:0:0:0:
328,155,313930,1,0,3:0:0:0:
327,101,313994,1,0,3:0:0:0:
293,56,314057,1,4,3:0:0:0:
136,233,314184,5,8,3:3:0:0:
150,283,314248,1,0,3:0:0:0:
192,314,314311,1,4,3:0:0:0:
246,313,314375,1,0,3:0:0:0:
291,279,314438,1,0,3:0:0:0:
115,123,314566,5,12,3:3:0:0:
65,137,314630,1,0,3:0:0:0:
34,179,314693,1,0,3:0:0:0:
35,233,314757,1,0,3:0:0:0:
128,293,314820,5,12,3:3:0:0:
178,279,314884,1,0,3:0:0:0:
209,237,314947,1,0,3:0:0:0:
208,183,315011,1,0,3:0:0:0:
174,138,315074,6,1,L|213:89,3,50.6250019311906,4|0|0|0,3:3|0:0|0:0|0:0,0:0:0:0:
277,65,315328,2,1,L|338:74,3,50.6250019311906,2|0|0|0,0:0|0:0|0:0|0:0,0:0:0:0:
396,140,315583,2,1,L|418:198,3,50.6250019311906,2|0|0|0,0:0|0:0|0:0|0:0,0:0:0:0:
360,298,315837,2,1,L|321:347,3,50.6250019311906,2|0|0|0,0:0|0:0|0:0|0:0,0:0:0:0:
162,356,316091,1,2,0:3:0:0:
256,192,316155,12,2,316854,0:3:0:0:
226,182,317108,6,1,B|140:219|29:181|-15:29|136:-31|201:49|153:109,1,405,4|0,3:1|0:0,0:0:0:0:
83,207,317362,2,1,P|61:243|71:285,1,87.749995983124,10|0,3:2|0:0,0:0:0:0:
358,252,317489,2,1,P|345:210|308:190,1,87.749995983124,6|0,0:2|0:0,0:0:0:0:
130,337,317617,5,2,3:2:0:0:
182,352,317680,1,0,0:0:0:0:
231,334,317744,2,1,L|248:268,1,67.5,4|0,0:2|0:0,0:0:0:0:
305,21,317871,2,1,L|287:86,1,67.5,10|0,3:2|0:0,0:0:0:0:
160,199,317998,2,1,L|225:181,1,67.5,6|0,0:2|0:0,0:0:0:0:
468,114,318125,6,1,B|527:108|578:32|519:-37|414:-26|372:137|496:221,1,405,4|0,3:3|0:0,0:0:0:0:
501,237,318379,2,1,P|480:274|439:286,1,87.749995983124,10|0,3:2|0:0,0:0:0:0:
401,350,318506,2,1,P|358:350|327:321,1,87.749995983124,4|0,0:2|0:0,0:0:0:0:
160,199,318633,6,1,B|83:213|79:300|96:264|99:346|21:358,1,229.500004377365,2|0,3:2|2:0,0:0:0:0:
22,359,318824,2,1,B|72:300|150:339|110:337|179:380|229:318,1,229.500004377365,2|0,0:0|0:0,0:0:0:0:
280,251,319015,1,4,0:2:0:0:
115,46,319142,6,1,B|103:-11|7:-37|-36:43|-10:136|116:114|113:93|112:72|204:44|246:144,1,405,4|0,3:3|0:0,0:0:0:0:
312,174,319396,2,1,P|353:164|375:128,1,87.749995983124,10|0,3:2|0:0,0:0:0:0:
271,15,319523,2,1,P|229:24|207:60,1,87.749995983124,6|0,0:2|2:0,0:0:0:0:
160,199,319650,5,0,0:0:0:0:
120,231,319714,1,2,0:0:0:0:
72,210,319778,2,1,L|94:125,1,87.749995983124,6|0,0:2|0:0,0:0:0:0:
229,317,319905,2,1,L|251:232,1,87.749995983124,10|0,3:2|0:0,0:0:0:0:
25,381,320032,2,1,L|47:296,1,87.749995983124,6|0,0:2|0:0,0:0:0:0:
312,174,320159,6,1,P|395:226|389:322,1,202.500007724762,4|4,3:3|0:2,0:0:0:0:
367,318,320350,2,1,P|347:273|375:234,1,101.250003862381,2|10,0:0|3:2,0:0:0:0:
417,133,320477,1,0,0:0:0:0:
434,122,320540,2,1,P|481:114|512:151,1,101.250003862381,6|0,0:2|0:0,0:0:0:0:
495,384,320667,6,1,P|450:312|367:317,1,175.499991966248,2|4,3:2|0:2,0:0:0:0:
295,365,320858,1,2,0:0:0:0:
277,370,320922,2,1,L|192:347,1,87.749995983124,8|0,3:2|0:0,0:0:0:0:
34,236,321049,2,1,L|11:151,1,87.749995983124,6|0,3:2|0:0,0:0:0:0:
30,355,321176,6,1,B|108:363|126:283|101:313|127:230|205:237,1,229.500004377365,4|4,3:3|0:2,0:0:0:0:
205,237,321367,2,1,B|129:259|97:183|127:208|87:131|11:151,1,229.500004377365,2|0,0:0|0:0,0:0:0:0:
11,151,321557,2,1,B|89:159|107:79|82:109|108:26|186:33,1,229.500004377365,6|0,0:2|0:0,0:0:0:0:
246,98,321811,5,4,0:2:0:0:
246,98,321875,1,0,0:0:0:0:
246,98,321939,2,1,P|285:127|300:175,1,101.250003862381,8|0,3:2|0:0,0:0:0:0:
511,166,322066,2,1,P|462:168|418:204,1,101.250003862381,6|2,0:2|0:0,0:0:0:0:
493,370,322193,6,1,B|414:378|396:298|421:328|395:245|317:252,1,229.500004377365,4|4,3:3|0:2,0:0:0:0:
318,252,322384,2,1,B|393:274|425:198|395:223|435:146|511:166,1,229.500004377365,2|0,0:0|0:0,0:0:0:0:
512,166,322574,2,1,B|433:174|415:94|440:124|414:41|336:48,1,229.500004377365,6|0,0:2|0:0,0:0:0:0:
263,97,322828,5,4,0:2:0:0:
263,97,322892,1,0,0:0:0:0:
263,97,322956,2,1,P|248:143|202:176,1,101.250003862381,8|0,3:2|0:0,0:0:0:0:
176,279,323083,2,1,P|132:301|76:292,1,101.250003862381,6|2,0:2|0:0,0:0:0:0:
35,60,323210,6,1,B|37:28|37:28|197:42|197:42|131:96|131:96|130:102|130:102|66:156|66:156|60:157|60:157|23:187|23:187|19:235,1,465.750008883476,4|0,3:3|2:0,0:0:0:0:
14,250,323464,2,1,B|27:293|27:293|70:305,1,87.749995983124,8|0,3:3|0:0,0:0:0:0:
134,380,323591,1,2,1:0:0:0:
165,372,323655,1,2,1:0:0:0:
190,365,323718,2,1,L|287:338,1,101.250003862381,8|0,3:1|2:0,0:0:0:0:
231,222,323845,2,1,B|182:235|182:235|168:285,1,101.250003862381,8|0,1:1|2:0,0:0:0:0:
448,294,323972,6,1,B|530:173|530:173|451:194|451:194|445:192|445:192|379:210|379:210|373:215|373:215|316:232|316:232|334:263,1,405,8|0,3:3|0:0,0:0:0:0:
364,379,324227,6,1,B|376:357|376:357|353:273|353:273|332:261,1,135,2|0,3:1|0:0,0:0:0:0:
273,134,324354,2,1,B|309:141|309:141|336:116|336:116|300:110|300:110|273:134,1,148.50000453186,2|0,1:1|2:0,0:0:0:0:
233,219,324481,2,1,B|211:205|211:205|189:121|189:121|201:100,1,135,8|0,3:3|0:0,0:0:0:0:
384,52,324608,2,1,B|405:65|405:65|427:149|427:149|415:170,1,135,2|0,1:1|2:0,0:0:0:0:
341,269,324735,5,2,3:1:0:0:
341,269,324799,1,0,3:0:0:0:
341,269,324862,2,1,L|334:242,2,27,2|0|0,3:1|3:0|3:0,0:0:0:0:
294,144,324989,1,2,3:1:0:0:
294,144,325053,1,2,3:1:0:0:
294,144,325116,2,1,L|300:117,2,27,2|2|2,3:1|3:1|3:1,0:0:0:0:
111,227,325244,5,4,3:3:0:0:
138,152,325307,2,1,B|175:89|279:180|210:237|153:217|115:240|103:287|121:321,1,270,0|0,3:2|3:2,0:0:0:0:
231,372,325498,6,1,P|227:326|195:298,1,87.749995983124,10|0,3:2|0:0,0:0:0:0:
181,90,325625,2,1,P|139:70|98:84,1,87.749995983124,6|0,0:2|0:0,0:0:0:0:
8,187,325752,1,2,3:2:0:0:
4,243,325816,1,2,0:0:0:0:
28,289,325879,6,1,P|77:297|148:310,1,87.749995983124,4|0,0:2|0:0,0:0:0:0:
346,346,326006,2,1,P|395:354|466:367,1,87.749995983124,8|2,3:2|0:0,0:0:0:0:
503,187,326133,2,1,P|453:195|383:208,1,87.749995983124,6|0,0:2|0:0,0:0:0:0:
235,315,326261,6,1,B|140:349|110:225|135:209|166:199|122:53|17:111,1,354.375003379583,4|2,3:3|0:0,0:0:0:0:
8,187,326515,2,1,B|72:264|160:171|146:145|125:121|235:16|298:119,1,354.375003379583,10|2,3:2|0:0,0:0:0:0:
416,201,326769,6,1,P|331:214|212:236,1,202.500007724762,2|0,3:2|2:0,0:0:0:0:
164,356,326960,2,1,P|194:275|235:161,1,202.500007724762,2|0,0:0|0:0,0:0:0:0:
230,135,327150,2,1,P|257:168|296:214,1,101.250003862381,6|0,0:2|0:0,0:0:0:0:
433,294,327278,6,1,B|481:297|520:342|520:342|503:266|430:216|368:243|368:243|342:303|282:292,1,405,4|0,3:3|0:0,0:0:0:0:
137,189,327532,2,1,P|93:182|56:202,1,87.749995983124,10|0,3:2|0:0,0:0:0:0:
83,368,327659,2,1,P|127:375|164:355,1,87.749995983124,6|0,0:2|0:0,0:0:0:0:
372,121,327786,5,0,3:0:0:0:
369,63,327850,1,2,0:0:0:0:
322,20,327913,2,1,P|269:28|194:40,1,87.749995983124,6|0,0:2|0:0,0:0:0:0:
157,274,328040,2,1,P|104:282|29:294,1,87.749995983124,10|0,3:2|0:0,0:0:0:0:
132,48,328167,2,1,P|79:56|4:68,1,87.749995983124,6|0,0:2|0:0,0:0:0:0:
262,270,328294,6,1,B|302:234|356:261|356:261|366:177|248:138|136:179|159:310,1,405,4|2,3:3|0:0,0:0:0:0:
111,357,328549,2,1,B|68:399|12:365|11:314|34:275|90:232|173:281,1,270,10|6,3:2|0:2,0:0:0:0:
316,332,328739,1,2,0:0:0:0:
262,270,328803,6,1,P|248:162|233:33,1,229.500004377365,2|6,3:2|0:2,0:0:0:0:
512,67,328994,2,1,P|426:132|321:210,1,229.500004377365,2|0,0:0|0:0,0:0:0:0:
314,0,329184,2,1,P|363:20|423:46,1,114.750002188683,6|2,3:2|0:0,0:0:0:0:
486,243,329311,6,1,B|465:320|371:283|373:257|379:234|264:196|256:292,1,270,12|0,3:2|0:0,0:0:0:0:
261,269,329502,2,1,B|204:212|283:149|304:163|321:180|412:100|333:45,1,270,12|0,3:2|0:0,0:0:0:0:
350,61,329693,2,1,B|427:39|442:140|419:151|396:157|420:276|507:235,2,270,12|2|2,3:2|3:2|3:2,0:0:0:0:
105,102,330074,5,10,3:2:0:0:
47,139,330138,1,2,3:2:0:0:
20,195,330201,1,10,3:2:0:0:
21,258,330265,1,2,3:2:0:0:
40,320,330328,6,1,B|85:385|161:318|151:295|137:275|232:200|272:287,1,270,12|0,3:2|0:0,0:0:0:0:
260,267,330519,2,1,B|294:194|197:162|183:182|173:204|60:159|115:81,1,270,12|0,3:2|0:0,0:0:0:0:
105,102,330710,2,1,B|25:108|45:208|70:210|94:208|112:328|16:319,2,270,12|2|2,3:2|3:2|3:2,0:0:0:0:
299,7,331091,5,10,3:2:0:0:
353,9,331155,1,2,3:2:0:0:
407,34,331218,1,10,3:2:0:0:
449,75,331282,1,2,3:2:0:0:
477,130,331345,6,1,B|542:175|475:251|452:241|432:227|357:322|444:362,1,270,12|0,3:2|0:0,0:0:0:0:
424,350,331536,2,1,B|351:384|319:287|339:273|361:263|316:150|238:205,1,270,12|0,3:2|0:0,0:0:0:0:
259,195,331727,2,1,B|265:115|365:135|367:160|365:184|485:202|476:106,2,270,12|2|10,3:2|3:2|3:2,0:0:0:0:
205,302,332044,5,2,3:2:0:0:
199,316,332108,2,1,P|150:322|92:333,1,87.749995983124,10|0,3:2|0:0,0:0:0:0:
85,141,332235,2,1,P|128:133|171:127,1,87.749995983124,6|0,3:2|2:0,0:0:0:0:
369,280,332426,6,1,P|396:315|423:349,1,87.749995983124,6|0,3:2|2:0,0:0:0:0:
186,219,332617,2,1,P|142:224|99:231,1,87.749995983124,6|0,3:2|2:0,0:0:0:0:
332,92,332807,5,6,3:2:0:0:
336,72,332871,1,0,0:0:0:0:
352,53,332934,1,0,0:0:0:0:
384,45,332998,1,6,3:2:0:0:
420,55,333061,1,0,0:0:0:0:
437,97,333125,1,8,3:2:0:0:
425,153,333189,1,8,3:2:0:0:
365,190,333252,1,8,3:2:0:0:
294,180,333316,1,8,3:2:0:0:
249,120,333379,5,4,3:3:0:0:
242,99,333443,2,1,L|228:50,2,50.6250019311906,0|0|0,0:0|0:0|0:0,0:0:0:0:
51,89,333633,1,0,0:0:0:0:
58,110,333697,2,1,L|71:158,2,50.6250019311906,0|0|0,0:0|0:0|0:0,0:0:0:0:
158,142,333888,1,0,0:0:0:0:
151,121,333952,2,1,L|137:72,2,50.6250019311906,0|0|0,0:0|0:0|0:0,0:0:0:0:
231,208,334142,6,1,L|138:232,1,87.749995983124,8|0,3:2|0:0,0:0:0:0:
98,367,334269,2,1,P|74:338|80:285,1,87.749995983124,8|0,3:2|0:0,0:0:0:0:
0,258,334396,2,1,P|111:257|187:339,1,229.500004377365,12|0,3:2|2:0,0:0:0:0:
198,354,334587,2,1,P|294:298|319:189,1,229.500004377365,12|0,3:2|2:0,0:0:0:0:
333,76,334778,5,12,3:2:0:0:
340,63,334841,1,0,3:2:0:0:
355,50,334905,2,1,P|475:64|378:136,1,310.500005922318,12|0,3:2|0:0,0:0:0:0:
377,135,335095,2,1,P|360:254|455:179,1,310.500005922318,12|0,3:2|0:0,0:0:0:0:
512,90,335286,2,1,P|480:69|441:71,1,77.6250014805794,12|0,3:2|3:2,0:0:0:0:
178,128,335413,5,4,3:3:0:0:
184,113,335477,2,1,P|200:94|224:89,2,50.6250019311906,0|0|0,0:0|0:0|0:0,0:0:0:0:
198,214,335667,1,0,0:0:0:0:
216,237,335731,2,1,P|225:265|215:293,2,60.7499981460572,0|0|0,0:0|0:0|0:0,0:0:0:0:
116,189,335922,1,0,0:0:0:0:
72,202,335986,2,1,P|27:192|-1:159,2,87.749995983124,0|0|0,0:0|0:0|0:0,0:0:0:0:
31,41,336176,5,8,3:2:0:0:
31,41,336239,1,0,0:0:0:0:
31,41,336303,2,1,P|72:52|96:88,1,87.749995983124,0|0,3:2|0:0,0:0:0:0:
139,279,336430,6,1,P|239:248|360:219,1,229.500004377365,12|0,3:2|0:0,0:0:0:0:
379,226,336621,2,1,P|479:206|454:107,1,229.500004377365,12|0,3:2|0:0,0:0:0:0:
399,42,336811,5,12,3:2:0:0:
357,30,336875,1,0,3:2:0:0:
327,51,336939,2,1,P|296:151|267:272,1,229.500004377365,12|0,3:2|0:0,0:0:0:0:
260,286,337129,2,1,P|159:266|184:167,1,229.500004377365,12|0,3:2|0:0,0:0:0:0:
199,92,337320,2,1,P|254:99|283:146,1,114.750002188683,12|0,3:2|3:2,0:0:0:0:
490,225,337447,6,1,P|385:264|345:368,1,229.500004377365,4|0,3:1|2:0,0:0:0:0:
333,380,337638,2,1,P|246:309|136:327,1,229.500004377365,2|0,0:0|0:0,0:0:0:0:
113,332,337828,2,1,P|130:222|60:135,1,229.500004377365,6|0,0:2|0:0,0:0:0:0:
35,62,338083,1,4,0:2:0:0:
34,63,338146,1,2,0:0:0:0:
34,63,338210,2,1,P|63:37|106:45,1,80.9999975280763,8|0,3:2|0:0,0:0:0:0:
11,214,338337,2,1,P|6:176|32:143,1,80.9999975280763,6|2,0:2|0:0,0:0:0:0:
164,100,338464,6,1,P|226:175|211:272,1,202.500007724762,2|4,3:2|0:2,0:0:0:0:
200,291,338655,2,1,P|296:275|373:336,1,202.500007724762,2|0,0:0|0:0,0:0:0:0:
382,348,338845,2,1,P|417:256|508:220,1,202.500007724762,6|0,0:2|0:0,0:0:0:0:
512,341,339100,1,4,0:2:0:0:
512,341,339163,1,2,0:0:0:0:
512,341,339227,2,1,P|465:326|447:280,1,101.250003862381,8|0,3:2|0:0,0:0:0:0:
304,302,339354,2,1,P|293:254|324:216,1,101.250003862381,6|2,0:2|0:0,0:0:0:0:
462,86,339481,6,1,B|508:73|508:73|410:17|410:17|393:46|393:46|388:47|388:47|370:79|370:79|371:84|371:84|353:114|353:114|317:124|317:124|312:121|312:121|271:133|271:133|268:138|268:138|224:150,1,405,4|0,3:3|2:0,0:0:0:0:
255,58,339735,2,1,L|426:156,2,198.000006042481,8|2|2,3:3|1:0|1:0,0:0:0:0:
205,229,339989,2,1,B|191:220|191:220|233:147,1,101.250003862381,2|0,3:3|0:0,0:0:0:0:
412,40,340117,2,1,B|398:32|398:32|355:105,1,101.250003862381,2|0,0:3|0:0,0:0:0:0:
447,280,340244,5,8,3:3:0:0:
429,269,340307,1,2,1:1:0:0:
411,259,340371,1,2,1:1:0:0:
394,249,340434,1,2,1:1:0:0:
376,239,340498,2,1,L|308:200,1,77.6250014805794,0|0,3:3|0:0,0:0:0:0:
86,72,340625,2,1,L|154:111,1,77.6250014805794,8|0,0:2|0:0,0:0:0:0:
281,278,340752,2,1,L|233:250,1,54,8|0,3:3|0:0,0:0:0:0:
110,182,340879,2,1,L|157:209,1,54,8|0,0:2|0:0,0:0:0:0:
127,354,341006,5,0,3:0:0:0:
127,354,341070,1,0,3:0:0:0:
127,354,341133,1,2,3:0:0:0:
47,300,341261,6,1,P|53:272|76:255,2,57.3750010943413,8|2|2,3:0|3:1|3:1,0:0:0:0:
201,384,341388,2,1,P|224:367|231:340,2,57.3750010943413,2|2|2,3:1|3:1|3:1,0:0:0:0:
164,284,341515,6,1,L|297:70,1,229.500004377365,4|2,3:3|0:2,0:0:0:0:
510,285,341706,2,1,L|258:276,1,229.500004377365,4|2,3:3|0:2,0:0:0:0:
347,0,341896,2,1,L|465:222,1,229.500004377365,4|2,3:3|0:2,0:0:0:0:
376,206,342087,2,1,B|337:137|337:137|296:205|296:205|382:209,1,229.500004377365,4|0,3:3|2:0,0:0:0:0:
497,98,342278,6,1,B|493:64|493:64|460:49,1,67.5,4|0,3:3|2:0,0:0:0:0:
227,224,342405,2,1,B|230:257|230:257|263:272,1,67.5,4|0,3:2|2:0,0:0:0:0:
272,102,342532,6,1,P|206:88|119:223,1,229.500004377365,4|2,3:3|0:2,0:0:0:0:
278,287,342722,2,1,P|322:236|248:93,1,229.500004377365,4|2,3:3|0:2,0:0:0:0:
113,200,342913,2,1,P|134:263|295:271,1,229.500004377365,4|2,3:3|0:2,0:0:0:0:
258,209,343104,2,1,P|188:179|256:214,1,229.500004377365,4|0,3:3|2:0,0:0:0:0:
403,262,343294,6,1,B|424:249|424:249|330:229,1,94.4999971160889,4|0,3:3|2:0,0:0:0:0:
61,162,343422,2,1,B|39:174|39:174|133:194,1,94.4999971160889,4|0,3:2|0:0,0:0:0:0:
367,110,343549,6,1,B|414:6|414:6|248:21,1,229.500004377365,4|2,3:3|0:2,0:0:0:0:
198,28,343739,2,1,B|84:39|84:39|180:175,1,229.500004377365,4|2,3:3|0:2,0:0:0:0:
208,210,343930,2,1,B|274:302|274:302|344:151,1,229.500004377365,4|2,3:3|0:2,0:0:0:0:
262,161,344121,2,1,B|293:89|293:89|214:97|214:97|262:167,1,229.500004377365,4|0,3:3|2:0,0:0:0:0:
318,362,344311,6,1,B|338:350|338:350|385:243,1,101.250003862381,4|0,3:3|2:0,0:0:0:0:
172,31,344439,2,1,B|152:43|152:43|105:150,1,101.250003862381,4|0,3:2|2:0,0:0:0:0:
202,340,344566,6,1,B|230:379|230:379|83:391|83:391|152:232,1,337.5,4|2,3:3|0:2,0:0:0:0:
175,169,344756,2,1,B|195:124|195:124|279:245|279:245|106:265,1,337.5,4|2,3:3|0:2,0:0:0:0:
42,278,344947,2,1,B|-6:282|-6:282|56:149|56:149|159:288,1,337.5,4|2,3:3|0:2,0:0:0:0:
43,114,345138,6,1,L|244:384,1,337.5,4|2,3:3|0:2,0:0:0:0:
347,372,345328,6,1,P|376:351|385:319,1,67.5,4|0,3:3|2:0,0:0:0:0:
491,236,345456,2,1,P|487:200|464:176,1,67.5,4|0,3:2|0:0,0:0:0:0:
412,35,345583,6,1,P|346:32|313:66,1,101.250003862381,4|0,3:0|0:0,0:0:0:0:
300,247,345710,1,4,3:2:0:0:
363,208,345773,2,1,P|371:155|383:93,2,101.250003862381,0|4|0,0:0|3:0|0:0,0:0:0:0:
476,348,345964,6,1,B|519:366|553:319|538:272|491:221|374:242|379:363,2,270,4|4|4,3:2|3:0|3:2,0:0:0:0:
185,282,346345,5,4,3:0:0:0:
170,270,346409,1,2,0:0:0:0:
156,246,346472,1,6,3:2:0:0:
158,206,346536,1,2,0:0:0:0:
209,155,346600,2,1,P|266:156|290:177,1,91.1250003476143,4|0,3:0|0:0,0:0:0:0:
374,285,346727,1,4,3:2:0:0:
450,247,346790,2,1,P|400:204|332:218,1,101.250003862381,0|4,0:0|3:0,0:0:0:0:
129,132,346981,2,1,P|79:122|29:115,1,101.250003862381,4|0,3:2|0:0,0:0:0:0:
231,223,347108,1,4,3:0:0:0:
26,319,347235,6,1,B|14:329|11:343|11:343|49:320|131:293,1,118.125001126528,4|0,3:2|0:0,0:0:0:0:
351,252,347362,5,4,3:0:0:0:
362,263,347426,1,0,0:0:0:0:
370,277,347489,2,1,L|360:211,1,67.5,6|0,3:2|0:0,0:0:0:0:
364,123,347617,5,4,3:0:0:0:
329,114,347680,1,0,3:2:0:0:
294,105,347744,1,6,3:2:0:0:
259,96,347807,1,0,3:2:0:0:
224,87,347871,5,4,3:0:0:0:
207,130,347934,1,0,3:2:0:0:
190,174,347998,1,6,3:2:0:0:
173,217,348061,1,0,3:2:0:0:
157,261,348125,5,4,3:0:0:0:
212,281,348189,1,2,3:2:0:0:
267,300,348252,1,6,3:2:0:0:
322,320,348316,1,2,3:2:0:0:
377,339,348379,5,4,3:0:0:0:
402,272,348443,1,2,3:0:0:0:
426,206,348506,1,6,3:2:0:0:
451,139,348570,1,2,3:0:0:0:
475,73,348633,1,4,3:0:0:0:
329,165,348761,6,1,L|316:198,2,33.75,4|0|0,3:2|3:0|3:0,0:0:0:0:
378,40,348888,1,4,3:3:0:0:
230,128,349015,6,1,L|212:170,2,33.75,4|0|0,3:2|3:0|3:0,0:0:0:0:
279,3,349142,1,4,3:3:0:0:
426,198,349269,6,1,L|404:251,2,33.75,4|0|0,3:2|3:0|3:0,0:0:0:0:
475,73,349396,1,4,3:3:0:0:
280,290,349523,6,1,L|257:346,2,33.75,4|0|0,3:2|3:0|3:0,0:0:0:0:
329,165,349650,1,4,3:1:0:0:
329,165,349905,5,8,3:2:0:0:
98,273,350032,1,4,0:0:0:0:
57,51,350159,1,2,3:2:0:0:
40,59,350244,2,1,P|11:92|17:135,1,90,0|0,0:0|0:0,0:0:0:0:
229,96,350413,1,8,3:2:0:0:
239,112,350498,2,1,P|246:155|220:189,1,90,0|0,0:0|0:0,0:0:0:0:
0,208,350667,6,1,B|82:262|65:388|65:388|113:270|210:265,1,405,2|0,3:2|2:0,0:0:0:0:
120,182,350922,1,8,3:2:0:0:
274,316,351049,1,6,0:0:0:0:
403,17,351176,6,1,B|398:40|398:40|394:44|394:44|382:109|382:109|385:113|385:113|381:136|381:136|457:245|457:245|453:272|453:272|456:276|456:276|446:330|446:330|441:337|441:337|436:368,1,384.749989726067,10|0,3:2|0:0,0:0:0:0:
357,348,351430,2,1,B|362:318|362:318|359:310|359:310|369:256|369:256|373:253|373:253|378:226|378:226|486:150|486:150|490:127|490:127|495:124|495:124|506:58|506:58|503:54|503:54|508:29,1,384.749989726067,8|0,3:3|0:0,0:0:0:0:
510,11,351684,1,4,3:3:0:0:
510,11,351939,5,8,3:2:0:0:
308,179,352066,1,4,0:0:0:0:
189,42,352193,5,2,3:2:0:0:
232,7,352278,1,0,0:0:0:0:
274,17,352362,1,0,0:0:0:0:
288,28,352447,1,8,3:2:0:0:
300,62,352532,1,0,0:0:0:0:
278,108,352617,1,0,0:0:0:0:
182,155,352701,6,1,B|136:143|136:143|38:199|38:199|181:238|181:238|186:235|186:235|271:258|271:258|274:263|274:263|355:284,1,485.999985168458,2|0,3:2|0:0,0:0:0:0:
495,308,352956,6,1,B|534:334|534:334|410:301,1,161.999995056153,8|0,3:3|2:0,0:0:0:0:
232,296,353083,2,1,B|220:248|220:248|256:211,1,101.25,8|0,0:2|2:0,0:0:0:0:
430,133,353210,1,8,3:3:0:0:
424,149,353273,1,0,0:0:0:0:
422,160,353337,2,1,L|404:225,1,67.5,0|0,3:3|0:0,0:0:0:0:
374,360,353464,5,8,3:3:0:0:
333,163,353591,1,2,3:1:0:0:
148,329,353718,2,1,B|117:260|56:259|56:259|147:142|257:211,1,354.375003379583,4|0,3:3|2:0,0:0:0:0:
354,31,353972,5,10,3:2:0:0:
370,18,354036,1,0,0:0:0:0:
397,16,354100,1,6,0:0:0:0:
438,39,354163,1,0,0:0:0:0:
459,92,354227,1,2,3:2:0:0:
438,144,354290,1,0,0:0:0:0:
390,173,354354,1,4,0:2:0:0:
337,157,354417,1,0,0:0:0:0:
292,123,354481,2,1,B|213:109|213:109|210:122,1,94.4999971160889,8|0,3:3|1:0,0:0:0:0:
0,66,354608,2,1,B|78:52|78:52|81:65,1,94.4999971160889,0|0,1:0|1:0,0:0:0:0:
262,27,354735,6,1,P|88:107|89:299,1,405,4|0,3:3|2:0,0:0:0:0:
122,367,354989,1,10,3:2:0:0:
133,374,355074,2,1,P|174:387|213:366,1,90,0|0,0:0|0:0,0:0:0:0:
153,228,355244,1,2,3:2:0:0:
166,227,355329,2,1,P|208:236|231:274,1,90,0|0,0:0|0:0,0:0:0:0:
317,349,355498,2,1,L|165:307,2,157.500001502037,8|0|0,3:3|0:0|0:0,0:0:0:0:
512,197,355752,6,1,B|532:119|532:119|477:99|471:37|471:37|446:137|446:137|441:140|441:140|422:210|422:210|425:215|425:215|403:294,1,455.625017380715,4|0,3:3|0:0,0:0:0:0:
473,383,356006,5,8,3:3:0:0:
478,360,356070,1,0,1:0:0:0:
484,337,356133,1,0,1:0:0:0:
490,316,356197,1,0,1:0:0:0:
403,291,356261,1,0,3:3:0:0:
400,279,356325,1,2,1:0:0:0:
397,267,356388,1,2,1:0:0:0:
394,256,356452,1,2,1:0:0:0:
443,174,356515,5,8,3:3:0:0:
433,124,356578,1,2,1:3:0:0:
386,102,356642,1,2,1:3:0:0:
337,116,356706,1,2,1:3:0:0:
293,146,356769,6,1,B|277:161|277:161|298:239,1,101.250003862381,0|0,3:0|0:0,0:0:0:0:
64,302,356896,2,1,B|43:295|43:295|22:218,1,101.250003862381,2|0,0:0|0:0,0:0:0:0:
151,83,357023,2,1,B|161:56|161:56|135:26|135:26|128:65|128:65|151:83,1,135,8|0,3:0|0:0,0:0:0:0:
212,336,357150,2,1,B|201:362|201:362|227:392|227:392|234:353|234:353|212:336,1,135,0|0,1:0|0:0,0:0:0:0:
209,133,357278,5,10,3:0:0:0:
175,203,357362,1,8,3:0:0:0:
143,276,357447,1,8,3:0:0:0:
111,160,357532,5,10,3:0:0:0:
175,203,357616,1,8,3:0:0:0:
239,250,357701,1,8,3:0:0:0:
283,172,357786,6,1,B|365:111|419:230|372:276|439:432|538:325,1,350.999983932496,4|10,3:0|3:2,0:0:0:0:
239,250,358167,5,0,0:0:0:0:
233,261,358231,1,0,0:0:0:0:
227,273,358294,2,1,L|243:366,2,90,0|0|0,3:0|0:0|0:0,0:0:0:0:
492,262,358549,2,1,L|476:169,2,90,10|0|0,3:2|0:0|0:0,0:0:0:0:
317,256,358803,2,1,L|333:349,2,90,4|0|0,3:0|0:0|0:0,0:0:0:0:
307,238,359057,5,10,3:2:0:0:
284,197,359121,1,0,0:0:0:0:
258,180,359184,1,6,0:0:0:0:
240,174,359248,1,0,0:0:0:0:
225,176,359311,6,1,B|189:187|189:187|175:186|175:186|79:214|79:214|135:246|135:246|139:252|139:252|214:295|214:295|273:34|273:34,1,506.25,2|0,3:0|1:3,0:0:0:0:
104,39,359566,2,1,B|-6:70|-6:70|16:90|16:90|21:101|21:101|55:131|55:131|169:99|169:99|187:34|187:34|232:22|232:22|244:23|244:23|326:2,1,506.25,2|0,0:1|0:0,0:0:0:0:
475,100,359820,6,1,P|455:200|442:279,1,151.875005793572,4|0,3:0|2:0,0:0:0:0:
394,377,360074,5,10,3:2:0:0:
380,384,360138,1,0,0:0:0:0:
360,381,360201,1,6,0:0:0:0:
336,369,360265,1,0,0:0:0:0:
318,339,360328,5,0,3:0:0:0:
322,290,360392,1,0,0:0:0:0:
364,241,360456,1,4,0:0:0:0:
440,243,360519,1,0,0:0:0:0:
486,309,360583,6,1,B|496:336|496:336|491:365,1,50.6250019311906,8|8,3:2|0:2,0:0:0:0:
296,153,360710,2,1,B|286:126|286:126|291:97,1,50.6250019311906,0|2,1:2|1:1,0:0:0:0:
509,0,360837,6,1,P|519:60|440:109,1,151.875005793572,4|0,3:0|2:0,0:0:0:0:
290,105,361091,5,10,3:2:0:0:
259,111,361155,1,0,0:0:0:0:
227,119,361218,1,6,0:0:0:0:
18,246,361345,5,0,3:0:0:0:
40,250,361409,1,0,0:0:0:0:
64,256,361472,1,4,3:2:0:0:
86,259,361537,1,0,0:0:0:0:
110,265,361600,1,8,3:2:0:0:
329,89,361727,5,4,3:2:0:0:
269,100,361791,1,0,3:2:0:0:
208,115,361854,2,1,L|92:147,1,80.9999975280763,4|0,3:0|0:0,0:0:0:0:
434,56,361981,2,1,L|550:24,1,80.9999975280763,8|0,3:2|0:0,0:0:0:0:
312,159,362108,2,1,L|280:275,1,80.9999975280763,4|0,3:2|0:0,0:0:0:0:
270,306,362362,6,1,L|238:422,1,80.9999975280763,8|0,3:2|0:0,0:0:0:0:
512,214,362489,2,1,L|396:246,1,80.9999975280763,4|0,3:2|0:0,0:0:0:0:
84,326,362744,6,1,L|-32:358,1,80.9999975280763,8|0,3:2|0:0,0:0:0:0:
248,384,362871,2,1,L|280:268,1,80.9999975280763,4|0,3:2|0:0,0:0:0:0:
329,89,363125,2,1,L|361:-27,1,80.9999975280763,8|0,3:2|0:0,0:0:0:0:
111,222,363252,2,1,L|227:190,1,80.9999975280763,4|0,3:2|0:0,0:0:0:0:
434,137,363506,2,1,L|550:105,1,80.9999975280763,8|0,3:2|0:0,0:0:0:0:
269,305,363633,2,1,L|237:421,1,80.9999975280763,4|0,3:2|0:0,0:0:0:0:
386,58,363761,1,2,0:0:0:0:
401,51,363824,1,0,0:0:0:0:
418,47,363888,6,1,P|472:46|503:81,1,80.9999975280763,8|0,3:2|0:0,0:0:0:0:
376,194,364015,2,1,P|348:146|363:102,1,80.9999975280763,4|0,3:2|0:0,0:0:0:0:
512,157,364142,2,1,P|484:204|339:122,1,242.999992584229,8|0,3:2|0:0,0:0:0:0:
275,45,364396,6,1,P|276:99|241:130,1,80.9999975280763,8|0,3:2|0:0,0:0:0:0:
27,53,364523,2,1,P|55:6|200:88,1,242.999992584229,4|0,3:2|0:0,0:0:0:0:
244,280,364778,6,1,P|190:281|159:246,1,80.9999975280763,4|0,3:2|0:0,0:0:0:0:
260,118,364905,2,1,P|307:146|225:291,1,242.999992584229,8|0,3:2|0:0,0:0:0:0:
184,145,365159,6,1,P|230:117|274:131,1,80.9999975280763,12|0,3:2|0:0,0:0:0:0:
512,266,365286,2,1,P|484:313|339:231,1,242.999992584229,8|0,3:2|0:0,0:0:0:0:
408,44,365540,5,0,0:0:0:0:
416,25,365604,1,0,0:0:0:0:
424,8,365667,5,8,0:2:0:0:
463,9,365731,1,0,0:0:0:0:
511,31,365794,1,0,0:0:0:0:
512,89,365858,1,0,0:0:0:0:
462,126,365922,6,1,P|410:137|384:194,1,118.125001126528,4|0,3:0|2:0,0:0:0:0:
255,291,366049,2,1,P|142:303|68:216,1,236.250002253056,4|8,3:0|0:0,0:0:0:0:
58,52,366303,1,0,0:0:0:0:
30,142,366430,5,8,0:1:0:0:
45,137,366494,1,0,0:0:0:0:
60,133,366557,1,0,0:0:0:0:
76,129,366621,1,0,0:0:0:0:
91,125,366684,1,8,0:3:0:0:
165,106,366811,1,0,0:0:0:0:
146,202,366939,5,8,0:0:0:0:
161,197,367003,1,0,0:0:0:0:
176,193,367066,1,0,0:0:0:0:
192,189,367130,1,0,0:0:0:0:
207,185,367193,1,8,0:3:0:0:
365,281,367448,5,8,0:1:0:0:
380,277,367511,1,0,0:0:0:0:
396,273,367575,1,0,0:0:0:0:
411,269,367638,1,0,0:0:0:0:
426,264,367702,1,8,0:3:0:0:
455,244,367765,1,0,0:0:0:0:
473,196,367828,1,0,0:0:0:0:
447,143,367892,1,0,0:0:0:0:
400,117,367956,6,1,P|353:129|320:187,1,118.125001126528,4|0,3:0|2:0,0:0:0:0:
235,281,368083,2,1,P|293:180|282:64,1,236.250002253056,4|8,3:0|0:0,0:0:0:0:
137,17,368337,2,1,L|94:5,2,43.874997991562,0|0|0,0:0|0:0|0:0,0:0:0:0:
218,0,368464,5,8,0:1:0:0:
197,77,368591,1,0,0:0:0:0:
176,154,368718,1,8,0:3:0:0:
155,230,368845,2,1,L|143:272,2,43.874997991562,0|0|0,0:0|0:0|0:0,0:0:0:0:
137,17,368972,5,8,0:0:0:0:
116,94,369099,1,0,0:0:0:0:
95,171,369226,1,8,0:3:0:0:
74,247,369353,2,1,L|62:289,2,43.874997991562,0|0|0,0:0|0:0|0:0,0:0:0:0:
51,42,369481,5,8,0:1:0:0:
45,61,369544,2,1,L|33:103,4,43.874997991562,0|0|0|0|0,0:0|0:0|0:0|0:0|0:0,0:0:0:0:
280,173,369735,1,8,0:3:0:0:
265,186,369799,2,1,L|233:216,4,43.874997991562,0|0|0|0|0,0:0|0:0|0:0|0:0|0:0,0:0:0:0:
339,384,369989,6,1,P|307:326|239:326,1,135,4|0,3:0|2:0,0:0:0:0:
163,323,370117,2,1,L|441:266,1,270,4|8,3:0|0:0,0:0:0:0:
448,265,370307,1,0,0:0:0:0:
461,262,370371,1,0,0:0:0:0:
442,163,370498,5,8,0:1:0:0:
425,166,370561,1,0,0:0:0:0:
406,171,370625,2,1,L|363:182,2,43.874997991562,0|0|0,0:0|0:0|0:0,0:0:0:0:
411,81,370752,1,8,0:3:0:0:
393,0,370879,1,0,0:0:0:0:
364,262,371006,5,8,0:0:0:0:
343,188,371133,1,0,0:0:0:0:
322,114,371261,1,8,0:3:0:0:
303,40,371388,1,0,0:0:0:0:
271,258,371515,5,8,0:1:0:0:
275,269,371578,2,1,L|286:311,4,43.874997991562,0|0|0|0|0,0:0|0:0|0:0|0:0|0:0,0:0:0:0:
229,103,371769,1,8,0:3:0:0:
234,118,371833,2,1,L|249:175,4,59.0625005632639,0|0|0|0|0,0:0|0:0|0:0|0:0|0:0,0:0:0:0:
79,323,372023,6,1,P|58:312|46:292,1,47.2499985580445,4|0,3:0|0:0,0:0:0:0:
159,196,372150,2,1,P|133:153|146:102,1,101.250003862381,4|0,3:0|0:0,0:0:0:0:
336,97,372278,2,1,P|344:39|406:0,6,118.125001126528,8|0|0|0|0|0|0,3:2|0:0|0:0|0:0|0:0|0:0|0:0,0:0:0:0:
447,177,372532,6,1,P|447:131|416:97,1,87.749995983124,4|0,3:0|0:0,0:0:0:0:
343,214,372659,2,1,P|305:170|248:174,6,118.125001126528,4|0|0|0|0|0|0,3:0|0:0|0:0|0:0|0:0|0:0|0:0,0:0:0:0:
258,336,372913,6,1,P|253:293|281:261,1,87.749995983124,4|0,3:0|0:0,0:0:0:0:
463,267,373040,2,1,P|404:271|373:321,6,118.125001126528,4|0|0|0|0|0|0,3:0|0:0|0:0|0:0|0:0|0:0|0:0,0:0:0:0:
500,376,373294,6,1,P|468:351|431:350,1,67.5,4|0,3:0|0:0,0:0:0:0:
326,382,373422,1,4,3:0:0:0:
282,377,373485,1,0,0:0:0:0:
258,336,373549,1,0,0:0:0:0:
281,259,373676,1,8,0:1:0:0:
29,328,373803,1,12,0:3:0:0:
178,364,373930,1,0,0:0:0:0:
136,227,374057,6,1,P|135:153|197:124,1,135,4|0,3:0|2:0,0:0:0:0:
194,125,374248,6,1,L|259:135,1,33.75,8|0,3:2|2:0,0:0:0:0:
239,134,374439,2,1,L|304:144,1,33.75,8|0,3:2|2:0,0:0:0:0:
315,151,374629,2,1,L|380:161,1,33.75,8|0,3:2|2:0,0:0:0:0:
429,174,374820,2,1,L|494:184,1,33.75,8|0,3:2|2:0,0:0:0:0:
211,222,374947,1,8,3:2:0:0:
201,229,375011,1,8,3:2:0:0:
192,236,375074,6,1,L|127:246,1,33.75,8|0,3:2|2:0,0:0:0:0:
28,263,375265,2,1,L|93:253,1,33.75,8|0,3:2|2:0,0:0:0:0:
125,349,375456,2,1,L|115:284,1,33.75,8|0,3:2|2:0,0:0:0:0:
94,145,375646,2,1,L|104:210,1,33.75,8|0,3:2|2:0,0:0:0:0:
136,384,375837,2,1,L|126:319,1,33.75,8|0,3:2|2:0,0:0:0:0:
217,97,375964,5,8,3:2:0:0:
226,88,376028,1,8,3:2:0:0:
236,77,376091,6,1,L|301:67,2,33.75,8|0|0,0:2|0:0|0:0,0:0:0:0:
424,136,376282,2,1,L|359:126,2,33.75,8|0|0,0:2|0:0|0:0,0:0:0:0:
192,236,376472,2,1,L|257:226,2,33.75,8|0|0,0:2|0:0|0:0,0:0:0:0:
471,310,376663,2,1,L|406:300,2,33.75,8|0|0,0:2|0:0|0:0,0:0:0:0:
136,384,376854,2,1,L|201:374,1,33.75,8|0,0:2|0:0,0:0:0:0:
315,252,376981,5,8,0:2:0:0:
317,240,377044,1,8,0:2:0:0:
320,227,377108,5,8,0:2:0:0:
324,210,377172,2,1,L|336:153,1,33.75,0|0,0:0|0:0,0:0:0:0:
220,129,377299,5,8,0:2:0:0:
216,112,377363,2,1,L|204:55,1,33.75,0|0,0:0|0:0,0:0:0:0:
399,251,377489,5,8,0:2:0:0:
403,234,377553,2,1,L|415:177,1,33.75,0|0,0:0|0:0,0:0:0:0:
144,147,377680,5,8,0:2:0:0:
140,130,377744,2,1,L|133:96,1,33.75,0|0,0:0|0:0,0:0:0:0:
484,257,377871,6,1,L|496:200,1,33.75,8|0,0:2|0:0,0:0:0:0:
393,78,377998,5,8,0:2:0:0:
389,66,378061,1,8,0:2:0:0:
384,55,378125,5,12,3:2:0:0:
353,39,378189,1,8,3:2:0:0:
319,43,378252,1,8,3:2:0:0:
298,70,378316,1,8,3:2:0:0:
296,103,378379,1,12,3:2:0:0:
316,130,378443,1,8,3:2:0:0:
348,138,378506,1,8,3:2:0:0:
380,128,378570,1,8,3:2:0:0:
413,130,378633,5,12,3:2:0:0:
441,154,378697,1,8,3:2:0:0:
454,188,378761,1,8,3:2:0:0:
443,223,378824,1,8,3:2:0:0:
410,241,378888,1,12,3:2:0:0:
373,240,378951,1,8,3:2:0:0:
343,217,379015,1,8,3:2:0:0:
334,181,379078,1,8,3:2:0:0:
347,145,379142,5,12,3:2:0:0:
329,108,379206,1,8,3:2:0:0:
290,95,379269,1,8,3:2:0:0:
253,112,379333,1,8,3:2:0:0:
240,150,379396,1,12,3:2:0:0:
208,176,379460,1,8,3:2:0:0:
167,176,379523,1,8,3:2:0:0:
130,157,379587,1,8,3:2:0:0:
118,118,379650,5,12,3:2:0:0:
138,74,379714,1,8,3:2:0:0:
184,63,379778,1,8,3:2:0:0:
224,85,379841,1,8,3:2:0:0:
230,132,379905,1,12,3:2:0:0:
207,172,379968,1,8,3:2:0:0:
222,216,380032,1,8,3:2:0:0:
261,241,380095,1,8,3:2:0:0:
305,223,380159,6,1,L|312:181,3,33.75,4|0|0|2,3:0|0:0|0:0|0:0,0:0:0:0:
315,150,380413,2,1,L|322:108,3,27,0|2|2|2,0:0|0:0|0:1|0:0,0:0:0:0:
324,101,380667,2,1,L|329:67,3,20.2499993820191,2|2|0|2,0:0|0:3|0:0|0:1,0:0:0:0:
330,65,380922,2,1,L|333:43,3,13.5,2|2|2|2,0:2|0:2|0:2|0:2,0:0:0:0:
335,42,381176,6,1,L|336:31,3,6.75,2|0|0|0,0:3|0:0|0:0|0:0,0:0:0:0:
398,128,381430,2,1,L|414:92,3,20.2499993820191,2|0|0|0,0:3|0:0|0:0|0:0,0:0:0:0:
207,172,381684,2,1,L|201:138,3,33.75,2|0|0|0,0:3|0:0|0:0|0:0,0:0:0:0:
394,321,381939,2,1,L|422:258,3,50.6250019311906,8|0|0|0,0:2|0:0|0:0|0:0,0:0:0:0:
130,323,382193,6,1,B|102:346|102:346|46:341|46:341|1:379|1:379|46:341|46:341|51:286|51:286|81:261,1,303.750011587143,4|0,3:2|0:0,0:0:0:0:
393,55,382447,2,1,B|420:31|420:31|476:36|476:36|521:-1|521:-1|476:36|476:36|471:91|471:91|441:116,1,303.750011587143,0|0,1:2|1:2,0:0:0:0:
157,221,382701,6,1,L|210:207,1,54,6|0,3:0|2:0,0:0:0:0:
381,162,382892,2,1,L|302:183,1,81,4|6,3:0|3:0,0:0:0:0:
141,195,383210,6,1,L|201:195,1,60.7499981460572,6|0,3:0|2:0,0:0:0:0:
400,195,383401,2,1,L|309:195,1,91.1249972190858,4|6,3:0|3:0,0:0:0:0:
130,162,383718,6,1,L|195:180,1,67.5,6|0,3:0|0:0,0:0:0:0:
411,238,383909,2,1,L|312:211,1,101.25,4|6,3:0|3:0,0:0:0:0:
121,110,384227,6,1,L|192:151,1,80.9999975280763,6|8,3:0|3:2,0:0:0:0:
257,192,384417,2,1,L|328:233,1,80.9999975280763,6|8,3:0|3:2,0:0:0:0:
395,273,384608,1,6,3:0:0:0:
393,329,384735,6,1,L|322:258,1,101.250003862381,6|8,3:0|3:2,0:0:0:0:
257,192,384926,2,1,L|186:121,1,101.250003862381,6|8,3:0|3:2,0:0:0:0:
129,65,385117,1,6,3:0:0:0:
155,15,385244,6,1,L|221:130,1,121.499996292114,6|8,3:0|3:2,0:0:0:0:
257,192,385435,2,1,L|317:297,1,121.499996292114,6|8,3:0|3:2,0:0:0:0:
366,376,385625,1,6,3:0:0:0:
442,163,385752,6,1,B|455:113|455:113|409:35|409:35|449:31|472:-14|472:-14|426:160,1,405,6|0,3:0|0:0,0:0:0:0:
416,236,386006,1,0,3:0:0:0:
412,253,386070,1,0,3:0:0:0:
408,268,386133,2,1,L|399:300,2,33.75,8|0|0,3:2|0:0|3:0,0:0:0:0:
194,147,386261,6,1,B|147:138|147:138|106:84|106:84|42:100|42:100|173:128,1,303.750011587143,4|0,3:0|0:0,0:0:0:0:
154,293,386515,6,1,B|108:277|108:277|46:303|46:303|-1:257|-1:257|126:298,1,303.750011587143,4|0,3:0|1:1,0:0:0:0:
79,196,386769,2,1,L|171:220,1,67.5,6|0,3:0|2:0,0:0:0:0:
222,233,386960,2,1,L|327:261,1,101.25,4|6,3:0|3:0,0:0:0:0:
78,151,387278,6,1,L|171:205,1,80.9999975280763,6|0,3:0|2:0,0:0:0:0:
222,233,387469,2,1,L|338:300,1,121.499996292114,4|6,3:0|3:0,0:0:0:0:
85,98,387786,6,1,L|173:186,1,101.250003862381,6|0,3:0|0:0,0:0:0:0:
222,233,387977,2,1,L|340:351,1,151.875005793572,4|6,3:0|3:0,0:0:0:0:
116,51,388294,6,1,L|185:170,1,121.499996292114,6|8,3:0|3:2,0:0:0:0:
282,338,388485,2,1,L|212:218,1,121.499996292114,6|8,3:0|3:2,0:0:0:0:
181,162,388676,1,6,3:0:0:0:
206,10,388803,6,1,L|218:155,1,135,6|8,3:0|3:2,0:0:0:0:
233,367,388994,2,1,L|220:221,1,135,6|8,3:0|3:2,0:0:0:0:
218,145,389185,1,6,3:0:0:0:
263,0,389311,6,1,L|236:152,1,148.50000453186,6|8,3:0|3:2,0:0:0:0:
195,378,389502,2,1,L|221:225,1,148.50000453186,6|8,3:0|3:2,0:0:0:0:
237,140,389693,1,6,3:0:0:0:
407,169,389820,6,1,L|440:173,1,20.2499993820191,6|0,3:0|0:0,0:0:0:0:
488,227,389947,2,1,B|488:229|488:229|516:193|516:193|510:146|510:146|506:151,1,101.250003862381,0|0,1:0|0:0,0:0:0:0:
442,86,390074,1,0,3:0:0:0:
438,69,390138,1,0,3:0:0:0:
434,54,390201,2,1,L|425:22,2,33.75,8|0|0,3:2|0:0|3:0,0:0:0:0:
56,244,390328,6,1,B|42:252|42:252|42:256|42:256|-6:284|-6:284|-11:283|-11:283|-22:290|-22:290|11:349|11:349|58:362|58:362|121:312|121:312|114:300|114:300|109:298|109:298|51:202|51:202|53:197|53:197|41:175|41:175|49:144|49:144|54:141|54:141|73:72|73:72|70:67|70:67|86:5|86:5|102:9|102:9|155:56|155:56|143:103,1,756,4|0,3:0|0:0,0:0:0:0:
191,278,390837,6,1,L|208:212,1,67.5,6|0,3:0|2:0,0:0:0:0:
265,0,391028,2,1,L|247:65,1,67.5,6|0,3:0|2:0,0:0:0:0:
228,138,391218,1,6,3:0:0:0:
203,301,391345,6,1,L|246:225,1,87.749995983124,6|0,3:0|2:0,0:0:0:0:
378,0,391536,2,1,L|334:75,1,87.749995983124,6|0,3:0|2:0,0:0:0:0:
284,151,391726,1,6,3:0:0:0:
208,324,391854,6,1,L|283:247,1,108,6|0,3:0|0:0,0:0:0:0:
512,19,392045,2,1,L|436:95,1,108,6|0,3:0|0:0,0:0:0:0:
353,170,392235,1,6,3:0:0:0:
153,356,392362,6,1,L|208:323,1,64.1249982876778,6|0,3:0|0:0,0:0:0:0:
276,289,392489,1,0,1:0:0:0:
292,282,392553,2,1,L|347:249,1,64.1249982876778,6|8,3:0|3:0,0:0:0:0:
418,209,392680,1,0,1:0:0:0:
434,202,392744,2,1,L|489:169,1,64.1249982876778,6|0,3:0|0:0,0:0:0:0:
60,215,392871,6,1,L|119:192,1,64.1249982876778,6|0,3:0|0:0,0:0:0:0:
190,169,392998,1,0,1:0:0:0:
208,163,393062,2,1,L|267:140,1,64.1249982876778,6|8,3:0|3:0,0:0:0:0:
345,113,393189,1,0,1:0:0:0:
362,110,393253,2,1,L|421:87,1,64.1249982876778,6|0,3:0|0:0,0:0:0:0:
22,1,393379,6,1,L|86:0,1,64.1249982876778,6|0,3:0|0:0,0:0:0:0:
160,2,393506,1,0,1:0:0:0:
178,3,393570,2,1,L|242:1,1,64.1249982876778,6|8,3:0|3:0,0:0:0:0:
324,3,393697,1,0,1:0:0:0:
341,5,393761,2,1,L|405:3,1,64.1249982876778,6|0,3:0|0:0,0:0:0:0:
497,7,393888,5,4,3:0:0:0:
505,0,393951,1,0,1:0:0:0:
508,15,394015,1,0,1:0:0:0:
497,18,394078,1,0,1:0:0:0:
502,10,394142,2,1,L|492:78,1,64.1249982876778,8|0,3:0|3:0,0:0:0:0:
478,182,394269,2,1,L|482:150,2,32.0624991438389,0|0|0,3:0|3:0|3:0,0:0:0:0:
430,323,394396,6,1,B|491:366|527:285|500:212|405:174|316:231|314:323,1,354.375003379583,4|0,3:0|0:0,0:0:0:0:
303,321,394650,2,1,B|316:182|446:177|512:223|526:274|517:354|475:369|403:323,1,405,12|0,3:3|0:0,0:0:0:0:
285,329,394905,6,1,L|131:294,1,135,6|0,3:0|2:0,0:0:0:0:
13,277,395095,2,1,L|167:312,1,135,6|0,3:0|2:0,0:0:0:0:
372,353,395286,1,6,3:0:0:0:
303,321,395413,6,1,L|163:247,1,148.50000453186,6|0,3:0|2:0,0:0:0:0:
31,185,395603,2,1,L|170:258,1,148.50000453186,6|0,3:0|2:0,0:0:0:0:
380,366,395794,1,6,3:0:0:0:
327,316,395922,6,1,L|188:187,1,161.999995056153,6|0,3:0|0:0,0:0:0:0:
79,98,396112,2,1,L|204:214,1,161.999995056153,6|0,3:0|0:0,0:0:0:0:
390,380,396303,1,6,3:0:0:0:
189,65,396430,6,1,L|280:209,1,87.749995983124,8|0,3:3|0:0,0:0:0:0:
323,299,396557,1,8,3:3:0:0:
338,306,396621,2,1,L|246:161,1,87.749995983124,2|0,3:3|1:0,0:0:0:0:
216,75,396748,1,8,3:3:0:0:
201,68,396812,2,1,L|292:212,1,87.749995983124,2|0,3:3|0:0,0:0:0:0:
336,13,396939,6,1,L|386:176,1,87.749995983124,8|0,3:3|0:0,0:0:0:0:
404,273,397066,1,8,3:3:0:0:
417,284,397130,2,1,L|366:120,1,87.749995983124,2|0,3:3|1:0,0:0:0:0:
359,29,397257,1,8,3:3:0:0:
346,19,397321,2,1,L|396:182,1,87.749995983124,2|0,3:3|0:0,0:0:0:0:
494,0,397447,6,1,L|500:171,1,87.749995983124,8|0,3:3|0:0,0:0:0:0:
492,268,397574,1,8,3:3:0:0:
502,282,397638,2,1,L|495:110,1,87.749995983124,2|0,3:3|1:0,0:0:0:0:
512,21,397765,1,8,3:3:0:0:
502,8,397829,2,1,L|508:179,1,87.749995983124,2|0,3:3|0:0,0:0:0:0:
416,257,397956,6,1,P|390:282|329:278,1,87.749995983124,8|0,3:0|0:0,0:0:0:0:
249,380,398083,2,1,P|214:369|187:315,1,87.749995983124,0|0,1:0|1:0,0:0:0:0:
52,310,398210,5,0,3:0:0:0:
44,267,398273,1,0,3:0:0:0:
66,231,398337,2,1,L|119:222,2,43.874997991562,0|0|0,3:0|0:0|3:0,0:0:0:0:
0,77,398464,6,1,P|134:75|209:178,1,270.000010299683,4|0,3:0|2:0,0:0:0:0:
249,380,398718,1,12,0:2:0:0:
512,77,398845,6,1,P|377:75|302:178,1,270.000010299683,4|0,3:0|2:0,0:0:0:0:
249,380,399100,1,12,0:2:0:0:
256,2,399227,6,1,L|256:74,1,72,4|0,3:0|2:0,0:0:0:0:
0,354,399481,6,1,P|134:355|209:252,1,270.000010299683,4|0,3:0|2:0,0:0:0:0:
256,2,399735,1,10,0:2:0:0:
512,355,399862,6,1,P|377:356|302:253,1,270.000010299683,4|0,3:0|2:0,0:0:0:0:
256,2,400117,1,10,0:2:0:0:
250,381,400244,1,4,3:0:0:0:
256,86,400371,1,0,0:0:0:0:
14,192,400498,6,1,P|48:93|37:198,1,303.750011587143,4|0,3:0|0:0,0:0:0:0:
12,273,400752,1,14,0:2:0:0:
496,192,400879,6,1,P|461:93|472:198,1,303.750011587143,4|0,3:0|0:0,0:0:0:0:
498,273,401133,1,14,0:2:0:0:
48,112,401261,5,4,3:0:0:0:
464,113,401388,1,0,0:0:0:0:
209,231,401515,6,1,L|200:200,5,27,2|0|0|0|0|0,0:0|0:0|0:0|0:0|0:0|0:0,0:0:0:0:
304,231,401896,6,1,L|312:200,5,27,2|0|0|0|0|0,0:0|0:0|0:0|0:0|0:0|0:0,0:0:0:0:
256,0,402278,6,1,L|256:80,1,72,10|0,0:0|2:0,0:0:0:0:
254,281,402532,5,14,3:0:0:0:
299,315,402595,1,10,3:0:0:0:
356,309,402659,1,10,3:0:0:0:
381,258,402722,1,10,3:0:0:0:
364,203,402786,1,14,3:0:0:0:
308,187,402850,1,10,3:0:0:0:
282,136,402913,1,10,3:0:0:0:
303,82,402977,1,10,3:0:0:0:
359,75,403040,5,14,3:0:0:0:
403,113,403104,1,10,3:0:0:0:
400,169,403167,1,10,3:0:0:0:
356,207,403231,1,10,3:0:0:0:
301,194,403294,1,14,3:0:0:0:
271,145,403358,1,10,3:0:0:0:
213,138,403422,1,10,3:0:0:0:
174,179,403485,1,10,3:0:0:0:
189,235,403549,5,14,3:0:0:0:
147,273,403612,1,10,3:0:0:0:
91,257,403676,1,10,3:0:0:0:
82,200,403739,1,10,3:0:0:0:
124,160,403803,1,14,3:0:0:0:
180,176,403867,1,10,3:0:0:0:
194,230,403930,1,10,3:0:0:0:
245,256,403994,1,10,3:0:0:0:
299,240,404057,5,14,3:0:0:0:
319,185,404121,1,10,3:0:0:0:
296,133,404184,1,10,3:0:0:0:
319,80,404248,1,10,3:0:0:0:
378,67,404311,1,14,3:0:0:0:
421,105,404375,1,10,3:0:0:0:
423,163,404439,1,10,3:0:0:0:
376,197,404502,1,10,3:0:0:0:
318,192,404566,5,14,3:0:0:0:
292,141,404629,1,10,3:0:0:0:
234,141,404693,1,10,3:0:0:0:
210,193,404756,1,10,3:0:0:0:
240,242,404820,1,14,3:0:0:0:
240,298,404883,1,10,3:0:0:0:
190,327,404947,1,10,3:0:0:0:
134,308,405011,1,10,3:0:0:0:
120,253,405074,5,14,3:0:0:0:
145,201,405138,1,10,3:0:0:0:
201,196,405201,1,10,3:0:0:0:
231,245,405265,1,10,3:0:0:0:
287,254,405328,1,14,3:0:0:0:
324,210,405392,1,10,3:0:0:0:
319,153,405456,1,10,3:0:0:0:
270,124,405519,1,10,3:0:0:0:
215,143,405583,5,14,3:0:0:0:
193,195,405646,1,10,3:0:0:0:
135,204,405710,1,10,3:0:0:0:
99,159,405773,1,10,3:0:0:0:
118,104,405837,1,14,3:0:0:0:
174,94,405900,1,10,3:0:0:0:
215,135,405964,1,10,3:0:0:0:
190,187,406028,1,10,3:0:0:0:
214,238,406091,5,14,3:0:0:0:
268,256,406155,1,10,3:0:0:0:
315,223,406218,1,10,3:0:0:0:
324,166,406282,1,10,3:0:0:0:
292,118,406345,1,14,3:0:0:0:
306,62,406409,1,10,3:0:0:0:
361,50,406472,1,10,3:0:0:0:
399,92,406536,1,10,3:0:0:0:
393,149,406600,1,4,3:3:0:0:
259,184,406769,5,0,0:0:0:0:
272,196,406854,2,1,L|290:255,2,36,0|0|0,0:0|0:0|0:0,0:0:0:0:
388,315,407108,2,1,L|327:301,2,36,2|0|0,0:0|0:0|0:0,0:0:0:0:
230,353,407362,2,1,L|272:307,2,36,0|0|0,0:0|0:0|0:0,0:0:0:0:
369,208,407616,6,1,L|351:149,2,36,2|0|0,0:0|0:0|0:0,0:0:0:0:
292,112,407871,2,1,L|335:98,2,45,0|0|0,0:0|0:0|0:0,0:0:0:0:
394,27,408125,2,1,L|412:86,2,53.9999983520508,2|0|0,0:0|0:0|0:0,0:0:0:0:
500,133,408379,2,1,L|435:152,2,67.5000025749207,2|0|0,0:0|0:0|0:0,0:0:0:0:
128,159,408633,6,1,B|151:160|151:160|148:65|56:45|56:45|60:29|60:29|116:-3|253:28|283:156|159:351|159:351|126:233|-6:205|-6:205|162:98|320:233|280:284|288:260|261:303|299:399|458:439|544:318|466:263,1,1555.20003796875,4|0,3:1|0:0,0:0:0:0:
191,104,414756,6,1,P|185:125|186:142,1,33.75,2|0,0:3|2:0,0:0:0:0:
137,217,414936,2,1,P|152:232|167:240,1,33.75,2|0,0:3|2:0,0:0:0:0:
211,329,415117,2,1,P|232:323|246:314,1,33.75,6|0,0:3|2:0,0:0:0:0:
270,194,415297,2,1,P|264:215|265:232,1,33.75,0|0,0:0|2:0,0:0:0:0:
356,309,415478,2,1,P|345:296|331:288,1,33.75,2|0,0:2|2:0,0:0:0:0:
305,375,415659,1,0,0:0:0:0:
481,256,415839,6,1,P|485:238|490:218,1,33.75,2|0,0:2|2:0,0:0:0:0:
505,145,416020,2,1,P|509:127|514:107,1,33.75,2|0,0:2|2:0,0:0:0:0:
402,241,416201,6,1,P|406:223|411:203,1,33.75,2|0,0:1|2:0,0:0:0:0:
426,130,416382,2,1,P|430:112|435:92,1,33.75,2|0,0:0|2:0,0:0:0:0:
353,22,416562,6,1,P|359:42|356:63,1,34.4250002101135,2|0,0:3|2:0,0:0:0:0:
332,144,416924,2,1,P|317:159|297:167,1,34.4250002101135,2|0,0:2|2:0,0:0:0:0:
211,169,417285,2,1,P|190:164|173:151,1,34.4250002101135,2|0,0:2|2:0,0:0:0:0:
129,83,417647,2,1,P|123:63|126:42,1,34.4250002101135,2|0,0:2|2:0,0:0:0:0:
242,44,418008,6,1,P|246:62|251:82,1,33.75,2|0,0:1|2:0,0:0:0:0:
286,196,418189,2,1,P|290:214|295:234,1,33.75,0|0,0:0|2:0,0:0:0:0:
320,31,418370,6,1,P|324:49|329:69,1,33.75,2|0,0:2|2:0,0:0:0:0:
346,138,418551,2,1,P|350:156|355:176,1,33.75,0|0,0:0|2:0,0:0:0:0:
417,277,418731,6,1,P|414:256|425:236,1,33.75,2|0,0:2|2:0,0:0:0:0:
450,383,418912,2,1,P|436:366|436:343,1,33.75,2|0,0:2|2:0,0:0:0:0:
240,308,419092,6,1,P|220:300|208:280,1,33.75,2|0,0:1|2:0,0:0:0:0:
348,332,419273,2,1,P|327:335|307:323,1,33.75,2|0,0:0|2:0,0:0:0:0:
167,229,419454,6,1,P|156:215|155:195,1,34.4250002101135,2|0,0:3|2:0,0:0:0:0:
274,242,419815,2,1,P|289:232|296:214,1,34.4250002101135,2|0,0:2|2:0,0:0:0:0:
185,92,420177,2,1,P|169:101|162:119,1,34.4250002101135,2|0,0:2|2:0,0:0:0:0:
292,105,420538,2,1,P|302:118|303:138,1,34.4250002101135,2|0,0:2|2:0,0:0:0:0:
229,161,420900,6,1,L|222:210,1,33.75,2|0,0:3|2:0,0:0:0:0:
203,288,421080,1,0,0:0:0:0:
205,304,421171,2,1,L|195:375,1,67.5,2|0,0:2|2:0,0:0:0:0:
116,340,421442,2,1,L|120:305,1,34.4250002101135,2|0,0:2|2:0,0:0:0:0:
144,152,421803,6,1,L|139:186,1,33.75,2|0,0:2|2:0,0:0:0:0:
116,340,421984,2,1,L|120:305,1,34.4250002101135,2|0,0:2|2:0,0:0:0:0:
224,194,422345,6,1,L|253:182,1,22.9500001400757,2|0,0:3|2:0,0:0:0:0:
357,213,422617,2,1,L|331:193,1,22.9500001400757,2|0,0:2|2:0,0:0:0:0:
310,85,422888,2,1,L|304:120,1,34.4250002101135,2|0,0:2|2:0,0:0:0:0:
271,265,423249,6,1,P|276:278|300:286,1,33.75,2|0,0:2|2:0,0:0:0:0:
339,357,423430,2,1,P|353:358|372:342,1,33.75,2|0,0:2|2:0,0:0:0:0:
460,354,423610,2,1,P|468:342|463:317,1,33.75,2|0,0:3|2:0,0:0:0:0:
323,157,423791,6,1,P|314:168|319:193,1,33.75,2|0,0:3|2:0,0:0:0:0:
411,219,423972,1,0,0:0:0:0:
424,205,424062,2,1,P|432:193|427:168,1,33.75,2|0,0:2|2:0,0:0:0:0:
396,52,424333,6,1,L|390:87,1,33.75,2|0,0:2|2:0,0:0:0:0:
387,46,424514,2,1,L|381:81,1,33.75,2|0,0:3|2:0,0:0:0:0:
286,30,424785,2,1,L|280:65,1,33.75,2|0,0:2|2:0,0:0:0:0:
182,17,425056,2,1,L|176:52,1,34.4250002101135,2|0,0:2|2:0,0:0:0:0:
146,176,425237,6,1,P|137:164|142:139,1,33.75,2|0,0:3|2:0,0:0:0:0:
234,114,425418,1,0,0:0:0:0:
247,128,425508,2,1,P|255:139|250:164,1,33.75,2|0,0:2|2:0,0:0:0:0:
219,281,425779,6,1,L|213:245,1,33.75,2|0,0:2|2:0,0:0:0:0:
210,287,425960,2,1,L|204:251,1,33.75,2|0,0:3|2:0,0:0:0:0:
109,303,426231,2,1,L|103:267,1,33.75,2|0,0:2|2:0,0:0:0:0:
5,316,426502,2,1,L|0:280,1,33.75,2|0,0:2|2:0,0:0:0:0:
92,102,426683,6,1,P|106:88|121:83,1,33.75,2|0,0:1|2:0,0:0:0:0:
107,189,426863,2,1,P|124:197|140:196,1,33.75,0|0,0:0|2:0,0:0:0:0:
189,129,427044,2,1,L|239:120,1,33.75,2|0,0:2|2:0,0:0:0:0:
301,107,427225,2,1,L|351:98,1,33.75,2|0,0:3|2:0,0:0:0:0:
428,89,427406,6,1,P|443:88|466:96,1,34.4250002101135,2|0,0:3|2:0,0:0:0:0:
373,205,427767,2,1,P|364:192|360:168,1,34.4250002101135,2|0,0:2|2:0,0:0:0:0:
501,196,428129,2,1,P|494:209|475:225,1,34.4250002101135,2|0,0:3|2:0,0:0:0:0:
373,205,428490,6,1,P|358:204|335:212,1,34.4250002101135,2|0,0:2|2:0,0:0:0:0:
428,321,428851,2,1,P|436:308|440:284,1,34.4250002101135,2|0,0:2|2:0,0:0:0:0:
300,312,429213,2,1,P|306:325|325:341,1,34.4250002101135,2|0,0:2|2:0,0:0:0:0:
269,235,429574,6,1,L|218:226,1,33.75,2|0,0:3|2:0,0:0:0:0:
157,213,429755,2,1,L|106:204,1,33.75,0|0,0:0|2:0,0:0:0:0:
399,178,429936,2,1,L|348:169,1,33.75,2|0,0:2|2:0,0:0:0:0:
287,156,430117,2,1,L|236:147,1,33.75,2|0,0:2|2:0,0:0:0:0:
185,63,430297,6,1,L|144:55,1,34.4250002101135,2|0,0:2|2:0,0:0:0:0:
73,40,430659,2,1,L|32:32,1,34.4250002101135,2|0,0:2|2:0,0:0:0:0:
98,127,431020,6,1,P|113:142|143:150,1,45.9000002801514,2|0,0:3|0:0,0:0:0:0:
259,120,431562,2,1,P|238:125|216:147,1,45.9000002801514,2|0,0:2|2:0,0:0:0:0:
186,266,432104,2,1,P|191:245|183:215,1,50.625,2|0,0:2|2:0,0:0:0:0:
112,247,432466,5,2,0:3:0:0:
91,318,432646,1,0,0:0:0:0:
166,339,432827,1,0,0:0:0:0:
186,266,433008,1,2,0:2:0:0:
308,96,433550,5,2,0:1:0:0:
386,77,433731,1,2,0:2:0:0:
460,58,433911,5,2,0:3:0:0:
481,129,434122,1,0,0:0:0:0:
406,150,434333,1,0,0:0:0:0:
386,77,434544,1,2,0:2:0:0:
308,96,435178,5,2,0:1:0:0:
386,77,435389,1,2,0:2:0:0:
463,57,435601,5,2,0:1:0:0:
418,201,435868,1,2,0:1:0:0:
308,96,436136,1,2,0:2:0:0:
386,77,436404,5,2,0:1:0:0:
444,128,436671,1,2,0:1:0:0:
362,153,436939,1,2,0:2:0:0:
425,208,437208,5,2,0:1:0:0:
386,77,437476,1,2,0:3:0:0:
277,212,437743,5,2,0:1:0:0:
264,236,437859,1,2,0:2:0:0:
287,207,437975,1,2,0:3:0:0:
111,77,439138,5,2,0:3:0:0:
287,33,439836,5,2,0:2:0:0:
287,33,439894,2,1,L|277:67,4,36,2|2|0|2|2,0:2|0:2|0:0|0:1|0:2,0:0:0:0:
357,91,440184,5,2,0:2:0:0:
357,91,440242,2,1,L|366:125,4,36,2|2|2|2|2,0:2|0:2|0:2|0:2|0:2,0:0:0:0:
321,186,440533,5,2,0:3:0:0:
321,186,440606,2,1,B|355:241|527:294|622:208|566:47|460:29|398:101|397:169|431:194|456:159|450:298|362:364|210:386|29:284|32:69|176:35|176:35|137:87|167:157|181:145|196:135|255:210|205:328|121:368|121:368|30:402|-58:296|52:236|81:284,1,1620,0|0,0:0|2:0,0:0:0:0:
