osu file format v14

[General]
AudioFilename: tanga.ogg
AudioLeadIn: 0
PreviewTime: 26888
Countdown: 0
SampleSet: Normal
StackLeniency: 0.7
Mode: 1
LetterboxInBreaks: 0
WidescreenStoryboard: 1

[Editor]
DistanceSpacing: 0.85
BeatDivisor: 4
GridSize: 32
TimelineZoom: 1.7

[Metadata]
Title:mandarina
TitleUnicode:mandarina
Artist:trollocat
ArtistUnicode:trollocat
Creator:trollocat
Version:muzukashii
Source:
Tags:electronic english hip hop hip-hop tangerine beastie boys three mc's and one dj remix
BeatmapID:3496005
BeatmapSetID:1696856

[Difficulty]
HPDrainRate:7
CircleSize:5
OverallDifficulty:4.5
ApproachRate:5
SliderMultiplier:1.4
SliderTickRate:3

[Events]
//Background and Video events
0,0,"babby-pepa.jpg",0,0
//Break Periods
//Storyboard Layer 0 (Background)
//Storyboard Layer 1 (Fail)
//Storyboard Layer 2 (Pass)
//Storyboard Layer 3 (Foreground)
//Storyboard Layer 4 (Overlay)
//Storyboard Sound Samples

[TimingPoints]
2982,375,4,1,0,91,1,0
2982,-100,4,1,0,91,0,0
3169,-101.075241,4,1,0,91,0,0
3638,-103.7181653,4,1,0,91,0,0
3919,-105.2631582,4,1,0,91,0,0
4294,-98.0392156862745,4,1,0,91,0,0
4482,-98.36065574,4,1,0,91,0,0
10482,-96.77419355,4,1,0,91,0,0
14607,-96.77419321,4,1,0,91,0,0
14794,-97.08737864,4,1,0,91,0,0
14888,-97.52623269,4,1,0,91,0,0
14982,-97.77670461,4,1,0,91,0,0
15075,-98.02396469,4,1,0,91,0,0
15169,-98.27332568,4,1,0,91,0,0
15263,-98.52211099,4,1,0,91,0,0
15357,-98.77032734,4,1,0,91,0,0
15544,-99.26240183,4,1,0,91,0,0
15638,-99.50887621,4,1,0,91,0,0
15825,-99.99744987,4,1,0,91,0,0
16013,-100.4862351,4,1,0,91,0,0
16107,-100.7297192,4,1,0,91,0,0
16482,-100,4,1,0,91,0,0
22482,-98.36065574,4,1,0,91,0,0
26982,-93.7499986,4,1,0,91,0,0
27044,-94.01468875,4,1,0,91,0,0
27107,-94.28312138,4,1,0,91,0,0
27169,-94.54678233,4,1,0,91,0,0
27263,-94.94553994,4,1,0,91,0,0
27357,-95.3430851,4,1,0,91,0,0
27450,-95.73518728,4,1,0,91,0,0
27544,-96.13026779,4,1,0,91,0,0
27638,-96.52407561,4,1,0,91,0,0
27732,-96.91659373,4,1,0,91,0,0
27825,-97.30364855,4,1,0,91,0,0
27919,-97.6935506,4,1,0,91,0,0
27982,-97.9541144,4,1,0,91,0,0
28044,-98.20994404,4,1,0,91,0,0
28107,-98.46929058,4,1,0,91,0,0
28200,-98.85100256,4,1,0,91,0,0
28294,-99.23542458,4,1,0,91,0,0
28388,-99.61842507,4,1,0,91,0,0
28482,-96.77419355,4,1,0,91,0,1
34294,-96,4,1,0,91,0,1
34482,-95.23809524,4,1,0,91,0,1
38982,-95.23809454,4,1,0,91,0,1
39107,-94.99627441,4,1,0,91,0,1
39232,-94.75400616,4,1,0,91,0,1
39357,-94.51129395,4,1,0,91,0,1
39482,-94.26814187,4,1,0,91,0,1
39607,-94.02455396,4,1,0,91,0,1
39732,-93.78054263,4,1,0,91,0,1
39825,-93.59871342,4,1,0,91,0,1
39919,-93.41470098,4,1,0,91,0,1
40013,-93.23044862,4,1,0,91,0,1
40107,-93.04596555,4,1,0,91,0,1
40294,-92.6782641,4,1,0,91,0,1
40482,-90.90909234,4,1,0,91,0,0
40669,-91.49374884,4,1,0,91,0,0
40857,-92.07941391,4,1,0,91,0,0
40950,-92.36832526,4,1,0,91,0,0
41044,-92.65979644,4,1,0,91,0,0
41138,-92.95069502,4,1,0,91,0,0
41232,-93.24102596,4,1,0,91,0,0
41325,-93.5276982,4,1,0,91,0,0
41513,-94.10543771,4,1,0,91,0,0
41888,-95.25057898,4,1,0,91,0,0
41982,-95.53606707,4,1,0,91,0,0
42075,-95.81787698,4,1,0,91,0,0
42169,-96.10208481,4,1,0,91,0,0
42263,-96.38562478,4,1,0,91,0,0
42450,-96.94771457,4,1,0,91,0,0
42544,-97.2292507,4,1,0,91,0,0
42732,-97.79026472,4,1,0,91,0,0
42825,-98.06676094,4,1,0,91,0,0
42919,-98.34552437,4,1,0,91,0,0
43107,-98.90090479,4,1,0,91,0,0
43200,-99.17457476,4,1,0,91,0,0
43294,-99.45045569,4,1,0,91,0,0
43482,-100,4,1,0,91,0,0
45919,-100,4,1,0,91,0,0
46107,-98.82547645,4,1,0,91,0,0
46200,-98.23956908,4,1,0,91,0,0
46294,-97.64415449,4,1,0,91,0,0
46388,-97.04558493,4,1,0,91,0,0
46482,-96.44392902,4,1,0,91,0,0
46669,-95.23809454,4,1,0,91,0,0
46763,-95.46434363,4,1,0,91,0,0
46857,-95.69018921,4,1,0,91,0,0
47044,-96.13826823,4,1,0,91,0,0
47232,-96.58710091,4,1,0,91,0,0
47325,-96.80850686,4,1,0,91,0,0
47513,-97.25481904,4,1,0,91,0,0
47607,-97.47733279,4,1,0,91,0,0
47794,-97.91869567,4,1,0,91,0,0
47982,-98.36065743,4,1,0,91,0,0
50982,-80,4,1,0,91,0,0
51357,-98.36065743,4,1,0,91,0,0
51450,-98.78007805,4,1,0,91,0,0
51544,-99.20233613,4,1,0,91,0,0
51638,-99.62288701,4,1,0,91,0,0
51732,-100.0417085,4,1,0,91,0,0
51857,-100.5959414,4,1,0,91,0,0
51982,-101.1470255,4,1,0,91,0,0
52107,-101.6949159,4,1,0,91,0,0
52482,-100,4,1,0,91,0,0
52669,-99.95048101,4,1,0,91,0,0
52857,-99.90066973,4,1,0,91,0,0
52950,-99.87602,4,1,0,91,0,0
53044,-99.85110123,4,1,0,91,0,0
53138,-99.82617446,4,1,0,91,0,0
53232,-99.80123968,4,1,0,91,0,0
53419,-99.75162227,4,1,0,91,0,0
53607,-99.70171103,4,1,0,91,0,0
53700,-99.67701703,4,1,0,91,0,0
53794,-99.65204731,4,1,0,91,0,0
53982,-99.60208833,4,1,0,91,0,0
54169,-99.55237147,4,1,0,91,0,0
54263,-99.52737433,4,1,0,91,0,0
54357,-99.50236602,4,1,0,91,0,0
54544,-99.45260371,4,1,0,91,0,0
54732,-99.40254867,4,1,0,91,0,0
54825,-99.37777523,4,1,0,91,0,0
54919,-99.35273299,4,1,0,91,0,0
55107,-99.3026327,4,1,0,91,0,0
55294,-99.25277073,4,1,0,91,0,0
55482,-99.20261998,4,1,0,91,0,0
55669,-99.15271336,4,1,0,91,0,0
55857,-99.102511,4,1,0,91,0,0
55950,-99.07767101,4,1,0,91,0,0
56044,-99.0525562,4,1,0,91,0,0
56138,-99.02743323,4,1,0,91,0,0
56232,-99.00230663,4,1,0,91,0,0
56419,-98.95230389,4,1,0,91,0,0
56607,-98.90200422,4,1,0,91,0,0
56700,-98.87711654,4,1,0,91,0,0
56794,-98.85195485,4,1,0,91,0,0
56982,-98.80161301,4,1,0,91,0,0
57075,-98.77670228,4,1,0,91,0,0
57169,-98.75151166,4,1,0,91,0,0
57263,-98.72632079,4,1,0,91,0,0
57357,-98.70112268,4,1,0,91,0,0
57450,-98.6761878,4,1,0,91,0,0
57544,-98.65097203,4,1,0,91,0,0
57638,-98.62575962,4,1,0,91,0,0
57732,-98.60053794,4,1,0,91,0,0
57825,-98.57557426,4,1,0,91,0,0
57919,-98.55034068,4,1,0,91,0,0
58013,-98.52510528,4,1,0,91,0,0
58107,-98.49985573,4,1,0,91,0,0
58200,-98.47487343,4,1,0,91,0,0
58294,-98.44961531,4,1,0,91,0,0
58388,-98.42435369,4,1,0,91,0,0
58482,-98.39908506,4,1,0,91,0,0
58669,-98.34880069,4,1,0,91,0,0
58857,-98.29821863,4,1,0,91,0,0
58950,-98.27319011,4,1,0,91,0,0
59044,-98.24788381,4,1,0,91,0,0
59138,-98.22257417,4,1,0,91,0,0
59232,-98.19725623,4,1,0,91,0,0
59419,-98.14687653,4,1,0,91,0,0
59607,-98.09620334,4,1,0,91,0,0
59700,-98.07112622,4,1,0,91,0,0
59794,-98.04577652,4,1,0,91,0,0
59982,-97.99505834,4,1,0,91,0,0
60169,-97.944585,4,1,0,91,0,0
60263,-97.91920561,4,1,0,91,0,0
60357,-97.89382318,4,1,0,91,0,0
60544,-97.84329957,4,1,0,91,0,0
60732,-97.79248747,4,1,0,91,0,0
60825,-97.76734293,4,1,0,91,0,0
60919,-97.7419251,4,1,0,91,0,0
61107,-97.69106987,4,1,0,91,0,0
61294,-97.64045699,4,1,0,91,0,0
61482,-97.58955268,4,1,0,91,0,0
61669,-97.53889791,4,1,0,91,0,0
61857,-97.48794953,4,1,0,91,0,0
61950,-97.46273742,4,1,0,91,0,0
62044,-97.43725059,4,1,0,91,0,0
62138,-97.41175524,4,1,0,91,0,0
62232,-97.38625213,4,1,0,91,0,0
62419,-97.33550667,4,1,0,91,0,0
62607,-97.28446685,4,1,0,91,0,0
62700,-97.25921098,4,1,0,91,0,0
62794,-97.23367845,4,1,0,91,0,0
62982,-97.18259273,4,1,0,91,0,0
63075,-97.15731359,4,1,0,91,0,0
63169,-97.13175682,4,1,0,91,0,0
63263,-97.10619398,4,1,0,91,0,0
63357,-97.08062507,4,1,0,91,0,0
63450,-97.05532295,4,1,0,91,0,0
63544,-97.02974598,4,1,0,91,0,0
63638,-97.00415925,4,1,0,91,0,0
63732,-96.97857404,4,1,0,91,0,0
63919,-96.54693941,4,1,0,91,0,0
64107,-96.1114202,4,1,0,91,0,0
64200,-95.89540153,4,1,0,91,0,0
64294,-95.67668082,4,1,0,91,0,0
64357,-95.5298806,4,1,0,91,0,0
64419,-95.38523833,4,1,0,91,0,0
64482,-95.23809454,4,1,0,91,0,1
74982,-95.23809454,4,1,0,91,0,1
75107,-94.91556934,4,1,0,91,0,1
75232,-94.59224566,4,1,0,91,0,1
75357,-94.26814187,4,1,0,91,0,1
75482,-93.943264,4,1,0,91,0,1
75607,-93.61762574,4,1,0,91,0,1
75732,-93.29123603,4,1,0,91,0,1
75825,-93.04792644,4,1,0,91,0,1
75919,-92.80159176,4,1,0,91,0,1
76013,-92.55484346,4,1,0,91,0,1
76107,-92.30769231,4,1,0,91,0,1
76294,-88.23529412,4,1,0,91,0,1
76482,-81.96721311,4,1,0,91,0,0
77982,-66.66666667,4,1,0,91,0,0

[HitObjects]
256,192,3169,12,0,4107,0:0:0:0:
367,303,4294,5,8,0:0:0:0:
291,265,4482,1,8,0:0:0:0:
278,244,4669,1,0,0:0:0:0:
350,222,5044,1,8,0:0:0:0:
278,244,5232,1,8,0:0:0:0:
350,222,5325,1,8,0:0:0:0:
248,211,5419,1,8,0:0:0:0:
258,196,5607,1,0,0:0:0:0:
308,209,5982,1,0,0:0:0:0:
313,207,6075,1,8,0:0:0:0:
285,217,6357,1,8,0:0:0:0:
285,217,6638,1,0,0:0:0:0:
317,124,6825,1,0,0:0:0:0:
265,234,7294,1,8,0:0:0:0:
290,239,7482,1,8,0:0:0:0:
290,239,7669,1,0,0:0:0:0:
294,210,8044,1,8,0:0:0:0:
294,210,8232,1,8,0:0:0:0:
286,210,8325,1,8,0:0:0:0:
281,204,8419,1,8,0:0:0:0:
274,232,8607,1,0,0:0:0:0:
268,260,8982,1,0,0:0:0:0:
276,254,9075,1,8,0:0:0:0:
276,262,9357,1,8,0:0:0:0:
270,260,9638,1,0,0:0:0:0:
280,258,9825,1,0,0:0:0:0:
377,193,10294,1,8,0:0:0:0:
259,121,10482,1,8,0:0:0:0:
345,273,10669,1,0,0:0:0:0:
345,248,10857,1,8,0:0:0:0:
263,201,11232,1,8,0:0:0:0:
331,193,11325,1,8,0:0:0:0:
308,270,11419,1,8,0:0:0:0:
354,312,11607,1,8,0:0:0:0:
265,206,11982,1,0,0:0:0:0:
242,167,12357,1,8,0:0:0:0:
312,213,12544,1,0,0:0:0:0:
355,202,12732,1,0,0:0:0:0:
305,247,13294,1,8,0:0:0:0:
305,272,13482,1,8,0:0:0:0:
354,260,13669,1,0,0:0:0:0:
354,260,13857,1,8,0:0:0:0:
296,331,14232,1,8,0:0:0:0:
372,234,14325,1,8,0:0:0:0:
296,331,14419,1,8,0:0:0:0:
368,246,14607,1,8,0:0:0:0:
208,181,14982,1,0,0:0:0:0:
267,315,15357,1,8,0:0:0:0:
285,183,15732,1,8,0:0:0:0:
358,124,15919,1,8,0:0:0:0:
307,229,16107,1,0,0:0:0:0:
339,175,16482,1,12,0:0:0:0:
271,223,16857,1,8,0:0:0:0:
335,310,17044,1,8,0:0:0:0:
293,88,17232,1,0,0:0:0:0:
245,174,17607,1,8,0:0:0:0:
326,201,17982,1,0,0:0:0:0:
411,190,18169,1,0,0:0:0:0:
294,290,18357,1,8,0:0:0:0:
194,134,18732,1,8,0:0:0:0:
211,218,18919,1,0,0:0:0:0:
223,213,19107,1,8,0:0:0:0:
223,213,19482,1,0,0:0:0:0:
221,222,19669,1,8,0:0:0:0:
221,222,19857,1,8,0:0:0:0:
381,146,20044,1,8,0:0:0:0:
230,220,20232,1,0,0:0:0:0:
226,239,20607,1,8,0:0:0:0:
340,250,20982,1,8,0:0:0:0:
271,163,21169,1,0,0:0:0:0:
238,224,21357,1,8,0:0:0:0:
404,218,21732,1,0,0:0:0:0:
366,133,21919,1,0,0:0:0:0:
297,234,22107,1,8,0:0:0:0:
292,253,22482,1,12,0:0:0:0:
227,261,22857,1,0,0:0:0:0:
266,294,23232,1,0,0:0:0:0:
265,287,23419,1,8,0:0:0:0:
257,289,23607,1,8,0:0:0:0:
323,305,23982,1,8,0:0:0:0:
323,305,24075,1,8,0:0:0:0:
323,305,24169,1,8,0:0:0:0:
323,305,24357,1,8,0:0:0:0:
323,305,24732,1,0,0:0:0:0:
293,127,25107,1,0,0:0:0:0:
292,308,25482,1,8,0:0:0:0:
353,207,25669,1,0,0:0:0:0:
353,207,25857,1,8,0:0:0:0:
257,265,26232,1,8,0:0:0:0:
279,264,26607,1,8,0:0:0:0:
288,264,26982,1,0,0:0:0:0:
315,275,27169,1,8,0:0:0:0:
279,283,27357,1,8,0:0:0:0:
272,280,27450,1,8,0:0:0:0:
283,288,27544,1,8,0:0:0:0:
291,297,27732,1,0,0:0:0:0:
294,308,27919,1,8,0:0:0:0:
266,289,28107,1,0,0:0:0:0:
285,278,28200,1,0,0:0:0:0:
281,284,28294,1,0,0:0:0:0:
284,197,28482,1,8,0:0:0:0:
304,246,28857,1,8,0:0:0:0:
297,249,29044,1,0,0:0:0:0:
290,260,29232,1,8,0:0:0:0:
307,249,29419,1,0,0:0:0:0:
306,251,29513,1,8,0:0:0:0:
319,231,29982,1,8,0:0:0:0:
297,249,30169,1,0,0:0:0:0:
338,227,30357,1,8,0:0:0:0:
273,216,30732,1,0,0:0:0:0:
250,164,30825,1,0,0:0:0:0:
313,215,30919,1,0,0:0:0:0:
313,215,31107,1,8,0:0:0:0:
356,227,31482,1,0,0:0:0:0:
249,202,31857,1,8,0:0:0:0:
297,249,32044,1,0,0:0:0:0:
260,290,32232,1,8,0:0:0:0:
299,228,32419,1,0,0:0:0:0:
299,213,32513,1,8,0:0:0:0:
300,207,32982,1,0,0:0:0:0:
294,215,33169,1,8,0:0:0:0:
294,215,33357,1,0,0:0:0:0:
164,223,33732,1,8,0:0:0:0:
266,252,33825,1,8,0:0:0:0:
261,243,33919,1,8,0:0:0:0:
265,235,34107,1,0,0:0:0:0:
265,235,34294,1,8,0:0:0:0:
284,197,34482,1,8,0:0:0:0:
304,246,34857,1,8,0:0:0:0:
297,249,35044,1,0,0:0:0:0:
290,260,35232,1,8,0:0:0:0:
307,249,35419,1,0,0:0:0:0:
306,251,35513,1,8,0:0:0:0:
319,231,35982,1,8,0:0:0:0:
297,249,36169,1,0,0:0:0:0:
338,227,36357,1,8,0:0:0:0:
273,216,36732,1,0,0:0:0:0:
250,164,36825,1,0,0:0:0:0:
313,215,36919,1,0,0:0:0:0:
313,215,37107,1,8,0:0:0:0:
356,227,37482,1,0,0:0:0:0:
249,202,37857,1,8,0:0:0:0:
297,249,38044,1,0,0:0:0:0:
260,290,38232,1,8,0:0:0:0:
299,228,38419,1,0,0:0:0:0:
299,213,38513,1,8,0:0:0:0:
300,207,38982,1,0,0:0:0:0:
294,215,39169,1,8,0:0:0:0:
294,215,39357,5,0,0:0:0:0:
164,223,39732,1,8,0:0:0:0:
266,252,39825,1,8,0:0:0:0:
261,243,39919,1,8,0:0:0:0:
265,235,40107,1,0,0:0:0:0:
265,235,40294,1,8,0:0:0:0:
284,197,40482,1,8,0:0:0:0:
218,258,40857,1,0,0:0:0:0:
239,165,41232,1,8,0:0:0:0:
261,256,41607,1,8,0:0:0:0:
261,256,41982,1,0,0:0:0:0:
253,258,42075,1,0,0:0:0:0:
314,100,42169,1,0,0:0:0:0:
253,258,42357,1,8,0:0:0:0:
325,178,42732,1,0,0:0:0:0:
255,252,43107,1,8,0:0:0:0:
255,252,43482,1,0,0:0:0:0:
238,248,43669,1,8,0:0:0:0:
238,248,43857,1,0,0:0:0:0:
238,248,44232,1,8,0:0:0:0:
391,290,44419,1,0,0:0:0:0:
290,183,44607,1,8,0:0:0:0:
188,150,44982,1,0,0:0:0:0:
259,103,45357,1,8,0:0:0:0:
268,214,45732,1,0,0:0:0:0:
278,195,45825,1,0,0:0:0:0:
278,195,45919,1,0,0:0:0:0:
278,195,46107,1,8,0:0:0:0:
278,195,46200,1,8,0:0:0:0:
278,195,46294,1,8,0:0:0:0:
281,215,46482,1,0,0:0:0:0:
281,207,46857,1,8,0:0:0:0:
283,201,47232,1,8,0:0:0:0:
322,207,47419,1,0,0:0:0:0:
322,207,47607,1,8,0:0:0:0:
300,243,47982,1,0,0:0:0:0:
322,207,48169,1,0,0:0:0:0:
274,266,48357,1,0,0:0:0:0:
267,263,48732,1,8,0:0:0:0:
267,263,48919,1,0,0:0:0:0:
281,207,49107,1,8,0:0:0:0:
330,248,49294,1,0,0:0:0:0:
267,263,49669,1,8,0:0:0:0:
270,257,50044,1,0,0:0:0:0:
270,257,50232,1,8,0:0:0:0:
267,241,50419,1,8,0:0:0:0:
195,268,50607,1,0,0:0:0:0:
297,135,50794,1,8,0:0:0:0:
297,239,51357,5,8,0:0:0:0:
301,215,51450,1,8,0:0:0:0:
301,215,51544,1,8,0:0:0:0:
288,233,51732,1,8,0:0:0:0:
288,281,51982,1,0,0:0:0:0:
324,280,52107,1,8,0:0:0:0:
288,250,52482,1,12,0:0:0:0:
271,241,52857,1,8,0:0:0:0:
326,128,53044,1,0,0:0:0:0:
261,239,53232,1,8,0:0:0:0:
268,255,53607,1,8,0:0:0:0:
264,240,53982,1,0,0:0:0:0:
262,198,54357,1,8,0:0:0:0:
262,198,54544,1,0,0:0:0:0:
260,190,54732,1,8,0:0:0:0:
246,216,54825,1,8,0:0:0:0:
246,216,54919,1,8,0:0:0:0:
246,216,55107,1,8,0:0:0:0:
252,218,55482,1,8,0:0:0:0:
290,262,55857,1,8,0:0:0:0:
290,262,56044,1,0,0:0:0:0:
287,257,56232,1,8,0:0:0:0:
294,188,56607,1,8,0:0:0:0:
281,237,56982,1,0,0:0:0:0:
257,237,57075,1,0,0:0:0:0:
257,237,57169,1,0,0:0:0:0:
257,237,57357,1,8,0:0:0:0:
345,229,57732,1,0,0:0:0:0:
260,232,57919,1,8,0:0:0:0:
259,232,58013,1,8,0:0:0:0:
260,232,58107,1,8,0:0:0:0:
259,232,58200,1,8,0:0:0:0:
260,232,58294,1,8,0:0:0:0:
288,250,58482,1,0,0:0:0:0:
271,241,58857,1,8,0:0:0:0:
271,241,59044,1,0,0:0:0:0:
261,239,59232,1,8,0:0:0:0:
268,255,59607,1,8,0:0:0:0:
264,240,59982,1,0,0:0:0:0:
262,198,60357,1,8,0:0:0:0:
262,198,60544,1,0,0:0:0:0:
260,190,60732,1,8,0:0:0:0:
246,216,60825,1,8,0:0:0:0:
246,216,60919,1,8,0:0:0:0:
246,216,61107,1,8,0:0:0:0:
252,218,61482,1,8,0:0:0:0:
290,262,61857,1,8,0:0:0:0:
290,262,62044,1,0,0:0:0:0:
287,257,62232,1,8,0:0:0:0:
294,188,62607,1,8,0:0:0:0:
281,237,62982,1,0,0:0:0:0:
257,237,63075,1,0,0:0:0:0:
257,237,63169,1,0,0:0:0:0:
257,237,63357,1,8,0:0:0:0:
254,227,63732,1,0,0:0:0:0:
259,232,63919,1,0,0:0:0:0:
259,232,64107,1,0,0:0:0:0:
259,232,64200,1,0,0:0:0:0:
259,232,64294,1,0,0:0:0:0:
284,197,64482,1,8,0:0:0:0:
304,246,64857,1,8,0:0:0:0:
243,114,65044,1,0,0:0:0:0:
290,260,65232,1,8,0:0:0:0:
306,251,65325,1,8,0:0:0:0:
306,251,65419,1,8,0:0:0:0:
319,231,65982,1,8,0:0:0:0:
297,249,66169,1,0,0:0:0:0:
338,227,66357,1,8,0:0:0:0:
273,216,66732,1,0,0:0:0:0:
250,164,66825,1,0,0:0:0:0:
313,215,66919,1,0,0:0:0:0:
313,215,67107,1,8,0:0:0:0:
356,227,67482,1,0,0:0:0:0:
249,202,67857,1,8,0:0:0:0:
136,156,68044,1,0,0:0:0:0:
260,290,68232,1,8,0:0:0:0:
306,251,68325,1,8,0:0:0:0:
299,213,68419,1,8,0:0:0:0:
300,207,68982,1,0,0:0:0:0:
294,215,69169,1,8,0:0:0:0:
294,215,69357,1,0,0:0:0:0:
164,223,69732,1,8,0:0:0:0:
266,252,69825,1,8,0:0:0:0:
261,243,69919,1,8,0:0:0:0:
265,235,70107,1,0,0:0:0:0:
265,235,70294,1,8,0:0:0:0:
284,197,70482,1,8,0:0:0:0:
304,246,70857,1,8,0:0:0:0:
228,147,71044,1,0,0:0:0:0:
290,260,71232,1,8,0:0:0:0:
306,251,71325,1,8,0:0:0:0:
306,251,71419,1,8,0:0:0:0:
319,231,71982,1,8,0:0:0:0:
297,249,72169,1,0,0:0:0:0:
338,227,72357,1,8,0:0:0:0:
273,216,72732,1,0,0:0:0:0:
250,164,72825,1,0,0:0:0:0:
313,215,72919,1,0,0:0:0:0:
313,215,73107,1,8,0:0:0:0:
356,227,73482,1,0,0:0:0:0:
249,202,73857,1,8,0:0:0:0:
289,247,74044,1,0,0:0:0:0:
260,290,74232,1,8,0:0:0:0:
299,228,74325,1,8,0:0:0:0:
299,213,74419,1,8,0:0:0:0:
300,207,74982,1,0,0:0:0:0:
294,215,75169,1,8,0:0:0:0:
294,215,75357,5,0,0:0:0:0:
164,223,75732,1,8,0:0:0:0:
266,252,75825,1,8,0:0:0:0:
261,243,75919,1,8,0:0:0:0:
265,235,76107,1,0,0:0:0:0:
265,235,76294,1,8,0:0:0:0:
284,197,76482,1,4,0:0:0:0:
