osu file format v14

[General]
AudioFilename: audio.mp3
AudioLeadIn: 0
PreviewTime: 75026
Countdown: 1
SampleSet: Soft
StackLeniency: 0.7
Mode: 0
LetterboxInBreaks: 0
WidescreenStoryboard: 0

[Editor]
Bookmarks: 26,39026,75026,111026,147026,183026,207026
DistanceSpacing: 0.4
BeatDivisor: 4
GridSize: 4
TimelineZoom: 1.6

[Metadata]
Title:lost
TitleUnicode:lost
Artist:trolleattroll
ArtistUnicode:trolleattroll
Creator:Melwoine
Version:nyctophobia
Source:
Tags:tomadoi rie kaneko 金子理江 shiinoha kotone japanese ladybaby
BeatmapID:2117430
BeatmapSetID:1011657

[Difficulty]
HPDrainRate:7.3
CircleSize:4.4
OverallDifficulty:7.7
ApproachRate:8.7
SliderMultiplier:1.4
SliderTickRate:1

[Events]
//Background and Video events
0,0,"wK6cP3B.jpg",0,0
//Break Periods
//Storyboard Layer 0 (Background)
//Storyboard Layer 1 (Fail)
//Storyboard Layer 2 (Pass)
//Storyboard Layer 3 (Foreground)
//Storyboard Layer 4 (Overlay)
//Storyboard Sound Samples

[TimingPoints]
26,750,4,2,0,72,1,0
29276,-83.3333333333333,4,2,0,72,0,0
30213,-100,4,2,0,72,0,0
35276,-125,4,2,0,72,0,0
36026,-166.666666666667,4,2,0,72,0,0
36776,-100,4,2,0,72,0,0
37526,-250.000000000001,4,2,0,72,0,0
38276,-100,4,2,0,72,0,0
54026,-71.4285714285714,4,2,0,72,0,0
55526,-83.3333333333333,4,2,0,72,0,0
75026,-76.9230769230769,4,2,0,72,0,0
84401,-55.5555555555556,4,2,0,72,0,0
84776,-76.9230769230769,4,2,0,72,0,0
85526,-47.6190476190476,4,2,0,72,0,0
86276,-76.9230769230769,4,2,0,72,0,0
94526,-66.6666666666667,4,2,0,72,0,0
96401,-125,4,2,0,72,0,0
98276,-29.4117647058824,4,2,0,72,0,0
99026,-166.666666666669,4,2,0,72,0,0
100526,-29.4117647058824,4,2,0,72,0,0
100901,-166.666666666667,4,2,0,72,0,0
102026,-29.4117647058824,4,2,0,72,0,0
102401,-166.666666666667,4,2,0,72,0,0
103526,-29.4117647058824,4,2,0,72,0,0
105026,-41.6666666666668,4,2,0,72,0,0
106526,-29.4117647058824,4,2,0,72,0,0
106901,-41.6666666666667,4,2,0,72,0,0
108026,-100,4,2,0,72,0,0
108963,-66.6666666666667,4,2,0,72,0,0
109338,-26.3157894736842,4,2,0,72,0,0
112526,-25,4,2,0,72,0,0
113651,-100,4,2,0,72,0,0
114026,-25,4,2,0,72,0,0
114401,-50,4,2,0,72,0,0
116276,-100,4,2,0,72,0,0
117026,-76.9230769230769,4,2,0,72,0,0
117776,-26.3157894736842,4,2,0,72,0,0
118151,-100,4,2,0,72,0,0
119276,-26.3157894736842,4,2,0,72,0,0
119651,-100,4,2,0,72,0,0
120026,-55.5555555555556,4,2,0,72,0,0
120776,-26.3157894736842,4,2,0,72,0,0
121151,-100,4,2,0,72,0,0
123026,-62.5,4,2,0,72,0,0
123776,-26.3157894736842,4,2,0,72,0,0
124526,-62.5,4,2,0,72,0,0
124901,-26.3157894736842,4,2,0,72,0,0
126026,-62.5,4,2,0,72,0,0
126401,-26.3157894736842,4,2,0,72,0,0
126776,-62.5,4,2,0,72,0,0
128651,-26.3157894736842,4,2,0,72,0,0
132026,-62.5,4,2,0,72,0,0
132401,-26.3157894736842,4,2,0,72,0,0
132776,-100,4,2,0,72,0,0
147776,-71.4285714285714,4,2,0,72,0,0
149276,-31.25,4,2,0,72,0,0
149463,-71.4285714285714,4,2,0,72,0,0
151526,-33.3333333333333,4,2,0,72,0,0
153401,-27.7777777777778,4,2,0,72,0,0
154526,-38.4615384615385,4,2,0,72,0,0
154713,-33.3333333333333,4,2,0,72,0,0
154901,-26.3157894736842,4,2,0,72,0,0
155276,-33.3333333333333,4,2,0,72,0,0
157526,-25.6410256410256,4,2,0,72,0,0
159026,-58.8235294117644,4,2,0,72,0,0
159776,-38.4615384615383,4,2,0,72,0,0
160526,-58.8235294117647,4,2,0,72,0,0
161276,-35.7142857142857,4,2,0,72,0,0
163526,-71.4285714285714,4,2,0,72,0,0
165026,-58.8235294117647,4,2,0,72,0,0
168026,-47.6190476190476,4,2,0,72,0,0
168401,-37.037037037037,4,2,0,72,0,0
169526,-58.8235294117647,4,2,0,72,0,0
177026,-37.037037037037,4,2,0,72,0,0
177401,-33.3333333333333,4,2,0,72,0,0
178526,-58.8235294117647,4,2,0,72,0,0
180026,-71.4285714285714,4,2,0,72,0,0
181526,-31.25,4,2,0,72,0,0
181901,-66.6666666666667,4,2,0,72,0,0
182088,-31.25,4,2,0,72,0,0
187526,-52.6315789473684,4,2,0,72,0,0
192026,-31.25,4,2,0,72,0,0
204026,-100,4,2,0,72,0,0

[Colours]
Combo1 : 117,146,155
Combo2 : 199,191,184

[HitObjects]
66,250,26,5,0,0:0:0:0:
172,202,776,1,0,0:0:0:0:
51,271,1151,1,0,0:0:0:0:
113,334,1526,1,0,0:0:0:0:
87,345,2651,2,0,B|88:338|88:338|81:272|81:272|82:267,1,70
98,260,3776,5,0,0:0:0:0:
241,335,4526,1,0,0:0:0:0:
446,298,5276,1,0,0:0:0:0:
446,298,6026,5,0,0:0:0:0:
260,329,6776,1,0,0:0:0:0:
364,372,7151,1,0,0:0:0:0:
247,312,7526,1,0,0:0:0:0:
313,381,8651,2,0,B|319:353|319:353|309:355,1,35
97,339,9026,6,0,B|151:324|151:324|165:327,1,70
180,313,9776,1,0,0:0:0:0:
135,214,10151,1,0,0:0:0:0:
183,72,10526,1,0,0:0:0:0:
143,14,11276,1,0,0:0:0:0:
143,14,11463,1,0,0:0:0:0:
143,14,11651,1,0,0:0:0:0:
27,265,12026,5,0,0:0:0:0:
86,144,12213,2,0,B|103:154|103:154|107:252,1,105
99,250,13151,2,0,L|100:212,1,35
49,375,13526,2,0,L|50:337,1,35
28,366,14276,1,0,0:0:0:0:
28,366,14463,1,0,0:0:0:0:
28,366,14651,1,0,0:0:0:0:
28,366,14838,1,0,0:0:0:0:
154,284,15026,5,0,0:0:0:0:
293,360,15213,2,0,B|279:350|279:350|186:361,1,105
414,291,16151,2,0,L|483:303,1,70
396,278,16901,1,0,0:0:0:0:
292,326,17276,1,0,0:0:0:0:
300,313,17838,1,0,0:0:0:0:
366,344,18026,5,0,0:0:0:0:
413,180,18213,2,0,B|432:209|432:209|420:280,1,105
453,110,19151,2,0,B|449:97|449:97|454:89|454:89|456:73,1,35
468,121,19526,1,0,0:0:0:0:
275,55,19713,2,0,L|315:49,1,35
258,47,20276,1,0,0:0:0:0:
203,97,20838,1,0,0:0:0:0:
186,89,21026,5,0,0:0:0:0:
96,241,21213,2,0,B|106:215|106:215|91:170|91:170|100:135,1,105
33,315,22151,2,0,L|21:398,1,70
25,299,22901,1,0,0:0:0:0:
147,355,23276,5,0,0:0:0:0:
142,343,23369,1,0,0:0:0:0:
174,327,23463,1,0,0:0:0:0:
175,314,23556,1,0,0:0:0:0:
206,305,23651,5,0,0:0:0:0:
212,293,23744,1,0,0:0:0:0:
242,300,23838,1,0,0:0:0:0:
253,293,23931,1,0,0:0:0:0:
312,248,24026,5,0,0:0:0:0:
467,316,24213,2,0,B|463:326|463:326|357:300,1,105
485,306,25151,1,0,0:0:0:0:
351,310,25338,1,0,0:0:0:0:
475,284,25526,2,0,L|466:235,1,35
454,230,25901,2,0,L|469:153,1,70
467,161,26463,1,0,0:0:0:0:
427,40,26651,6,0,P|433:48|433:39,2,17.5
437,35,27026,1,0,0:0:0:0:
287,123,27213,2,0,B|306:116|306:116|377:126|377:126|397:121,1,105
232,72,28151,2,0,L|159:60,1,70
247,60,28901,1,0,0:0:0:0:
151,247,29276,6,0,B|199:240|220:179|195:134,1,125.999996154785
141,234,30026,1,0,0:0:0:0:
281,352,30213,2,0,B|285:338|285:338|189:317,1,105
201,332,31151,2,0,L|154:339,1,35
31,365,31526,1,0,0:0:0:0:
152,326,31713,2,0,B|166:296|166:296|147:204,1,105
0,138,32651,2,0,L|7:101,1,35
9,152,33026,1,0,0:0:0:0:
169,53,33213,6,0,B|135:56|135:56|53:35,1,105
203,46,34151,2,0,L|284:58,1,70
283,51,34901,1,0,0:0:0:0:
281,43,35088,1,0,0:0:0:0:
312,167,35276,6,0,P|322:156|303:163,1,56
312,167,35838,1,0,0:0:0:0:
173,225,36026,6,0,P|175:208|192:222,1,41.9999987182618
173,225,36588,1,0,0:0:0:0:
361,334,36776,5,0,0:0:0:0:
263,222,36963,1,0,0:0:0:0:
64,286,37151,1,0,0:0:0:0:
117,371,37338,1,0,0:0:0:0:
125,360,37526,1,0,0:0:0:0:
24,373,37901,2,0,L|19:351,1,14
61,211,38276,5,0,0:0:0:0:
281,140,38463,1,0,0:0:0:0:
386,340,38651,1,0,0:0:0:0:
218,320,38838,1,0,0:0:0:0:
290,250,39026,6,0,B|320:253|320:253|324:255,2,35
215,255,39588,1,0,0:0:0:0:
163,184,39776,6,0,B|137:176|137:176|115:178,2,35
216,242,40338,1,0,0:0:0:0:
289,145,40526,2,0,B|310:126|310:126|315:78,1,70
265,35,41088,1,0,0:0:0:0:
466,105,41276,1,0,0:0:0:0:
389,102,41463,2,0,L|312:98,1,70
136,103,42026,6,0,B|129:91|129:91|144:19,1,70
135,111,42776,1,0,0:0:0:0:
116,193,42963,2,0,B|106:210|106:210|86:226,1,35
128,188,43338,1,0,0:0:0:0:
24,231,43526,2,0,B|12:240|12:240|-5:325,1,70
221,360,44276,1,0,0:0:0:0:
260,337,44463,1,0,0:0:0:0:
135,318,44838,1,0,0:0:0:0:
48,373,45026,5,0,0:0:0:0:
153,229,45213,1,0,0:0:0:0:
132,314,45401,2,0,L|126:393,1,70
233,354,45963,2,0,L|312:348,1,70
387,345,46526,1,0,0:0:0:0:
288,256,46901,1,0,0:0:0:0:
367,218,47088,1,0,0:0:0:0:
469,305,47276,1,0,0:0:0:0:
469,332,47463,1,0,0:0:0:0:
468,355,47838,5,0,0:0:0:0:
431,222,48026,6,0,L|337:233,1,70
279,299,48588,1,0,0:0:0:0:
443,151,48776,2,0,L|512:159,1,70
512,237,49338,1,0,0:0:0:0:
347,93,49526,1,0,0:0:0:0:
445,72,49713,1,0,0:0:0:0:
252,204,49901,1,0,0:0:0:0:
89,163,50088,1,0,0:0:0:0:
182,61,50276,5,0,0:0:0:0:
179,73,50369,1,0,0:0:0:0:
153,88,50463,1,0,0:0:0:0:
149,112,50557,1,0,0:0:0:0:
170,126,50651,2,0,P|169:147|167:175,1,35
259,39,51026,5,0,0:0:0:0:
398,99,51213,1,0,0:0:0:0:
353,0,51401,1,0,0:0:0:0:
295,144,51588,1,0,0:0:0:0:
466,132,51776,5,0,0:0:0:0:
452,21,51963,1,0,0:0:0:0:
393,199,52151,1,0,0:0:0:0:
455,129,52338,1,0,0:0:0:0:
358,106,52526,5,0,0:0:0:0:
344,117,52619,1,0,0:0:0:0:
332,128,52713,1,0,0:0:0:0:
341,138,52807,1,0,0:0:0:0:
351,144,52901,1,0,0:0:0:0:
340,153,52994,1,0,0:0:0:0:
326,165,53088,1,0,0:0:0:0:
334,175,53182,1,0,0:0:0:0:
344,186,53276,5,0,0:0:0:0:
468,218,53463,1,0,0:0:0:0:
358,268,53651,2,0,L|301:282,1,52.5
191,258,54026,6,0,B|183:241|183:241|188:200,1,48.9999985046387
204,322,54401,2,0,L|207:264,1,48.9999985046387
219,347,54776,5,0,0:0:0:0:
105,374,54963,1,0,0:0:0:0:
65,282,55151,1,0,0:0:0:0:
134,195,55338,1,0,0:0:0:0:
116,357,55526,6,0,B|87:360|87:360|69:372|69:372|25:382,1,83.9999974365235
0,240,56276,5,0,0:0:0:0:
93,313,56463,1,0,0:0:0:0:
114,189,56651,1,0,0:0:0:0:
99,330,56838,1,0,0:0:0:0:
41,173,57026,6,0,B|38:156|38:156|40:116,1,41.9999987182618
148,121,57401,2,0,B|138:145|138:145|109:135,1,41.9999987182618
95,59,57776,6,0,L|97:17,2,41.9999987182618
196,68,58338,1,0,0:0:0:0:
475,45,58526,2,0,L|389:31,1,83.9999974365235
298,62,59088,1,0,0:0:0:0:
389,14,59276,5,0,0:0:0:0:
355,126,59463,1,0,0:0:0:0:
512,238,59651,1,0,0:0:0:0:
463,132,59838,1,0,0:0:0:0:
350,216,60026,6,0,L|341:316,1,83.9999974365235
284,157,60588,1,0,0:0:0:0:
431,301,60776,6,0,L|440:401,1,83.9999974365235
512,272,61338,1,0,0:0:0:0:
257,336,61526,1,0,0:0:0:0:
207,277,61713,1,0,0:0:0:0:
393,280,62088,5,0,0:0:0:0:
505,384,62276,1,0,0:0:0:0:
484,314,62463,1,0,0:0:0:0:
510,201,62651,6,0,L|513:185,6,13.9999995727539
449,70,63401,2,0,P|493:112|499:221,1,167.999994873047
437,80,64526,6,0,L|386:72,1,41.9999987182618
229,111,64901,2,0,B|288:131|334:73|320:39|292:4,1,167.999994873047
210,93,66026,6,0,L|208:164,1,41.9999987182618
296,235,66401,1,0,0:0:0:0:
139,240,66588,1,0,0:0:0:0:
220,310,66776,2,0,B|211:286|211:286|224:201,1,83.9999974365235
214,329,67526,6,0,L|147:333,1,41.9999987182618
280,347,67901,2,0,L|238:344,1,41.9999987182618
172,331,68276,6,0,L|214:329,1,41.9999987182618
282,364,68651,2,0,L|324:367,1,41.9999987182618
430,357,69026,6,0,B|435:339|435:325|432:295,1,41.9999987182618
370,263,69401,2,0,B|407:316|495:299|501:227,1,167.999994873047
375,249,70526,6,0,L|334:257,1,41.9999987182618
230,215,70901,2,0,L|274:228,1,41.9999987182618
383,232,71276,6,0,L|424:224,1,41.9999987182618
216,196,71651,2,0,L|175:184,1,41.9999987182618
294,141,72026,5,0,0:0:0:0:
335,154,72119,1,0,0:0:0:0:
383,130,72213,1,0,0:0:0:0:
348,135,72307,1,0,0:0:0:0:
307,114,72401,1,0,0:0:0:0:
345,104,72494,1,0,0:0:0:0:
369,75,72588,1,0,0:0:0:0:
337,84,72682,1,0,0:0:0:0:
294,77,72776,6,0,L|261:79,1,20.9999993591309
160,104,72963,6,0,L|191:105,1,20.9999993591309
153,10,73151,6,0,L|155:43,1,20.9999993591309
207,136,73338,6,0,L|206:156,1,20.9999993591309
285,214,73526,1,0,0:0:0:0:
291,229,73619,1,0,0:0:0:0:
258,245,73713,1,0,0:0:0:0:
262,226,73807,1,0,0:0:0:0:
238,197,73901,1,0,0:0:0:0:
233,169,73994,1,0,0:0:0:0:
266,157,74088,1,0,0:0:0:0:
261,183,74182,1,0,0:0:0:0:
211,213,74276,5,0,0:0:0:0:
160,215,74369,1,0,0:0:0:0:
103,217,74463,1,0,0:0:0:0:
62,190,74557,1,0,0:0:0:0:
99,191,74651,1,0,0:0:0:0:
137,193,74744,1,0,0:0:0:0:
160,215,74838,1,0,0:0:0:0:
186,264,74932,5,0,0:0:0:0:
186,264,75026,2,0,L|327:279,1,136.499993751526
176,273,75776,1,0,0:0:0:0:
338,262,75963,1,0,0:0:0:0:
421,320,76151,1,0,0:0:0:0:
343,381,76338,1,0,0:0:0:0:
259,199,76526,2,0,B|271:190|271:190|261:103,1,90.9999958343508
252,106,77276,1,0,0:0:0:0:
117,198,77463,1,0,0:0:0:0:
2,86,77651,1,0,0:0:0:0:
130,1,77838,1,0,0:0:0:0:
134,22,78026,1,0,0:0:0:0:
19,285,78307,5,0,0:0:0:0:
22,271,78401,1,0,0:0:0:0:
30,300,78776,1,0,0:0:0:0:
115,267,78963,1,0,0:0:0:0:
165,132,79151,1,0,0:0:0:0:
130,286,79338,1,0,0:0:0:0:
248,361,79526,2,0,L|338:371,1,90.9999958343508
235,351,80276,5,0,0:0:0:0:
356,365,80463,1,0,0:0:0:0:
451,282,80651,1,0,0:0:0:0:
416,195,80838,1,0,0:0:0:0:
401,203,81026,2,0,B|421:198|421:198|497:219,2,90.9999958343508
499,202,81963,1,0,0:0:0:0:
318,251,82151,1,0,0:0:0:0:
213,71,82338,1,0,0:0:0:0:
234,59,82526,1,0,0:0:0:0:
314,122,82901,5,0,0:0:0:0:
228,206,83276,1,0,0:0:0:0:
87,162,83463,1,0,0:0:0:0:
89,1,83651,1,0,0:0:0:0:
118,157,83838,1,0,0:0:0:0:
64,266,84026,2,0,B|48:261|48:261|9:270|9:270|0:264,1,68.2499968757631
103,175,84401,6,0,L|101:196,1,15.7499995193482
111,203,84776,1,0,0:0:0:0:
206,261,84963,1,0,0:0:0:0:
360,194,85151,1,0,0:0:0:0:
376,2,85338,1,0,0:0:0:0:
363,32,85526,6,0,L|360:14,1,18.3749994392395
249,163,85713,6,0,L|253:145,1,18.3749994392395
438,303,85901,6,0,L|435:285,1,18.3749994392395
304,372,86276,5,0,0:0:0:0:
296,345,86369,1,0,0:0:0:0:
256,293,86463,5,0,0:0:0:0:
264,320,86556,1,0,0:0:0:0:
189,374,86651,5,0,0:0:0:0:
168,370,86744,1,0,0:0:0:0:
98,353,86838,1,0,0:0:0:0:
77,349,86931,1,0,0:0:0:0:
0,378,87026,5,0,0:0:0:0:
65,329,87401,1,0,0:0:0:0:
7,265,87776,1,0,0:0:0:0:
103,191,87963,1,0,0:0:0:0:
0,86,88151,1,0,0:0:0:0:
139,0,88338,1,0,0:0:0:0:
114,180,88526,6,0,B|129:164|129:164|120:88,1,90.9999958343508
102,194,89276,1,0,0:0:0:0:
246,151,89463,1,0,0:0:0:0:
364,235,89651,1,0,0:0:0:0:
346,384,89838,1,0,0:0:0:0:
338,368,90026,1,0,0:0:0:0:
374,95,90307,5,0,0:0:0:0:
382,111,90401,1,0,0:0:0:0:
385,83,90776,1,0,0:0:0:0:
279,149,90963,1,0,0:0:0:0:
404,65,91151,1,0,0:0:0:0:
512,220,91338,1,0,0:0:0:0:
497,210,91526,2,0,L|508:116,1,90.9999958343508
388,212,92276,5,0,0:0:0:0:
212,287,92463,1,0,0:0:0:0:
68,170,92651,1,0,0:0:0:0:
213,263,92838,1,0,0:0:0:0:
53,181,93026,6,0,B|64:100|64:100|52:76,1,90.9999958343508
48,101,93776,1,0,0:0:0:0:
76,284,93963,1,0,0:0:0:0:
74,277,94057,1,0,0:0:0:0:
81,255,94151,1,0,0:0:0:0:
7,353,94338,1,0,0:0:0:0:
184,174,94526,6,0,L|296:160,1,105.000004005432
298,179,95276,1,0,0:0:0:0:
421,368,95463,2,0,B|415:365|415:365|430:317,2,52.5000020027161
402,97,96026,6,0,L|405:114,1,13.125000500679
389,88,96401,1,0,0:0:0:0:
254,303,96776,5,0,0:0:0:0:
258,287,97151,1,0,0:0:0:0:
165,197,97526,5,0,0:0:0:0:
96,213,97807,1,0,0:0:0:0:
27,229,98088,1,0,0:0:0:0:
187,183,98276,6,0,B|200:186|200:186|208:194|208:194|220:198,1,29.7500005674362
453,349,98838,6,0,B|440:352|440:352|432:360|432:360|427:361,1,29.7500005674362
339,357,99026,6,0,B|358:336|358:336|341:259|341:259|354:233,1,125.999996154785
414,191,100526,2,0,B|411:171|411:171|423:184,1,29.7500005674362
248,298,100901,2,0,L|152:318,1,83.9999974365235
88,265,102026,2,0,B|94:263|94:263|101:279|101:279|95:283,1,29.7500005674362
44,196,102401,2,0,B|69:126|69:126|51:110,1,83.9999974365235
50,134,103526,6,0,L|22:123,1,29.7500005674362
273,120,103901,6,0,L|245:109,1,29.7500005674362
496,106,104276,6,0,L|468:95,1,29.7500005674362
416,41,105026,6,0,B|353:6|353:6|279:92|279:92|365:132|365:132|325:217|325:217|234:222|234:222|247:175,1,503.999984619141
425,251,106526,6,0,B|438:256|438:256|451:257|451:257|465:266,1,29.7500005674362
331,137,106901,6,0,B|291:124|291:124|233:126|233:126|192:197|192:197|128:243|128:243|70:214|70:214|62:189,1,335.999989746094
79,197,108026,5,0,0:0:0:0:
138,264,108213,2,0,L|143:299,1,35
49,186,108588,2,0,L|44:143,1,35
8,303,108963,6,0,L|-3:370,1,52.5000020027161
0,354,109338,6,0,B|94:335|94:335|120:292|120:292|193:313|193:313|138:181|138:181|316:96|316:96|306:208|306:208|319:240|319:240|299:212|299:212|193:150|193:150|156:158|156:158|103:113|103:113|-1:209|-1:209|30:216|30:216|41:230|41:230|79:238,1,1196.99996803665
72,236,111401,5,0,0:0:0:0:
14,163,111588,2,0,B|3:149|3:149|6:128|6:128|29:140,1,44.3333321495057
97,59,111776,2,0,B|106:77|106:77|108:119,1,44.3333321495057
312,242,112151,2,0,B|316:217|316:217|312:172,1,44.3333321495057
174,163,112526,6,0,B|163:157|145:158|145:158|126:171|113:184,3,46.6666666666667
260,121,112901,1,0,0:0:0:0:
269,112,113088,1,0,0:0:0:0:
364,118,113276,5,0,0:0:0:0:
396,200,113463,1,0,0:0:0:0:
304,192,113651,2,0,P|282:195|264:208,1,35
179,297,114026,6,0,B|213:305|213:305|230:303,1,46.6666666666667
339,274,114401,2,0,B|193:210|223:383|123:390|46:334|49:271,1,350
108,176,115526,5,0,0:0:0:0:
130,273,115713,1,0,0:0:0:0:
37,332,115901,1,0,0:0:0:0:
31,214,116088,1,0,0:0:0:0:
46,318,116276,2,0,L|42:363,1,35
22,225,116651,2,0,L|26:161,1,35
143,105,117026,6,0,B|155:116|155:116|66:125,1,90.9999958343508
26,62,117588,1,0,0:0:0:0:
164,119,117776,2,0,B|172:127|172:127|110:133,1,44.3333321495057
106,41,118151,2,0,P|109:19|113:14,2,17.5
276,185,118526,6,0,B|252:175|252:175|253:140|253:140|242:120|242:120|240:92,1,105
352,108,119276,6,0,B|370:111|370:111|373:122|373:122|362:129|362:129|353:121,1,44.3333321495057
285,197,119463,1,0,0:0:0:0:
351,243,119651,2,0,L|417:248,1,35
480,265,120026,6,0,B|498:286|498:286|503:405,1,125.999996154785
434,367,120588,1,0,0:0:0:0:
337,354,120776,2,0,B|310:354|310:354|302:353|302:353|289:365,1,44.3333321495057
246,151,121151,6,0,B|250:158|250:158|241:209|241:209|254:233,2,70
168,110,122088,1,0,0:0:0:0:
169,182,122276,1,0,0:0:0:0:
93,136,122463,1,0,0:0:0:0:
324,144,122651,2,0,L|324:126,3,11.6666666666667
467,48,123026,6,0,B|448:42|448:42|385:52,2,56
454,129,123588,1,0,0:0:0:0:
304,159,123776,2,0,B|271:164|271:164|253:156,1,44.3333321495057
232,40,123963,1,0,0:0:0:0:
370,55,124151,2,0,B|382:79|382:79|390:119,1,44.3333321495057
425,202,124338,1,0,0:0:0:0:
295,283,124526,6,0,B|273:292|273:292|207:286,1,56
116,225,124901,2,0,B|95:228|95:228|85:222|85:222|55:230,1,44.3333321495057
253,189,125088,1,0,0:0:0:0:
336,119,125276,1,0,0:0:0:0:
279,214,125463,1,0,0:0:0:0:
162,159,125651,2,0,B|167:138|167:138|163:133|163:133|170:89,1,44.3333321495057
231,96,125838,1,0,0:0:0:0:
376,245,126026,2,0,B|379:269|379:269|371:332,1,56
236,348,126401,6,0,B|254:361|254:361|287:370,1,44.3333321495057
365,384,126588,1,0,0:0:0:0:
473,316,126776,6,0,B|463:259|463:259|446:318,1,112
505,379,127338,1,0,0:0:0:0:
346,238,127526,6,0,L|287:246,2,56
423,162,128088,1,0,0:0:0:0:
316,40,128276,2,0,B|304:60|304:60|304:113,1,56
256,160,128651,2,0,B|228:168|228:168|201:167,1,44.3333321495057
129,114,128838,1,0,0:0:0:0:
206,19,129026,5,0,0:0:0:0:
215,88,129213,1,0,0:0:0:0:
100,179,129401,1,0,0:0:0:0:
124,34,129588,1,0,0:0:0:0:
0,155,129776,5,0,0:0:0:0:
110,193,129963,1,0,0:0:0:0:
113,22,130151,1,0,0:0:0:0:
17,28,130338,1,0,0:0:0:0:
183,103,130526,5,0,0:0:0:0:
214,110,130713,1,0,0:0:0:0:
223,43,130901,1,0,0:0:0:0:
196,68,131088,1,0,0:0:0:0:
234,211,131276,5,0,0:0:0:0:
298,82,131463,1,0,0:0:0:0:
394,174,131651,1,0,0:0:0:0:
371,109,131838,1,0,0:0:0:0:
253,186,132026,2,0,L|251:256,1,56
324,352,132401,6,0,B|306:331|306:331|291:326|291:326|275:318,1,44.3333321495057
157,303,132588,1,0,0:0:0:0:
287,361,132776,6,0,B|312:363|312:363|358:335,1,70
412,276,133338,1,0,0:0:0:0:
283,197,133526,1,0,0:0:0:0:
213,248,133713,1,0,0:0:0:0:
189,242,133901,1,0,0:0:0:0:
338,327,134088,1,0,0:0:0:0:
374,158,134276,2,0,B|371:102|371:102|356:72,1,70
94,42,135026,5,0,0:0:0:0:
151,100,135213,1,0,0:0:0:0:
281,83,135401,1,0,0:0:0:0:
348,13,135588,1,0,0:0:0:0:
222,13,135776,5,0,0:0:0:0:
208,156,135963,1,0,0:0:0:0:
212,42,136151,1,0,0:0:0:0:
237,180,136338,1,0,0:0:0:0:
92,132,136526,5,0,0:0:0:0:
20,162,136713,1,0,0:0:0:0:
31,239,136901,1,0,0:0:0:0:
100,266,137088,1,0,0:0:0:0:
260,313,137276,5,0,0:0:0:0:
156,383,137463,1,0,0:0:0:0:
45,322,137651,1,0,0:0:0:0:
90,192,137838,1,0,0:0:0:0:
243,172,138026,5,0,0:0:0:0:
261,171,138213,1,0,0:0:0:0:
274,182,138401,1,0,0:0:0:0:
275,201,138588,1,0,0:0:0:0:
188,274,138776,5,0,0:0:0:0:
175,142,138963,1,0,0:0:0:0:
305,92,139151,1,0,0:0:0:0:
407,172,139338,1,0,0:0:0:0:
381,288,139526,5,0,0:0:0:0:
381,278,139713,1,0,0:0:0:0:
390,292,139901,1,0,0:0:0:0:
396,276,140088,1,0,0:0:0:0:
499,171,140276,6,0,B|507:199|507:199|504:243,2,70
369,103,141213,1,0,0:0:0:0:
444,109,141401,1,0,0:0:0:0:
484,43,141588,1,0,0:0:0:0:
324,20,141776,6,0,L|239:39,1,70
95,70,142338,1,0,0:0:0:0:
209,138,142526,5,0,0:0:0:0:
170,47,142713,1,0,0:0:0:0:
62,57,142901,1,0,0:0:0:0:
22,154,143088,1,0,0:0:0:0:
154,202,143276,5,0,0:0:0:0:
118,104,143463,1,0,0:0:0:0:
122,240,143651,1,0,0:0:0:0:
133,113,143838,1,0,0:0:0:0:
36,216,144026,5,0,0:0:0:0:
56,212,144213,1,0,0:0:0:0:
55,190,144401,1,0,0:0:0:0:
32,192,144588,1,0,0:0:0:0:
116,243,144776,5,0,0:0:0:0:
225,268,144963,1,0,0:0:0:0:
136,349,145151,1,0,0:0:0:0:
21,320,145338,1,0,0:0:0:0:
132,224,145526,5,0,0:0:0:0:
232,356,145713,1,0,0:0:0:0:
102,364,145901,1,0,0:0:0:0:
167,298,146088,1,0,0:0:0:0:
211,169,146276,5,0,0:0:0:0:
190,174,146369,1,0,0:0:0:0:
161,209,146463,1,0,0:0:0:0:
133,203,146557,1,0,0:0:0:0:
75,158,146651,1,0,0:0:0:0:
104,169,146744,1,0,0:0:0:0:
70,207,146838,1,0,0:0:0:0:
38,207,146932,1,0,0:0:0:0:
38,207,147026,5,0,0:0:0:0:
38,207,147213,1,0,0:0:0:0:
38,207,147401,1,0,0:0:0:0:
38,207,147588,1,0,0:0:0:0:
164,350,147776,5,0,0:0:0:0:
175,312,147869,1,0,0:0:0:0:
137,298,147963,1,0,0:0:0:0:
126,336,148056,1,0,0:0:0:0:
186,341,148151,5,0,0:0:0:0:
169,291,148244,1,0,0:0:0:0:
118,304,148338,1,0,0:0:0:0:
134,354,148431,1,0,0:0:0:0:
165,335,148526,5,0,0:0:0:0:
165,335,148713,1,0,0:0:0:0:
165,335,148901,1,0,0:0:0:0:
165,335,149088,1,0,0:0:0:0:
340,180,149276,6,0,B|351:174|351:174|344:209|344:209|336:196,1,56
344,83,149463,5,0,0:0:0:0:
354,45,149557,1,0,0:0:0:0:
290,125,149651,1,0,0:0:0:0:
295,102,149745,1,0,0:0:0:0:
241,147,149838,1,0,0:0:0:0:
245,135,149932,1,0,0:0:0:0:
222,151,150026,5,0,0:0:0:0:
223,151,150213,1,0,0:0:0:0:
223,151,150401,1,0,0:0:0:0:
223,151,150588,1,0,0:0:0:0:
338,272,150776,5,0,0:0:0:0:
376,264,150869,1,0,0:0:0:0:
452,271,150963,5,0,0:0:0:0:
414,279,151056,1,0,0:0:0:0:
379,349,151151,1,0,0:0:0:0:
379,349,151244,1,0,0:0:0:0:
379,349,151338,1,0,0:0:0:0:
379,349,151432,1,0,0:0:0:0:
379,349,151526,6,0,B|399:315|399:315|394:299,1,52.5000020027161
328,257,151713,2,0,B|318:218|318:218|306:212,1,52.5000020027161
188,259,151901,6,0,B|168:225|168:225|173:209,1,52.5000020027161
239,167,152088,2,0,B|248:128|248:128|260:122,1,52.5000020027161
444,80,152276,5,0,0:0:0:0:
396,98,152369,1,0,0:0:0:0:
376,50,152463,1,0,0:0:0:0:
424,32,152556,1,0,0:0:0:0:
424,110,152651,1,0,0:0:0:0:
421,130,152744,1,0,0:0:0:0:
418,150,152838,1,0,0:0:0:0:
415,170,152932,1,0,0:0:0:0:
415,170,153026,6,0,B|386:167|363:184|363:184,1,52.5000020027161
287,191,153213,2,0,B|316:188|338:205|338:205,1,52.5000020027161
487,285,153401,6,0,B|483:274|483:274|485:223|485:223|480:212,1,62.9999980773926
468,304,153588,2,0,B|468:305|468:305|465:355|465:355|469:366,1,62.9999980773926
388,286,153776,5,0,0:0:0:0:
388,286,153869,1,0,0:0:0:0:
323,321,153963,1,0,0:0:0:0:
323,321,154057,1,0,0:0:0:0:
264,273,154151,5,0,0:0:0:0:
252,267,154244,1,0,0:0:0:0:
182,327,154338,5,0,0:0:0:0:
156,339,154432,1,0,0:0:0:0:
187,305,154526,2,0,B|191:320|191:320|187:337|187:337|190:350,1,45.4999979171754
77,250,154713,2,0,B|73:266|73:266|77:286|77:286|71:306,1,52.5000020027161
231,175,154901,2,0,B|278:163|278:163|295:177,1,66.4999982242585
215,165,155088,2,0,B|168:177|168:177|151:163,1,66.4999982242585
124,97,155276,6,0,B|132:117|132:117|124:150,7,52.5000020027161
178,47,156026,5,0,0:0:0:0:
198,45,156119,1,0,0:0:0:0:
232,58,156213,1,0,0:0:0:0:
268,53,156307,1,0,0:0:0:0:
306,80,156401,1,0,0:0:0:0:
300,126,156494,1,0,0:0:0:0:
331,168,156588,1,0,0:0:0:0:
383,161,156682,1,0,0:0:0:0:
459,105,156776,5,0,0:0:0:0:
443,128,156869,1,0,0:0:0:0:
457,152,156963,1,0,0:0:0:0:
474,129,157057,1,0,0:0:0:0:
391,59,157151,5,0,0:0:0:0:
376,64,157244,1,0,0:0:0:0:
360,68,157338,1,0,0:0:0:0:
344,72,157432,1,0,0:0:0:0:
261,130,157526,6,0,B|270:117|270:117|266:88|266:88|278:58,1,68.2500002603531
319,312,157713,6,0,B|337:357|317:328|336:384,1,68.2500002603531
171,218,157901,6,0,B|162:223|162:223|119:233|119:233|139:242,1,68.2500002603531
375,166,158088,6,0,B|410:168|422:142|422:142|448:147,1,68.2500002603531
275,225,158276,5,0,0:0:0:0:
275,225,158369,1,0,0:0:0:0:
275,225,158463,1,0,0:0:0:0:
275,225,158557,1,0,0:0:0:0:
275,225,158651,1,0,0:0:0:0:
275,225,158744,1,0,0:0:0:0:
275,225,158838,1,0,0:0:0:0:
275,225,158932,1,0,0:0:0:0:
275,225,159026,2,0,B|285:263|437:206|453:255,1,178.500003404617
261,202,159776,6,0,B|254:194|254:194|209:199,1,45.4999979171754
336,130,159963,2,0,B|343:122|343:122|377:125,1,45.4999979171754
259,77,160151,5,0,0:0:0:0:
254,59,160244,1,0,0:0:0:0:
246,23,160338,1,0,0:0:0:0:
241,5,160431,1,0,0:0:0:0:
160,83,160526,6,0,B|122:94|122:94|53:44|53:44|-4:45,1,178.500003404617
181,64,161276,2,0,L|173:8,1,48.9999985046387
109,204,161463,2,0,L|115:252,1,48.9999985046387
190,133,161651,6,0,B|195:121|195:121|198:77,1,48.9999985046387
120,178,161838,6,0,B|121:214|121:214|127:225,1,48.9999985046387
102,163,162026,1,0,0:0:0:0:
322,341,162307,1,0,0:0:0:0:
291,356,162401,1,0,0:0:0:0:
352,340,162776,1,0,0:0:0:0:
210,267,162963,1,0,0:0:0:0:
224,112,163151,1,0,0:0:0:0:
323,38,163338,1,0,0:0:0:0:
421,109,163526,6,0,B|400:100|400:100|352:117|352:117|325:107,1,97.9999970092774
442,103,164088,1,0,0:0:0:0:
298,101,164276,2,0,L|348:91,1,48.9999985046387
464,93,164651,2,0,L|514:83,1,48.9999985046387
223,43,165026,6,0,B|70:24|70:24|36:40,1,178.500003404617
239,31,165776,1,0,0:0:0:0:
158,113,165901,1,0,0:0:0:0:
158,113,165963,1,0,0:0:0:0:
290,171,166151,5,0,0:0:0:0:
139,108,166276,1,0,0:0:0:0:
139,108,166338,1,0,0:0:0:0:
21,187,166526,2,0,B|81:178|81:178|143:210|143:210|169:197|169:197|203:207,1,178.500003404617
201,215,167276,1,0,0:0:0:0:
329,298,167463,1,0,0:0:0:0:
469,223,167651,1,0,0:0:0:0:
457,75,167838,1,0,0:0:0:0:
383,33,168026,6,0,B|427:45|442:81|429:119,1,110.249996635437
353,22,168401,2,0,L|319:29,1,23.6250000901222
310,42,168776,1,0,0:0:0:0:
168,7,168963,1,0,0:0:0:0:
59,163,169151,1,0,0:0:0:0:
145,5,169338,1,0,0:0:0:0:
244,168,169526,6,0,B|231:137|231:137|245:84|245:84|228:43,1,119.000002269745
233,55,170276,1,0,0:0:0:0:
325,236,170463,1,0,0:0:0:0:
168,333,170651,1,0,0:0:0:0:
76,152,170838,1,0,0:0:0:0:
84,145,171026,6,0,B|133:158|133:158|129:140,1,59.5000011348725
45,295,171401,2,0,B|94:282|94:282|90:300,1,59.5000011348725
150,340,171776,1,0,0:0:0:0:
237,209,171901,1,0,0:0:0:0:
237,209,171963,1,0,0:0:0:0:
362,297,172151,5,0,0:0:0:0:
214,228,172276,1,0,0:0:0:0:
214,228,172338,1,0,0:0:0:0:
376,311,172526,2,0,B|414:307|414:307|463:283|463:283|498:297,1,119.000002269745
481,307,173276,1,0,0:0:0:0:
356,225,173463,1,0,0:0:0:0:
411,62,173651,1,0,0:0:0:0:
330,224,173838,1,0,0:0:0:0:
321,239,174026,1,0,0:0:0:0:
79,364,174307,5,0,0:0:0:0:
71,338,174401,1,0,0:0:0:0:
62,364,174776,1,0,0:0:0:0:
171,269,174963,1,0,0:0:0:0:
34,160,175151,1,0,0:0:0:0:
218,141,175338,1,0,0:0:0:0:
46,177,175526,2,0,B|144:186|144:186|161:202,1,119.000002269745
144,207,176276,5,0,0:0:0:0:
114,51,176463,1,0,0:0:0:0:
175,200,176651,1,0,0:0:0:0:
87,348,176838,1,0,0:0:0:0:
68,334,177026,6,0,B|125:278|205:337|165:374,1,141.750000540733
46,320,177401,2,0,B|46:312|46:312|44:288,1,26.2500010013581
23,286,177776,5,0,0:0:0:0:
173,200,177901,1,0,0:0:0:0:
173,200,177963,1,0,0:0:0:0:
298,287,178151,5,0,0:0:0:0:
148,193,178276,1,0,0:0:0:0:
148,193,178338,1,0,0:0:0:0:
296,310,178526,2,0,B|269:304|269:304|230:339|230:339|169:353,1,119.000002269745
320,299,179276,5,0,0:0:0:0:
399,248,179463,1,0,0:0:0:0:
321,168,179651,1,0,0:0:0:0:
400,117,179838,1,0,0:0:0:0:
325,188,180026,2,0,B|341:172|401:212|424:196,1,97.9999970092774
258,228,180776,5,0,0:0:0:0:
165,153,180963,1,0,0:0:0:0:
14,228,181151,1,0,0:0:0:0:
51,359,181338,1,0,0:0:0:0:
185,309,181526,6,0,B|174:312|174:312|169:319|169:319|150:328,1,28
31,368,181901,2,0,L|36:337,1,26.2500010013581
208,312,182088,6,0,B|219:315|219:315|224:322|224:322|243:331,1,28
256,322,182276,5,0,0:0:0:0:
120,238,182463,1,0,0:0:0:0:
177,73,182651,1,0,0:0:0:0:
378,58,182838,1,0,0:0:0:0:
422,178,183026,6,0,B|405:167|405:167|392:168|392:168|361:166,1,37.3333333333333
209,220,183213,2,0,P|228:212|272:216,1,37.3333333333333
411,312,183401,1,0,0:0:0:0:
411,312,183776,5,0,0:0:0:0:
325,207,183963,1,0,0:0:0:0:
188,244,184151,1,0,0:0:0:0:
160,374,184338,1,0,0:0:0:0:
268,288,184526,5,0,0:0:0:0:
268,288,184901,5,0,0:0:0:0:
268,288,185276,1,0,0:0:0:0:
131,304,185463,1,0,0:0:0:0:
60,213,185651,1,0,0:0:0:0:
144,218,185838,1,0,0:0:0:0:
111,280,186026,2,0,B|106:299|106:299|107:306|107:306|109:327,1,37.3333333333333
222,193,186338,5,0,0:0:0:0:
225,186,186401,2,0,L|226:133,1,37.3333333333333
136,70,186776,1,0,0:0:0:0:
205,159,186963,1,0,0:0:0:0:
322,111,187151,1,0,0:0:0:0:
214,135,187338,1,0,0:0:0:0:
116,80,187526,6,0,P|57:79|1:134,1,132.999996448517
129,69,188276,1,0,0:0:0:0:
160,76,188463,1,0,0:0:0:0:
284,38,188651,1,0,0:0:0:0:
195,50,188838,1,0,0:0:0:0:
334,117,189026,6,0,B|354:109|359:83|359:83|313:113|265:122,1,132.999996448517
193,167,189588,1,0,0:0:0:0:
318,223,189776,5,0,0:0:0:0:
393,157,189963,1,0,0:0:0:0:
291,200,190151,1,0,0:0:0:0:
306,303,190338,1,0,0:0:0:0:
421,344,190526,2,0,B|432:298|387:256|462:237,1,132.999996448517
463,237,191276,5,0,0:0:0:0:
478,248,191463,1,0,0:0:0:0:
504,171,191651,1,0,0:0:0:0:
501,157,191838,1,0,0:0:0:0:
389,111,192026,6,0,B|363:111|363:111|360:118|360:118|330:126,1,37.3333333333333
224,167,192213,2,0,B|242:167|242:167|271:172,1,37.3333333333333
355,239,192401,2,0,B|353:219|353:219|341:192,1,37.3333333333333
177,98,192588,2,0,B|176:79|176:79|178:46,1,37.3333333333333
312,18,192776,2,0,B|327:20|327:20|347:36,1,37.3333333333333
272,99,192963,5,0,0:0:0:0:
107,78,193151,1,0,0:0:0:0:
46,191,193338,1,0,0:0:0:0:
171,266,193526,6,0,B|179:291|179:291|182:327,1,37.3333333333333
59,364,193713,2,0,B|42:343|42:343|34:320,1,37.3333333333333
187,216,193901,2,0,B|184:238|184:238|174:271,1,37.3333333333333
0,162,194088,2,0,B|15:142|15:142|50:139,1,37.3333333333333
236,138,194276,5,0,0:0:0:0:
260,266,194651,1,0,0:0:0:0:
469,205,195026,6,0,L|441:140,1,37.3333333333333
396,51,195213,2,0,L|391:123,1,37.3333333333333
441,263,195401,2,0,L|466:204,1,37.3333333333333
323,80,195588,2,0,L|334:138,1,37.3333333333333
301,195,195776,5,0,0:0:0:0:
416,151,195901,1,0,0:0:0:0:
407,147,195963,1,0,0:0:0:0:
325,284,196151,1,0,0:0:0:0:
478,374,196338,1,0,0:0:0:0:
296,277,196526,6,0,B|271:281|271:281|246:301,1,37.3333333333333
157,344,196713,2,0,B|147:336|147:336|122:332,1,37.3333333333333
22,243,196901,2,0,B|36:242|36:242|69:255,1,37.3333333333333
172,333,197088,2,0,B|186:337|186:337|223:327,1,37.3333333333333
310,226,197276,6,0,B|310:206|310:206|303:178,1,37.3333333333333
183,135,197463,1,0,0:0:0:0:
171,172,197651,1,0,0:0:0:0:
194,196,197838,1,0,0:0:0:0:
171,105,198026,6,0,B|168:83|168:83|167:47,1,37.3333333333333
246,0,198213,2,0,B|245:15|245:15|242:37,1,37.3333333333333
98,130,198401,2,0,B|111:115|111:115|137:102,1,37.3333333333333
301,145,198588,2,0,B|322:141|322:141|367:124,1,37.3333333333333
180,209,198776,6,0,B|172:229|172:229|167:267,1,37.3333333333333
189,336,198963,1,0,0:0:0:0:
252,257,199151,1,0,0:0:0:0:
178,173,199338,1,0,0:0:0:0:
106,259,199526,6,0,B|80:270|80:270|52:274,1,37.3333333333333
200,156,199713,2,0,B|191:182|191:182|176:207,1,37.3333333333333
54,283,199901,6,0,B|50:311|50:311|39:337,1,37.3333333333333
11,150,200088,2,0,B|30:170|30:170|43:195,1,37.3333333333333
192,287,200276,6,0,P|220:286|246:276,1,37.3333333333333
311,201,200463,1,0,0:0:0:0:
309,166,200651,1,0,0:0:0:0:
278,142,200838,1,0,0:0:0:0:
167,160,201026,6,0,B|131:158|131:158|110:147,1,37.3333333333333
31,41,201213,2,0,B|50:54|50:54|71:98,1,37.3333333333333
68,228,201401,2,0,B|66:206|66:206|73:180,1,37.3333333333333
217,40,201588,2,0,B|223:60|223:60|223:94,1,37.3333333333333
219,212,201776,6,0,B|233:217|233:217|259:218,1,37.3333333333333
337,204,201963,1,0,0:0:0:0:
367,122,202151,1,0,0:0:0:0:
308,53,202338,1,0,0:0:0:0:
205,18,202526,6,0,B|179:21|179:21|162:35,1,37.3333333333333
334,54,202713,2,0,B|342:49|342:49|370:47,1,37.3333333333333
188,133,202901,2,0,B|164:133|164:133|134:156,1,37.3333333333333
344,73,203088,2,0,B|358:60|358:60|379:31,1,37.3333333333333
238,200,203276,6,0,B|257:204|257:204|297:204,1,37.3333333333333
465,142,203463,1,0,0:0:0:0:
408,70,203651,1,0,0:0:0:0:
324,108,203838,1,0,0:0:0:0:
385,204,204026,6,0,L|389:276,1,70
436,359,204588,2,0,B|451:356|451:356|452:341|452:341|431:344,1,35
338,351,204963,1,0,0:0:0:0:
286,260,205151,1,0,0:0:0:0:
251,384,205338,1,0,0:0:0:0:
237,383,205401,1,0,0:0:0:0:
142,313,205526,1,0,0:0:0:0:
215,316,205713,1,0,0:0:0:0:
200,226,205901,1,0,0:0:0:0:
189,228,205963,1,0,0:0:0:0:
91,183,206088,1,0,0:0:0:0:
230,93,206276,1,0,0:0:0:0:
220,103,206463,1,0,0:0:0:0:
224,113,206651,1,0,0:0:0:0:
235,106,206838,1,0,0:0:0:0:
256,192,207026,12,0,213026,0:0:0:0:
