osu file format v14

[General]
AudioFilename: audio.ogg
AudioLeadIn: 0
PreviewTime: 17856
Countdown: 0
SampleSet: Soft
StackLeniency: 0.7
Mode: 3
LetterboxInBreaks: 0
SpecialStyle: 0
WidescreenStoryboard: 1

[Editor]
Bookmarks: 9141,14856,18284,36570,54856,73142,82284,91427,100570
DistanceSpacing: 1.5
BeatDivisor: 4
GridSize: 4
TimelineZoom: 1.5

[Metadata]
Title:davay rasskazhem (ily Frenchcore Remix) (Sped Up Ver.)
TitleUnicode:давай расскажем (ily Frenchcore Remix) (Sped Up Ver.)
Artist:trinadtsat' karat
ArtistUnicode:тринадцать карат
Creator:keksikosu
Version:(~.~) // flade's extra
Source:
Tags:russian русский electronic hardcore хардкор hardstyle nightcore 13 причин почему davai trinadcat' stamina chordjack chordjacks chord chords jack jacks cj rice Flade
BeatmapID:4374754
BeatmapSetID:2087660

[Difficulty]
HPDrainRate:8
CircleSize:4
OverallDifficulty:8
ApproachRate:5
SliderMultiplier:1.4
SliderTickRate:1

[Events]
//Background and Video events
0,0,"fladenyashka.jpg",0,0
//Break Periods
//Storyboard Layer 0 (Background)
//Storyboard Layer 1 (Fail)
//Storyboard Layer 2 (Pass)
//Storyboard Layer 3 (Foreground)
//Storyboard Layer 4 (Overlay)
//Storyboard Sound Samples

[TimingPoints]
9142,285.714285714286,4,2,1,40,1,0
18284,-100,4,2,1,50,0,1
26284,-100,4,2,1,40,0,0
27427,-100,4,2,1,50,0,1
35427,-100,4,2,1,40,0,0
54856,-100,4,2,1,50,0,1
62856,-100,4,2,1,40,0,0
63999,-100,4,2,1,50,0,1
71999,-100,4,2,1,40,0,0
100570,-100,4,2,1,50,0,1
108570,-100,4,2,1,40,0,0
109713,-100,4,2,1,50,0,1
117713,-100,4,2,1,40,0,0

[HitObjects]
448,192,8713,5,0,0:0:0:0:
448,192,8856,1,0,0:0:0:0:
192,192,8999,1,0,0:0:0:0:
320,192,9141,1,0,0:0:0:0:
448,192,9141,1,0,0:0:0:0:
64,192,9141,1,0,0:0:0:0:
320,192,9284,1,0,0:0:0:0:
448,192,9427,1,0,0:0:0:0:
64,192,9427,1,0,0:0:0:0:
192,192,9427,1,0,0:0:0:0:
192,192,9570,1,0,0:0:0:0:
320,192,9713,1,0,0:0:0:0:
64,192,9856,1,0,0:0:0:0:
320,192,9856,1,0,0:0:0:0:
448,192,9999,1,0,0:0:0:0:
64,192,9999,1,0,0:0:0:0:
192,192,9999,1,0,0:0:0:0:
448,192,10141,1,0,0:0:0:0:
192,192,10284,1,0,0:0:0:0:
320,192,10284,1,0,0:0:0:0:
192,192,10427,1,0,0:0:0:0:
320,192,10570,1,0,0:0:0:0:
64,192,10570,1,0,0:0:0:0:
448,192,10570,1,0,0:0:0:0:
320,192,10713,1,0,0:0:0:0:
192,192,10856,1,0,0:0:0:0:
192,192,10999,1,0,0:0:0:0:
448,192,10999,1,0,0:0:0:0:
320,192,11141,1,0,0:0:0:0:
64,192,11141,1,0,0:0:0:0:
448,192,11141,1,0,0:0:0:0:
64,192,11284,1,0,0:0:0:0:
320,192,11427,1,0,0:0:0:0:
192,192,11427,1,0,0:0:0:0:
320,192,11570,1,0,0:0:0:0:
64,192,11713,1,0,0:0:0:0:
192,192,11713,1,0,0:0:0:0:
448,192,11713,1,0,0:0:0:0:
64,192,11856,1,0,0:0:0:0:
448,192,11999,1,0,0:0:0:0:
192,192,12141,1,0,0:0:0:0:
448,192,12141,1,0,0:0:0:0:
64,192,12284,1,0,0:0:0:0:
320,192,12284,1,0,0:0:0:0:
192,192,12284,1,0,0:0:0:0:
320,192,12427,1,0,0:0:0:0:
64,192,12570,1,0,0:0:0:0:
448,192,12570,1,0,0:0:0:0:
64,192,12713,1,0,0:0:0:0:
320,192,12856,1,0,0:0:0:0:
192,192,12856,1,0,0:0:0:0:
448,192,12856,1,0,0:0:0:0:
320,192,12999,1,0,0:0:0:0:
64,192,13141,1,0,0:0:0:0:
64,192,13284,1,0,0:0:0:0:
448,192,13284,1,0,0:0:0:0:
320,192,13427,1,0,0:0:0:0:
192,192,13427,1,0,0:0:0:0:
448,192,13427,1,0,0:0:0:0:
192,192,13570,1,0,0:0:0:0:
64,192,13713,1,0,0:0:0:0:
320,192,13713,1,0,0:0:0:0:
320,192,13856,1,0,0:0:0:0:
64,192,13999,1,0,0:0:0:0:
192,192,13999,1,0,0:0:0:0:
448,192,13999,1,0,0:0:0:0:
64,192,14142,1,0,0:0:0:0:
320,192,14284,1,0,0:0:0:0:
320,192,14427,1,0,0:0:0:0:
192,192,14427,1,0,0:0:0:0:
64,192,14570,1,0,0:0:0:0:
192,192,14570,1,0,0:0:0:0:
448,192,14570,1,0,0:0:0:0:
448,192,14713,1,0,0:0:0:0:
320,192,14856,1,0,0:0:0:0:
64,192,14856,1,0,0:0:0:0:
64,192,14999,1,0,0:0:0:0:
320,192,15142,1,0,0:0:0:0:
192,192,15142,1,0,0:0:0:0:
448,192,15142,1,0,0:0:0:0:
320,192,15284,1,0,0:0:0:0:
64,192,15427,1,0,0:0:0:0:
192,192,15499,1,0,0:0:0:0:
64,192,15570,1,0,0:0:0:0:
320,192,15570,1,0,0:0:0:0:
320,192,15713,1,0,0:0:0:0:
192,192,15713,1,0,0:0:0:0:
448,192,15713,1,0,0:0:0:0:
448,192,15856,1,0,0:0:0:0:
64,192,15927,1,0,0:0:0:0:
320,192,15999,1,0,0:0:0:0:
192,192,15999,1,0,0:0:0:0:
320,192,16142,1,0,0:0:0:0:
192,192,16213,1,0,0:0:0:0:
320,192,16284,1,0,0:0:0:0:
64,192,16284,1,0,0:0:0:0:
448,192,16284,1,0,0:0:0:0:
448,192,16427,1,0,0:0:0:0:
320,192,16499,1,0,0:0:0:0:
64,192,16570,1,0,0:0:0:0:
192,192,16642,1,0,0:0:0:0:
320,192,16713,1,0,0:0:0:0:
448,192,16713,1,0,0:0:0:0:
192,192,16784,1,0,0:0:0:0:
320,192,16856,1,0,0:0:0:0:
64,192,16856,1,0,0:0:0:0:
448,192,16856,1,0,0:0:0:0:
192,192,16999,1,0,0:0:0:0:
320,192,17070,1,0,0:0:0:0:
64,192,17142,1,0,0:0:0:0:
448,192,17142,1,0,0:0:0:0:
192,192,17284,1,0,0:0:0:0:
320,192,17570,1,0,0:0:0:0:
192,192,17606,1,0,0:0:0:0:
448,192,17856,1,0,0:0:0:0:
192,192,17856,1,0,0:0:0:0:
448,192,17999,1,0,0:0:0:0:
64,192,17999,1,0,0:0:0:0:
64,192,18142,1,0,0:0:0:0:
320,192,18142,1,0,0:0:0:0:
448,192,18284,1,0,0:0:0:0:
320,192,18284,1,0,0:0:0:0:
192,192,18284,1,0,0:0:0:0:
448,192,18427,1,0,0:0:0:0:
64,192,18427,1,0,0:0:0:0:
64,192,18570,1,0,0:0:0:0:
320,192,18570,1,0,0:0:0:0:
192,192,18570,1,0,0:0:0:0:
448,192,18713,1,0,0:0:0:0:
192,192,18713,1,0,0:0:0:0:
448,192,18856,1,0,0:0:0:0:
64,192,18856,1,0,0:0:0:0:
320,192,18856,1,0,0:0:0:0:
64,192,18999,1,0,0:0:0:0:
192,192,18999,1,0,0:0:0:0:
64,192,19142,1,0,0:0:0:0:
192,192,19142,1,0,0:0:0:0:
448,192,19142,1,0,0:0:0:0:
320,192,19284,1,0,0:0:0:0:
448,192,19284,1,0,0:0:0:0:
448,192,19427,1,0,0:0:0:0:
320,192,19427,1,0,0:0:0:0:
64,192,19427,1,0,0:0:0:0:
192,192,19570,1,0,0:0:0:0:
320,192,19570,1,0,0:0:0:0:
448,192,19713,1,0,0:0:0:0:
192,192,19713,1,0,0:0:0:0:
64,192,19713,1,0,0:0:0:0:
64,192,19856,1,0,0:0:0:0:
320,192,19856,1,0,0:0:0:0:
448,192,19999,1,0,0:0:0:0:
192,192,19999,1,0,0:0:0:0:
320,192,19999,1,0,0:0:0:0:
64,192,20142,1,0,0:0:0:0:
448,192,20142,1,0,0:0:0:0:
320,192,20284,1,0,0:0:0:0:
192,192,20284,1,0,0:0:0:0:
64,192,20284,1,0,0:0:0:0:
320,192,20427,1,0,0:0:0:0:
192,192,20427,1,0,0:0:0:0:
320,192,20570,1,0,0:0:0:0:
448,192,20570,1,0,0:0:0:0:
64,192,20570,1,0,0:0:0:0:
448,192,20713,1,0,0:0:0:0:
64,192,20713,1,0,0:0:0:0:
64,192,20856,1,0,0:0:0:0:
192,192,20856,1,0,0:0:0:0:
320,192,20856,1,0,0:0:0:0:
448,192,20999,1,0,0:0:0:0:
192,192,20999,1,0,0:0:0:0:
448,192,21142,1,0,0:0:0:0:
64,192,21142,1,0,0:0:0:0:
320,192,21142,1,0,0:0:0:0:
192,192,21284,1,0,0:0:0:0:
64,192,21284,1,0,0:0:0:0:
64,192,21427,1,0,0:0:0:0:
192,192,21427,1,0,0:0:0:0:
320,192,21427,1,0,0:0:0:0:
320,192,21570,1,0,0:0:0:0:
448,192,21570,1,0,0:0:0:0:
192,192,21713,1,0,0:0:0:0:
320,192,21713,1,0,0:0:0:0:
448,192,21713,1,0,0:0:0:0:
64,192,21856,1,0,0:0:0:0:
448,192,21856,1,0,0:0:0:0:
192,192,21999,1,0,0:0:0:0:
64,192,21999,1,0,0:0:0:0:
320,192,21999,1,0,0:0:0:0:
448,192,22142,1,0,0:0:0:0:
192,192,22142,1,0,0:0:0:0:
448,192,22284,1,0,0:0:0:0:
64,192,22284,1,0,0:0:0:0:
320,192,22284,1,0,0:0:0:0:
192,192,22427,1,0,0:0:0:0:
320,192,22427,1,0,0:0:0:0:
64,192,22570,1,0,0:0:0:0:
192,192,22570,1,0,0:0:0:0:
448,192,22570,1,0,0:0:0:0:
192,192,22713,1,0,0:0:0:0:
448,192,22713,1,0,0:0:0:0:
64,192,22713,1,0,0:0:0:0:
320,192,22856,1,0,0:0:0:0:
64,192,22856,1,0,0:0:0:0:
448,192,22856,1,0,0:0:0:0:
192,192,22999,1,0,0:0:0:0:
320,192,22999,1,0,0:0:0:0:
448,192,23142,1,0,0:0:0:0:
64,192,23142,1,0,0:0:0:0:
192,192,23142,1,0,0:0:0:0:
448,192,23284,1,0,0:0:0:0:
320,192,23284,1,0,0:0:0:0:
64,192,23427,1,0,0:0:0:0:
192,192,23427,1,0,0:0:0:0:
320,192,23427,1,0,0:0:0:0:
192,192,23570,1,0,0:0:0:0:
448,192,23570,1,0,0:0:0:0:
192,192,23713,1,0,0:0:0:0:
64,192,23713,1,0,0:0:0:0:
448,192,23713,1,0,0:0:0:0:
64,192,23856,1,0,0:0:0:0:
320,192,23856,1,0,0:0:0:0:
64,192,23999,1,0,0:0:0:0:
320,192,23999,1,0,0:0:0:0:
448,192,23999,1,0,0:0:0:0:
320,192,24142,1,0,0:0:0:0:
192,192,24142,1,0,0:0:0:0:
64,192,24284,1,0,0:0:0:0:
192,192,24284,1,0,0:0:0:0:
448,192,24284,1,0,0:0:0:0:
448,192,24427,1,0,0:0:0:0:
320,192,24427,1,0,0:0:0:0:
320,192,24570,1,0,0:0:0:0:
64,192,24570,1,0,0:0:0:0:
192,192,24570,1,0,0:0:0:0:
448,192,24713,1,0,0:0:0:0:
64,192,24713,1,0,0:0:0:0:
320,192,24856,1,0,0:0:0:0:
448,192,24856,1,0,0:0:0:0:
192,192,24856,1,0,0:0:0:0:
64,192,24999,1,0,0:0:0:0:
192,192,24999,1,0,0:0:0:0:
64,192,25142,1,0,0:0:0:0:
320,192,25142,1,0,0:0:0:0:
448,192,25142,1,0,0:0:0:0:
448,192,25284,1,0,0:0:0:0:
192,192,25284,1,0,0:0:0:0:
64,192,25427,1,0,0:0:0:0:
320,192,25427,1,0,0:0:0:0:
192,192,25427,1,0,0:0:0:0:
320,192,25570,1,0,0:0:0:0:
448,192,25570,1,0,0:0:0:0:
448,192,25713,1,0,0:0:0:0:
192,192,25713,1,0,0:0:0:0:
64,192,25713,1,0,0:0:0:0:
320,192,25856,1,0,0:0:0:0:
64,192,25856,1,0,0:0:0:0:
320,192,25999,1,0,0:0:0:0:
448,192,25999,1,0,0:0:0:0:
192,192,25999,1,0,0:0:0:0:
64,192,26142,1,0,0:0:0:0:
192,192,26142,1,0,0:0:0:0:
192,192,26284,1,0,0:0:0:0:
64,192,26284,1,0,0:0:0:0:
448,192,26284,1,0,0:0:0:0:
448,192,26570,1,0,0:0:0:0:
64,192,26570,1,0,0:0:0:0:
320,192,26570,1,0,0:0:0:0:
448,192,26713,1,0,0:0:0:0:
192,192,26713,1,0,0:0:0:0:
64,192,26856,1,0,0:0:0:0:
192,192,26856,1,0,0:0:0:0:
320,192,26856,1,0,0:0:0:0:
320,192,26999,1,0,0:0:0:0:
64,192,26999,1,0,0:0:0:0:
192,192,26999,1,0,0:0:0:0:
320,192,27142,1,0,0:0:0:0:
448,192,27142,1,0,0:0:0:0:
64,192,27213,1,0,0:0:0:0:
192,192,27213,1,0,0:0:0:0:
320,192,27284,1,0,0:0:0:0:
448,192,27284,1,0,0:0:0:0:
192,192,27356,1,0,0:0:0:0:
64,192,27427,1,0,0:0:0:0:
448,192,27427,1,0,0:0:0:0:
320,192,27427,1,0,0:0:0:0:
448,192,27570,1,0,0:0:0:0:
64,192,27570,1,0,0:0:0:0:
192,192,27570,1,0,0:0:0:0:
192,192,27713,1,0,0:0:0:0:
320,192,27713,1,0,0:0:0:0:
448,192,27713,1,0,0:0:0:0:
64,192,27713,1,0,0:0:0:0:
192,192,27856,1,0,0:0:0:0:
320,192,27856,1,0,0:0:0:0:
320,192,27999,1,0,0:0:0:0:
64,192,27999,1,0,0:0:0:0:
448,192,27999,1,0,0:0:0:0:
448,192,28142,1,0,0:0:0:0:
192,192,28142,1,0,0:0:0:0:
448,192,28284,1,0,0:0:0:0:
192,192,28284,1,0,0:0:0:0:
320,192,28284,1,0,0:0:0:0:
64,192,28284,1,0,0:0:0:0:
64,192,28427,1,0,0:0:0:0:
320,192,28427,1,0,0:0:0:0:
320,192,28570,1,0,0:0:0:0:
192,192,28570,1,0,0:0:0:0:
64,192,28570,1,0,0:0:0:0:
448,192,28713,1,0,0:0:0:0:
320,192,28713,1,0,0:0:0:0:
320,192,28856,1,0,0:0:0:0:
192,192,28856,1,0,0:0:0:0:
448,192,28856,1,0,0:0:0:0:
64,192,28856,1,0,0:0:0:0:
192,192,28999,1,0,0:0:0:0:
64,192,28999,1,0,0:0:0:0:
64,192,29142,1,0,0:0:0:0:
448,192,29142,1,0,0:0:0:0:
320,192,29142,1,0,0:0:0:0:
192,192,29284,1,0,0:0:0:0:
448,192,29284,1,0,0:0:0:0:
448,192,29427,1,0,0:0:0:0:
192,192,29427,1,0,0:0:0:0:
320,192,29427,1,0,0:0:0:0:
64,192,29427,1,0,0:0:0:0:
64,192,29570,1,0,0:0:0:0:
448,192,29570,1,0,0:0:0:0:
64,192,29713,1,0,0:0:0:0:
192,192,29713,1,0,0:0:0:0:
320,192,29713,1,0,0:0:0:0:
192,192,29856,1,0,0:0:0:0:
320,192,29856,1,0,0:0:0:0:
320,192,29999,1,0,0:0:0:0:
192,192,29999,1,0,0:0:0:0:
448,192,29999,1,0,0:0:0:0:
64,192,29999,1,0,0:0:0:0:
448,192,30142,1,0,0:0:0:0:
192,192,30142,1,0,0:0:0:0:
320,192,30284,1,0,0:0:0:0:
64,192,30284,1,0,0:0:0:0:
448,192,30284,1,0,0:0:0:0:
192,192,30427,1,0,0:0:0:0:
64,192,30427,1,0,0:0:0:0:
448,192,30570,1,0,0:0:0:0:
192,192,30570,1,0,0:0:0:0:
320,192,30570,1,0,0:0:0:0:
64,192,30570,1,0,0:0:0:0:
448,192,30713,1,0,0:0:0:0:
320,192,30713,1,0,0:0:0:0:
448,192,30856,1,0,0:0:0:0:
64,192,30856,1,0,0:0:0:0:
320,192,30856,1,0,0:0:0:0:
192,192,30999,1,0,0:0:0:0:
320,192,30999,1,0,0:0:0:0:
320,192,31142,1,0,0:0:0:0:
192,192,31142,1,0,0:0:0:0:
448,192,31142,1,0,0:0:0:0:
64,192,31142,1,0,0:0:0:0:
64,192,31284,1,0,0:0:0:0:
448,192,31284,1,0,0:0:0:0:
320,192,31427,1,0,0:0:0:0:
192,192,31427,1,0,0:0:0:0:
448,192,31427,1,0,0:0:0:0:
64,192,31427,1,0,0:0:0:0:
320,192,31570,1,0,0:0:0:0:
192,192,31570,1,0,0:0:0:0:
192,192,31713,1,0,0:0:0:0:
64,192,31713,1,0,0:0:0:0:
448,192,31713,1,0,0:0:0:0:
320,192,31713,1,0,0:0:0:0:
448,192,31856,1,0,0:0:0:0:
64,192,31856,1,0,0:0:0:0:
192,192,31856,1,0,0:0:0:0:
64,192,31999,1,0,0:0:0:0:
192,192,31999,1,0,0:0:0:0:
448,192,31999,1,0,0:0:0:0:
64,192,32142,1,0,0:0:0:0:
320,192,32142,1,0,0:0:0:0:
320,192,32284,1,0,0:0:0:0:
192,192,32284,1,0,0:0:0:0:
448,192,32284,1,0,0:0:0:0:
64,192,32284,1,0,0:0:0:0:
192,192,32427,1,0,0:0:0:0:
448,192,32427,1,0,0:0:0:0:
320,192,32570,1,0,0:0:0:0:
192,192,32570,1,0,0:0:0:0:
64,192,32570,1,0,0:0:0:0:
448,192,32713,1,0,0:0:0:0:
320,192,32713,1,0,0:0:0:0:
448,192,32856,1,0,0:0:0:0:
192,192,32856,1,0,0:0:0:0:
320,192,32856,1,0,0:0:0:0:
64,192,32856,1,0,0:0:0:0:
64,192,32999,1,0,0:0:0:0:
192,192,32999,1,0,0:0:0:0:
448,192,33142,1,0,0:0:0:0:
64,192,33142,1,0,0:0:0:0:
192,192,33142,1,0,0:0:0:0:
192,192,33284,1,0,0:0:0:0:
320,192,33284,1,0,0:0:0:0:
320,192,33427,1,0,0:0:0:0:
192,192,33427,1,0,0:0:0:0:
448,192,33427,1,0,0:0:0:0:
64,192,33427,1,0,0:0:0:0:
448,192,33570,1,0,0:0:0:0:
64,192,33570,1,0,0:0:0:0:
448,192,33713,1,0,0:0:0:0:
192,192,33713,1,0,0:0:0:0:
320,192,33713,1,0,0:0:0:0:
64,192,33856,1,0,0:0:0:0:
320,192,33856,1,0,0:0:0:0:
448,192,33999,1,0,0:0:0:0:
192,192,33999,1,0,0:0:0:0:
320,192,33999,1,0,0:0:0:0:
64,192,33999,1,0,0:0:0:0:
448,192,34142,1,0,0:0:0:0:
192,192,34142,1,0,0:0:0:0:
192,192,34284,1,0,0:0:0:0:
64,192,34284,1,0,0:0:0:0:
320,192,34284,1,0,0:0:0:0:
64,192,34427,1,0,0:0:0:0:
448,192,34427,1,0,0:0:0:0:
320,192,34570,1,0,0:0:0:0:
192,192,34570,1,0,0:0:0:0:
448,192,34570,1,0,0:0:0:0:
64,192,34570,1,0,0:0:0:0:
192,192,34713,1,0,0:0:0:0:
320,192,34713,1,0,0:0:0:0:
64,192,34856,1,0,0:0:0:0:
320,192,34856,1,0,0:0:0:0:
448,192,34856,1,0,0:0:0:0:
192,192,34999,1,0,0:0:0:0:
64,192,34999,1,0,0:0:0:0:
448,192,35142,1,0,0:0:0:0:
192,192,35142,1,0,0:0:0:0:
320,192,35142,1,0,0:0:0:0:
64,192,35142,1,0,0:0:0:0:
448,192,35284,1,0,0:0:0:0:
320,192,35284,1,0,0:0:0:0:
448,192,35427,1,0,0:0:0:0:
320,192,35427,1,0,0:0:0:0:
64,192,35427,1,0,0:0:0:0:
320,192,35713,1,0,0:0:0:0:
192,192,35713,1,0,0:0:0:0:
448,192,35713,1,0,0:0:0:0:
64,192,35713,1,0,0:0:0:0:
192,192,35856,1,0,0:0:0:0:
448,192,35856,1,0,0:0:0:0:
320,192,35999,1,0,0:0:0:0:
192,192,35999,1,0,0:0:0:0:
64,192,35999,1,0,0:0:0:0:
320,192,36142,1,0,0:0:0:0:
64,192,36142,1,0,0:0:0:0:
192,192,36142,1,0,0:0:0:0:
448,192,36284,1,0,0:0:0:0:
320,192,36284,1,0,0:0:0:0:
192,192,36356,1,0,0:0:0:0:
64,192,36356,1,0,0:0:0:0:
448,192,36427,1,0,0:0:0:0:
320,192,36427,1,0,0:0:0:0:
192,192,36499,1,0,0:0:0:0:
64,192,36499,1,0,0:0:0:0:
448,192,36570,1,0,0:0:0:0:
64,192,36856,1,0,0:0:0:0:
192,192,36856,1,0,0:0:0:0:
448,192,36856,1,0,0:0:0:0:
320,192,37142,1,0,0:0:0:0:
192,192,37142,1,0,0:0:0:0:
192,192,37284,1,0,0:0:0:0:
320,192,37284,1,0,0:0:0:0:
320,192,37427,1,0,0:0:0:0:
64,192,37427,1,0,0:0:0:0:
448,192,37427,1,0,0:0:0:0:
192,192,37570,1,0,0:0:0:0:
448,192,37713,1,0,0:0:0:0:
64,192,37713,1,0,0:0:0:0:
320,192,37856,1,0,0:0:0:0:
192,192,37999,1,0,0:0:0:0:
64,192,37999,1,0,0:0:0:0:
448,192,37999,1,0,0:0:0:0:
64,192,38142,1,0,0:0:0:0:
320,192,38142,1,0,0:0:0:0:
64,192,38427,1,0,0:0:0:0:
320,192,38427,1,0,0:0:0:0:
448,192,38570,1,0,0:0:0:0:
64,192,38570,1,0,0:0:0:0:
192,192,38570,1,0,0:0:0:0:
320,192,38713,1,0,0:0:0:0:
448,192,38856,1,0,0:0:0:0:
64,192,38856,1,0,0:0:0:0:
448,192,39142,1,0,0:0:0:0:
320,192,39142,1,0,0:0:0:0:
64,192,39142,1,0,0:0:0:0:
192,192,39213,1,0,0:0:0:0:
320,192,39284,1,0,0:0:0:0:
448,192,39356,1,0,0:0:0:0:
64,192,39427,1,0,0:0:0:0:
192,192,39427,1,0,0:0:0:0:
64,192,39570,1,0,0:0:0:0:
192,192,39570,1,0,0:0:0:0:
448,192,39713,1,0,0:0:0:0:
64,192,39713,1,0,0:0:0:0:
320,192,39713,1,0,0:0:0:0:
192,192,39784,1,0,0:0:0:0:
320,192,39856,1,0,0:0:0:0:
448,192,39927,1,0,0:0:0:0:
64,192,39999,1,0,0:0:0:0:
192,192,39999,1,0,0:0:0:0:
448,192,40284,1,0,0:0:0:0:
192,192,40284,1,0,0:0:0:0:
64,192,40284,1,0,0:0:0:0:
320,192,40356,1,0,0:0:0:0:
448,192,40427,1,0,0:0:0:0:
64,192,40427,1,0,0:0:0:0:
192,192,40499,1,0,0:0:0:0:
448,192,40713,1,0,0:0:0:0:
320,192,40713,1,0,0:0:0:0:
448,192,40856,1,0,0:0:0:0:
64,192,40856,1,0,0:0:0:0:
192,192,40856,1,0,0:0:0:0:
64,192,40999,1,0,0:0:0:0:
448,192,40999,1,0,0:0:0:0:
192,192,40999,1,0,0:0:0:0:
64,192,41142,1,0,0:0:0:0:
320,192,41142,1,0,0:0:0:0:
448,192,41427,1,0,0:0:0:0:
192,192,41427,1,0,0:0:0:0:
64,192,41427,1,0,0:0:0:0:
448,192,41570,1,0,0:0:0:0:
64,192,41713,1,0,0:0:0:0:
192,192,41713,1,0,0:0:0:0:
192,192,41856,1,0,0:0:0:0:
64,192,41856,1,0,0:0:0:0:
192,192,41999,1,0,0:0:0:0:
320,192,41999,1,0,0:0:0:0:
448,192,41999,1,0,0:0:0:0:
64,192,42142,1,0,0:0:0:0:
448,192,42284,1,0,0:0:0:0:
320,192,42284,1,0,0:0:0:0:
192,192,42427,1,0,0:0:0:0:
448,192,42570,1,0,0:0:0:0:
320,192,42570,1,0,0:0:0:0:
64,192,42570,1,0,0:0:0:0:
448,192,42713,1,0,0:0:0:0:
192,192,42713,1,0,0:0:0:0:
448,192,42999,1,0,0:0:0:0:
192,192,42999,1,0,0:0:0:0:
448,192,43142,1,0,0:0:0:0:
64,192,43142,1,0,0:0:0:0:
320,192,43142,1,0,0:0:0:0:
192,192,43284,1,0,0:0:0:0:
448,192,43427,1,0,0:0:0:0:
320,192,43427,1,0,0:0:0:0:
320,192,43713,1,0,0:0:0:0:
64,192,43713,1,0,0:0:0:0:
192,192,43713,1,0,0:0:0:0:
192,192,43856,1,0,0:0:0:0:
448,192,43999,1,0,0:0:0:0:
64,192,43999,1,0,0:0:0:0:
64,192,44142,1,0,0:0:0:0:
448,192,44142,1,0,0:0:0:0:
320,192,44284,1,0,0:0:0:0:
192,192,44284,1,0,0:0:0:0:
448,192,44284,1,0,0:0:0:0:
320,192,44427,1,0,0:0:0:0:
192,192,44570,1,0,0:0:0:0:
64,192,44570,1,0,0:0:0:0:
448,192,44856,1,0,0:0:0:0:
320,192,44856,1,0,0:0:0:0:
64,192,44856,1,0,0:0:0:0:
448,192,44999,1,0,0:0:0:0:
192,192,44999,1,0,0:0:0:0:
192,192,45142,1,0,0:0:0:0:
320,192,45142,1,0,0:0:0:0:
64,192,45142,1,0,0:0:0:0:
448,192,45284,1,0,0:0:0:0:
64,192,45284,1,0,0:0:0:0:
448,192,45427,1,0,0:0:0:0:
320,192,45427,1,0,0:0:0:0:
192,192,45427,1,0,0:0:0:0:
320,192,45570,1,0,0:0:0:0:
64,192,45570,1,0,0:0:0:0:
448,192,45713,1,0,0:0:0:0:
64,192,45713,1,0,0:0:0:0:
448,192,45999,1,0,0:0:0:0:
64,192,45999,1,0,0:0:0:0:
192,192,45999,1,0,0:0:0:0:
320,192,46142,1,0,0:0:0:0:
448,192,46284,1,0,0:0:0:0:
192,192,46284,1,0,0:0:0:0:
192,192,46427,1,0,0:0:0:0:
448,192,46427,1,0,0:0:0:0:
448,192,46570,1,0,0:0:0:0:
320,192,46570,1,0,0:0:0:0:
64,192,46570,1,0,0:0:0:0:
192,192,46713,1,0,0:0:0:0:
448,192,46856,1,0,0:0:0:0:
320,192,46856,1,0,0:0:0:0:
64,192,46999,1,0,0:0:0:0:
448,192,47142,1,0,0:0:0:0:
320,192,47142,1,0,0:0:0:0:
192,192,47142,1,0,0:0:0:0:
448,192,47284,1,0,0:0:0:0:
64,192,47284,1,0,0:0:0:0:
448,192,47570,1,0,0:0:0:0:
64,192,47570,1,0,0:0:0:0:
448,192,47713,1,0,0:0:0:0:
320,192,47713,1,0,0:0:0:0:
192,192,47713,1,0,0:0:0:0:
64,192,47856,1,0,0:0:0:0:
192,192,47999,1,0,0:0:0:0:
320,192,47999,1,0,0:0:0:0:
448,192,48284,1,0,0:0:0:0:
64,192,48284,1,0,0:0:0:0:
320,192,48284,1,0,0:0:0:0:
192,192,48427,1,0,0:0:0:0:
64,192,48570,1,0,0:0:0:0:
320,192,48570,1,0,0:0:0:0:
320,192,48713,1,0,0:0:0:0:
64,192,48713,1,0,0:0:0:0:
448,192,48856,1,0,0:0:0:0:
192,192,48856,1,0,0:0:0:0:
64,192,48856,1,0,0:0:0:0:
320,192,48999,1,0,0:0:0:0:
448,192,49142,1,0,0:0:0:0:
64,192,49142,1,0,0:0:0:0:
192,192,49284,1,0,0:0:0:0:
448,192,49427,1,0,0:0:0:0:
320,192,49427,1,0,0:0:0:0:
64,192,49427,1,0,0:0:0:0:
320,192,49570,1,0,0:0:0:0:
192,192,49570,1,0,0:0:0:0:
192,192,49856,1,0,0:0:0:0:
320,192,49856,1,0,0:0:0:0:
192,192,49999,1,0,0:0:0:0:
448,192,49999,1,0,0:0:0:0:
64,192,49999,1,0,0:0:0:0:
448,192,50142,1,0,0:0:0:0:
192,192,50142,1,0,0:0:0:0:
64,192,50142,1,0,0:0:0:0:
64,192,50284,1,0,0:0:0:0:
320,192,50284,1,0,0:0:0:0:
192,192,50427,1,0,0:0:0:0:
448,192,50570,1,0,0:0:0:0:
320,192,50570,1,0,0:0:0:0:
64,192,50570,1,0,0:0:0:0:
192,192,50713,1,0,0:0:0:0:
448,192,50856,1,0,0:0:0:0:
320,192,50856,1,0,0:0:0:0:
320,192,50999,1,0,0:0:0:0:
448,192,50999,1,0,0:0:0:0:
448,192,51142,1,0,0:0:0:0:
64,192,51142,1,0,0:0:0:0:
192,192,51142,1,0,0:0:0:0:
320,192,51284,1,0,0:0:0:0:
192,192,51427,1,0,0:0:0:0:
64,192,51427,1,0,0:0:0:0:
448,192,51570,1,0,0:0:0:0:
64,192,51713,1,0,0:0:0:0:
192,192,51713,1,0,0:0:0:0:
320,192,51713,1,0,0:0:0:0:
64,192,51856,1,0,0:0:0:0:
448,192,51856,1,0,0:0:0:0:
448,192,52142,1,0,0:0:0:0:
64,192,52142,1,0,0:0:0:0:
64,192,52284,1,0,0:0:0:0:
320,192,52284,1,0,0:0:0:0:
192,192,52284,1,0,0:0:0:0:
448,192,52427,1,0,0:0:0:0:
192,192,52570,1,0,0:0:0:0:
320,192,52570,1,0,0:0:0:0:
448,192,52856,1,0,0:0:0:0:
320,192,52856,1,0,0:0:0:0:
192,192,52856,1,0,0:0:0:0:
64,192,52999,1,0,0:0:0:0:
192,192,53142,1,0,0:0:0:0:
320,192,53142,1,0,0:0:0:0:
320,192,53284,5,0,0:0:0:0:
192,192,53284,1,0,0:0:0:0:
448,192,53427,1,0,0:0:0:0:
320,192,53427,1,0,0:0:0:0:
64,192,53427,1,0,0:0:0:0:
192,192,53570,1,0,0:0:0:0:
448,192,53713,1,0,0:0:0:0:
320,192,53713,1,0,0:0:0:0:
64,192,53856,1,0,0:0:0:0:
448,192,53999,1,0,0:0:0:0:
320,192,53999,1,0,0:0:0:0:
192,192,53999,1,0,0:0:0:0:
320,192,54142,1,0,0:0:0:0:
64,192,54142,1,0,0:0:0:0:
448,192,54284,1,0,0:0:0:0:
192,192,54284,1,0,0:0:0:0:
64,192,54284,1,0,0:0:0:0:
192,192,54427,5,0,0:0:0:0:
320,192,54427,1,0,0:0:0:0:
64,192,54570,1,0,0:0:0:0:
448,192,54570,1,0,0:0:0:0:
320,192,54570,1,0,0:0:0:0:
448,192,54713,1,0,0:0:0:0:
192,192,54713,1,0,0:0:0:0:
320,192,54856,1,0,0:0:0:0:
192,192,54856,1,0,0:0:0:0:
64,192,54856,1,0,0:0:0:0:
448,192,54999,1,0,0:0:0:0:
64,192,54999,1,0,0:0:0:0:
320,192,55142,1,0,0:0:0:0:
192,192,55142,1,0,0:0:0:0:
448,192,55142,1,0,0:0:0:0:
320,192,55284,1,0,0:0:0:0:
64,192,55284,1,0,0:0:0:0:
192,192,55427,1,0,0:0:0:0:
448,192,55427,1,0,0:0:0:0:
64,192,55427,1,0,0:0:0:0:
320,192,55570,1,0,0:0:0:0:
448,192,55570,1,0,0:0:0:0:
64,192,55713,1,0,0:0:0:0:
320,192,55713,1,0,0:0:0:0:
448,192,55713,1,0,0:0:0:0:
64,192,55856,1,0,0:0:0:0:
192,192,55856,1,0,0:0:0:0:
448,192,55999,1,0,0:0:0:0:
192,192,55999,1,0,0:0:0:0:
64,192,55999,1,0,0:0:0:0:
192,192,56142,1,0,0:0:0:0:
320,192,56142,1,0,0:0:0:0:
448,192,56284,1,0,0:0:0:0:
320,192,56284,1,0,0:0:0:0:
64,192,56284,1,0,0:0:0:0:
192,192,56427,1,0,0:0:0:0:
448,192,56427,1,0,0:0:0:0:
192,192,56570,1,0,0:0:0:0:
320,192,56570,1,0,0:0:0:0:
64,192,56570,1,0,0:0:0:0:
64,192,56713,1,0,0:0:0:0:
448,192,56713,1,0,0:0:0:0:
448,192,56856,1,0,0:0:0:0:
320,192,56856,1,0,0:0:0:0:
192,192,56856,1,0,0:0:0:0:
320,192,56999,1,0,0:0:0:0:
192,192,56999,1,0,0:0:0:0:
448,192,57142,1,0,0:0:0:0:
64,192,57142,1,0,0:0:0:0:
192,192,57142,1,0,0:0:0:0:
448,192,57284,1,0,0:0:0:0:
64,192,57284,1,0,0:0:0:0:
192,192,57427,1,0,0:0:0:0:
320,192,57427,1,0,0:0:0:0:
448,192,57427,1,0,0:0:0:0:
320,192,57570,1,0,0:0:0:0:
64,192,57570,1,0,0:0:0:0:
192,192,57713,1,0,0:0:0:0:
448,192,57713,1,0,0:0:0:0:
64,192,57713,1,0,0:0:0:0:
448,192,57856,1,0,0:0:0:0:
320,192,57856,1,0,0:0:0:0:
192,192,57999,1,0,0:0:0:0:
320,192,57999,1,0,0:0:0:0:
448,192,57999,1,0,0:0:0:0:
64,192,58142,1,0,0:0:0:0:
192,192,58142,1,0,0:0:0:0:
64,192,58284,1,0,0:0:0:0:
192,192,58284,1,0,0:0:0:0:
320,192,58284,1,0,0:0:0:0:
64,192,58427,1,0,0:0:0:0:
448,192,58427,1,0,0:0:0:0:
192,192,58570,1,0,0:0:0:0:
448,192,58570,1,0,0:0:0:0:
320,192,58570,1,0,0:0:0:0:
320,192,58713,1,0,0:0:0:0:
64,192,58713,1,0,0:0:0:0:
192,192,58856,1,0,0:0:0:0:
448,192,58856,1,0,0:0:0:0:
64,192,58856,1,0,0:0:0:0:
192,192,58999,1,0,0:0:0:0:
320,192,58999,1,0,0:0:0:0:
64,192,59142,1,0,0:0:0:0:
320,192,59142,1,0,0:0:0:0:
448,192,59142,1,0,0:0:0:0:
448,192,59284,1,0,0:0:0:0:
64,192,59284,1,0,0:0:0:0:
320,192,59284,1,0,0:0:0:0:
64,192,59427,1,0,0:0:0:0:
448,192,59427,1,0,0:0:0:0:
192,192,59427,1,0,0:0:0:0:
192,192,59570,1,0,0:0:0:0:
320,192,59570,1,0,0:0:0:0:
320,192,59713,1,0,0:0:0:0:
448,192,59713,1,0,0:0:0:0:
64,192,59713,1,0,0:0:0:0:
192,192,59856,1,0,0:0:0:0:
64,192,59856,1,0,0:0:0:0:
192,192,59999,1,0,0:0:0:0:
320,192,59999,1,0,0:0:0:0:
448,192,59999,1,0,0:0:0:0:
64,192,60142,1,0,0:0:0:0:
320,192,60142,1,0,0:0:0:0:
64,192,60284,1,0,0:0:0:0:
448,192,60284,1,0,0:0:0:0:
320,192,60284,1,0,0:0:0:0:
192,192,60427,1,0,0:0:0:0:
448,192,60427,1,0,0:0:0:0:
64,192,60570,1,0,0:0:0:0:
192,192,60570,1,0,0:0:0:0:
448,192,60570,1,0,0:0:0:0:
320,192,60713,1,0,0:0:0:0:
192,192,60713,1,0,0:0:0:0:
64,192,60856,1,0,0:0:0:0:
320,192,60856,1,0,0:0:0:0:
448,192,60856,1,0,0:0:0:0:
192,192,60999,1,0,0:0:0:0:
64,192,60999,1,0,0:0:0:0:
320,192,61142,1,0,0:0:0:0:
448,192,61142,1,0,0:0:0:0:
192,192,61142,1,0,0:0:0:0:
448,192,61284,1,0,0:0:0:0:
64,192,61284,1,0,0:0:0:0:
320,192,61427,1,0,0:0:0:0:
64,192,61427,1,0,0:0:0:0:
192,192,61427,1,0,0:0:0:0:
320,192,61570,1,0,0:0:0:0:
448,192,61570,1,0,0:0:0:0:
64,192,61713,1,0,0:0:0:0:
192,192,61713,1,0,0:0:0:0:
448,192,61713,1,0,0:0:0:0:
320,192,61856,1,0,0:0:0:0:
64,192,61856,1,0,0:0:0:0:
320,192,61999,1,0,0:0:0:0:
192,192,61999,1,0,0:0:0:0:
448,192,61999,1,0,0:0:0:0:
64,192,62142,1,0,0:0:0:0:
192,192,62142,1,0,0:0:0:0:
448,192,62284,1,0,0:0:0:0:
320,192,62284,1,0,0:0:0:0:
64,192,62284,1,0,0:0:0:0:
448,192,62427,1,0,0:0:0:0:
192,192,62427,1,0,0:0:0:0:
320,192,62570,1,0,0:0:0:0:
64,192,62570,1,0,0:0:0:0:
192,192,62570,1,0,0:0:0:0:
320,192,62713,1,0,0:0:0:0:
448,192,62713,1,0,0:0:0:0:
64,192,62856,1,0,0:0:0:0:
448,192,62856,1,0,0:0:0:0:
320,192,62856,1,0,0:0:0:0:
64,192,63142,1,0,0:0:0:0:
448,192,63142,1,0,0:0:0:0:
192,192,63142,1,0,0:0:0:0:
64,192,63284,1,0,0:0:0:0:
320,192,63284,1,0,0:0:0:0:
448,192,63427,1,0,0:0:0:0:
320,192,63427,1,0,0:0:0:0:
192,192,63427,1,0,0:0:0:0:
192,192,63570,1,0,0:0:0:0:
448,192,63570,1,0,0:0:0:0:
320,192,63570,1,0,0:0:0:0:
192,192,63713,1,0,0:0:0:0:
64,192,63713,1,0,0:0:0:0:
448,192,63784,1,0,0:0:0:0:
320,192,63784,1,0,0:0:0:0:
192,192,63856,1,0,0:0:0:0:
64,192,63856,1,0,0:0:0:0:
320,192,63927,1,0,0:0:0:0:
448,192,63999,1,0,0:0:0:0:
64,192,63999,1,0,0:0:0:0:
192,192,63999,1,0,0:0:0:0:
64,192,64142,1,0,0:0:0:0:
448,192,64142,1,0,0:0:0:0:
320,192,64142,1,0,0:0:0:0:
320,192,64284,1,0,0:0:0:0:
192,192,64284,1,0,0:0:0:0:
64,192,64284,1,0,0:0:0:0:
448,192,64284,1,0,0:0:0:0:
320,192,64427,1,0,0:0:0:0:
192,192,64427,1,0,0:0:0:0:
192,192,64570,1,0,0:0:0:0:
448,192,64570,1,0,0:0:0:0:
64,192,64570,1,0,0:0:0:0:
64,192,64713,1,0,0:0:0:0:
320,192,64713,1,0,0:0:0:0:
64,192,64856,1,0,0:0:0:0:
320,192,64856,1,0,0:0:0:0:
192,192,64856,1,0,0:0:0:0:
448,192,64856,1,0,0:0:0:0:
448,192,64999,1,0,0:0:0:0:
192,192,64999,1,0,0:0:0:0:
192,192,65142,1,0,0:0:0:0:
320,192,65142,1,0,0:0:0:0:
448,192,65142,1,0,0:0:0:0:
64,192,65284,1,0,0:0:0:0:
192,192,65284,1,0,0:0:0:0:
192,192,65427,1,0,0:0:0:0:
320,192,65427,1,0,0:0:0:0:
64,192,65427,1,0,0:0:0:0:
448,192,65427,1,0,0:0:0:0:
320,192,65570,1,0,0:0:0:0:
448,192,65570,1,0,0:0:0:0:
448,192,65713,1,0,0:0:0:0:
64,192,65713,1,0,0:0:0:0:
192,192,65713,1,0,0:0:0:0:
320,192,65856,1,0,0:0:0:0:
64,192,65856,1,0,0:0:0:0:
64,192,65999,1,0,0:0:0:0:
320,192,65999,1,0,0:0:0:0:
192,192,65999,1,0,0:0:0:0:
448,192,65999,1,0,0:0:0:0:
448,192,66142,1,0,0:0:0:0:
64,192,66142,1,0,0:0:0:0:
448,192,66284,1,0,0:0:0:0:
320,192,66284,1,0,0:0:0:0:
192,192,66284,1,0,0:0:0:0:
320,192,66427,1,0,0:0:0:0:
192,192,66427,1,0,0:0:0:0:
192,192,66570,1,0,0:0:0:0:
320,192,66570,1,0,0:0:0:0:
64,192,66570,1,0,0:0:0:0:
448,192,66570,1,0,0:0:0:0:
64,192,66713,1,0,0:0:0:0:
320,192,66713,1,0,0:0:0:0:
192,192,66856,1,0,0:0:0:0:
448,192,66856,1,0,0:0:0:0:
64,192,66856,1,0,0:0:0:0:
320,192,66999,1,0,0:0:0:0:
448,192,66999,1,0,0:0:0:0:
64,192,67142,1,0,0:0:0:0:
320,192,67142,1,0,0:0:0:0:
192,192,67142,1,0,0:0:0:0:
448,192,67142,1,0,0:0:0:0:
64,192,67284,1,0,0:0:0:0:
192,192,67284,1,0,0:0:0:0:
64,192,67427,1,0,0:0:0:0:
448,192,67427,1,0,0:0:0:0:
192,192,67427,1,0,0:0:0:0:
320,192,67570,1,0,0:0:0:0:
192,192,67570,1,0,0:0:0:0:
192,192,67713,1,0,0:0:0:0:
320,192,67713,1,0,0:0:0:0:
64,192,67713,1,0,0:0:0:0:
448,192,67713,1,0,0:0:0:0:
448,192,67856,1,0,0:0:0:0:
64,192,67856,1,0,0:0:0:0:
192,192,67999,1,0,0:0:0:0:
320,192,67999,1,0,0:0:0:0:
64,192,67999,1,0,0:0:0:0:
448,192,67999,1,0,0:0:0:0:
192,192,68142,1,0,0:0:0:0:
320,192,68142,1,0,0:0:0:0:
320,192,68284,1,0,0:0:0:0:
448,192,68284,1,0,0:0:0:0:
64,192,68284,1,0,0:0:0:0:
192,192,68284,1,0,0:0:0:0:
64,192,68427,1,0,0:0:0:0:
448,192,68427,1,0,0:0:0:0:
320,192,68427,1,0,0:0:0:0:
448,192,68570,1,0,0:0:0:0:
320,192,68570,1,0,0:0:0:0:
64,192,68570,1,0,0:0:0:0:
448,192,68713,1,0,0:0:0:0:
192,192,68713,1,0,0:0:0:0:
192,192,68856,1,0,0:0:0:0:
320,192,68856,1,0,0:0:0:0:
64,192,68856,1,0,0:0:0:0:
448,192,68856,1,0,0:0:0:0:
320,192,68999,1,0,0:0:0:0:
64,192,68999,1,0,0:0:0:0:
192,192,69142,1,0,0:0:0:0:
320,192,69142,1,0,0:0:0:0:
448,192,69142,1,0,0:0:0:0:
64,192,69284,1,0,0:0:0:0:
192,192,69284,1,0,0:0:0:0:
64,192,69427,1,0,0:0:0:0:
320,192,69427,1,0,0:0:0:0:
192,192,69427,1,0,0:0:0:0:
448,192,69427,1,0,0:0:0:0:
448,192,69570,1,0,0:0:0:0:
320,192,69570,1,0,0:0:0:0:
64,192,69713,1,0,0:0:0:0:
448,192,69713,1,0,0:0:0:0:
192,192,69713,1,0,0:0:0:0:
320,192,69856,1,0,0:0:0:0:
64,192,69856,1,0,0:0:0:0:
192,192,69999,1,0,0:0:0:0:
320,192,69999,1,0,0:0:0:0:
64,192,69999,1,0,0:0:0:0:
448,192,69999,1,0,0:0:0:0:
192,192,70142,1,0,0:0:0:0:
448,192,70142,1,0,0:0:0:0:
448,192,70284,1,0,0:0:0:0:
320,192,70284,1,0,0:0:0:0:
64,192,70284,1,0,0:0:0:0:
320,192,70427,1,0,0:0:0:0:
192,192,70427,1,0,0:0:0:0:
64,192,70570,1,0,0:0:0:0:
320,192,70570,1,0,0:0:0:0:
192,192,70570,1,0,0:0:0:0:
448,192,70570,1,0,0:0:0:0:
64,192,70713,1,0,0:0:0:0:
448,192,70713,1,0,0:0:0:0:
64,192,70856,1,0,0:0:0:0:
320,192,70856,1,0,0:0:0:0:
192,192,70856,1,0,0:0:0:0:
448,192,70999,1,0,0:0:0:0:
192,192,70999,1,0,0:0:0:0:
192,192,71142,1,0,0:0:0:0:
320,192,71142,1,0,0:0:0:0:
64,192,71142,1,0,0:0:0:0:
448,192,71142,1,0,0:0:0:0:
320,192,71284,1,0,0:0:0:0:
64,192,71284,1,0,0:0:0:0:
448,192,71427,1,0,0:0:0:0:
192,192,71427,1,0,0:0:0:0:
64,192,71427,1,0,0:0:0:0:
320,192,71570,1,0,0:0:0:0:
448,192,71570,1,0,0:0:0:0:
64,192,71713,1,0,0:0:0:0:
320,192,71713,1,0,0:0:0:0:
192,192,71713,1,0,0:0:0:0:
448,192,71713,1,0,0:0:0:0:
64,192,71856,1,0,0:0:0:0:
192,192,71856,1,0,0:0:0:0:
64,192,71999,1,0,0:0:0:0:
192,192,71999,1,0,0:0:0:0:
448,192,71999,1,0,0:0:0:0:
192,192,72284,1,0,0:0:0:0:
320,192,72284,1,0,0:0:0:0:
64,192,72284,1,0,0:0:0:0:
448,192,72284,1,0,0:0:0:0:
320,192,72427,1,0,0:0:0:0:
64,192,72427,1,0,0:0:0:0:
192,192,72570,1,0,0:0:0:0:
320,192,72570,1,0,0:0:0:0:
448,192,72570,1,0,0:0:0:0:
192,192,72713,1,0,0:0:0:0:
448,192,72713,1,0,0:0:0:0:
320,192,72713,1,0,0:0:0:0:
64,192,72856,1,0,0:0:0:0:
192,192,72856,1,0,0:0:0:0:
320,192,72927,1,0,0:0:0:0:
448,192,72927,1,0,0:0:0:0:
64,192,72999,1,0,0:0:0:0:
192,192,72999,1,0,0:0:0:0:
320,192,73070,1,0,0:0:0:0:
448,192,73070,1,0,0:0:0:0:
64,192,73142,1,0,0:0:0:0:
320,192,73856,1,0,0:0:0:0:
192,192,73927,1,0,0:0:0:0:
64,192,73999,1,0,0:0:0:0:
320,192,74142,1,0,0:0:0:0:
192,192,74189,1,0,0:0:0:0:
448,192,74237,1,0,0:0:0:0:
320,192,74284,1,0,0:0:0:0:
64,192,74427,1,0,0:0:0:0:
192,192,74499,1,0,0:0:0:0:
320,192,74570,1,0,0:0:0:0:
192,192,74713,1,0,0:0:0:0:
64,192,74761,1,0,0:0:0:0:
320,192,74808,1,0,0:0:0:0:
192,192,74856,1,0,0:0:0:0:
448,192,75142,1,0,0:0:0:0:
192,192,75284,1,0,0:0:0:0:
320,192,75356,1,0,0:0:0:0:
64,192,75427,1,0,0:0:0:0:
320,192,75499,1,0,0:0:0:0:
192,192,75570,1,0,0:0:0:0:
64,192,75713,1,0,0:0:0:0:
320,192,75856,1,0,0:0:0:0:
192,192,75927,1,0,0:0:0:0:
448,192,75999,1,0,0:0:0:0:
192,192,76070,1,0,0:0:0:0:
320,192,76142,1,0,0:0:0:0:
448,192,76284,1,0,0:0:0:0:
192,192,76427,1,0,0:0:0:0:
64,192,76499,1,0,0:0:0:0:
192,192,76570,1,0,0:0:0:0:
320,192,76642,1,0,0:0:0:0:
448,192,76713,1,0,0:0:0:0:
64,192,76856,1,0,0:0:0:0:
192,192,76999,1,0,0:0:0:0:
320,192,77070,1,0,0:0:0:0:
192,192,77142,1,0,0:0:0:0:
64,192,77213,1,0,0:0:0:0:
448,192,77284,1,0,0:0:0:0:
320,192,77356,1,0,0:0:0:0:
192,192,77427,1,0,0:0:0:0:
320,192,77570,1,0,0:0:0:0:
448,192,77618,1,0,0:0:0:0:
192,192,77665,1,0,0:0:0:0:
320,192,77713,1,0,0:0:0:0:
64,192,77927,1,0,0:0:0:0:
448,192,77999,1,0,0:0:0:0:
192,192,78142,1,0,0:0:0:0:
64,192,78189,1,0,0:0:0:0:
320,192,78237,1,0,0:0:0:0:
192,192,78284,1,0,0:0:0:0:
448,192,78427,1,0,0:0:0:0:
320,192,78499,1,0,0:0:0:0:
192,192,78570,1,0,0:0:0:0:
64,192,78713,1,0,0:0:0:0:
320,192,78784,1,0,0:0:0:0:
64,192,78856,1,0,0:0:0:0:
320,192,78927,1,0,0:0:0:0:
192,192,78999,1,0,0:0:0:0:
64,192,79070,1,0,0:0:0:0:
320,192,79142,1,0,0:0:0:0:
64,192,79213,1,0,0:0:0:0:
448,192,79284,1,0,0:0:0:0:
192,192,79356,1,0,0:0:0:0:
448,192,79427,1,0,0:0:0:0:
64,192,79713,1,0,0:0:0:0:
320,192,79856,1,0,0:0:0:0:
192,192,79927,1,0,0:0:0:0:
448,192,79999,1,0,0:0:0:0:
192,192,80070,1,0,0:0:0:0:
320,192,80142,1,0,0:0:0:0:
448,192,80284,1,0,0:0:0:0:
64,192,80427,1,0,0:0:0:0:
192,192,80499,1,0,0:0:0:0:
320,192,80570,1,0,0:0:0:0:
192,192,80642,1,0,0:0:0:0:
64,192,80713,1,0,0:0:0:0:
448,192,80856,1,0,0:0:0:0:
192,192,80999,1,0,0:0:0:0:
320,192,81070,1,0,0:0:0:0:
64,192,81142,1,0,0:0:0:0:
320,192,81213,1,0,0:0:0:0:
192,192,81284,1,0,0:0:0:0:
448,192,81356,1,0,0:0:0:0:
320,192,81427,1,0,0:0:0:0:
64,192,81618,1,0,0:0:0:0:
192,192,81665,1,0,0:0:0:0:
320,192,81713,1,0,0:0:0:0:
448,192,81856,1,0,0:0:0:0:
64,192,81999,1,0,0:0:0:0:
320,192,81999,1,0,0:0:0:0:
192,192,82142,1,0,0:0:0:0:
448,192,82284,1,0,0:0:0:0:
320,192,82284,1,0,0:0:0:0:
448,192,82427,1,0,0:0:0:0:
448,192,82570,1,0,0:0:0:0:
448,192,82713,1,0,0:0:0:0:
192,192,82856,1,0,0:0:0:0:
192,192,82999,1,0,0:0:0:0:
320,192,82999,1,0,0:0:0:0:
192,192,83142,1,0,0:0:0:0:
64,192,83142,1,0,0:0:0:0:
192,192,83284,1,0,0:0:0:0:
448,192,83284,1,0,0:0:0:0:
320,192,83427,1,0,0:0:0:0:
64,192,83427,1,0,0:0:0:0:
192,192,83570,1,0,0:0:0:0:
320,192,83570,1,0,0:0:0:0:
320,192,83713,1,0,0:0:0:0:
320,192,83856,1,0,0:0:0:0:
64,192,83999,1,0,0:0:0:0:
192,192,84142,1,0,0:0:0:0:
64,192,84142,1,0,0:0:0:0:
64,192,84284,1,0,0:0:0:0:
448,192,84284,1,0,0:0:0:0:
64,192,84427,1,0,0:0:0:0:
320,192,84427,1,0,0:0:0:0:
448,192,84570,1,0,0:0:0:0:
192,192,84570,1,0,0:0:0:0:
448,192,84713,1,0,0:0:0:0:
320,192,84713,1,0,0:0:0:0:
64,192,84856,1,0,0:0:0:0:
64,192,84999,1,0,0:0:0:0:
192,192,85142,1,0,0:0:0:0:
320,192,85284,1,0,0:0:0:0:
192,192,85284,1,0,0:0:0:0:
448,192,85427,1,0,0:0:0:0:
64,192,85570,1,0,0:0:0:0:
448,192,85570,1,0,0:0:0:0:
192,192,85713,1,0,0:0:0:0:
448,192,85856,1,0,0:0:0:0:
192,192,85856,1,0,0:0:0:0:
320,192,85999,1,0,0:0:0:0:
320,192,86142,1,0,0:0:0:0:
64,192,86142,1,0,0:0:0:0:
192,192,86284,1,0,0:0:0:0:
192,192,86427,1,0,0:0:0:0:
448,192,86427,1,0,0:0:0:0:
448,192,86570,1,0,0:0:0:0:
320,192,86570,1,0,0:0:0:0:
320,192,86713,1,0,0:0:0:0:
64,192,86713,1,0,0:0:0:0:
448,192,86856,1,0,0:0:0:0:
192,192,86856,1,0,0:0:0:0:
64,192,86999,1,0,0:0:0:0:
448,192,87142,1,0,0:0:0:0:
64,192,87284,1,0,0:0:0:0:
448,192,87427,1,0,0:0:0:0:
192,192,87570,1,0,0:0:0:0:
320,192,87570,1,0,0:0:0:0:
320,192,87713,1,0,0:0:0:0:
64,192,87713,1,0,0:0:0:0:
448,192,87856,1,0,0:0:0:0:
64,192,87856,1,0,0:0:0:0:
192,192,87999,1,0,0:0:0:0:
320,192,87999,1,0,0:0:0:0:
448,192,88142,1,0,0:0:0:0:
192,192,88142,1,0,0:0:0:0:
320,192,88284,1,0,0:0:0:0:
192,192,88427,1,0,0:0:0:0:
320,192,88570,1,0,0:0:0:0:
192,192,88713,1,0,0:0:0:0:
64,192,88713,1,0,0:0:0:0:
64,192,88856,1,0,0:0:0:0:
448,192,88856,1,0,0:0:0:0:
320,192,88999,1,0,0:0:0:0:
448,192,88999,1,0,0:0:0:0:
192,192,89142,1,0,0:0:0:0:
64,192,89142,1,0,0:0:0:0:
192,192,89284,1,0,0:0:0:0:
448,192,89284,1,0,0:0:0:0:
320,192,89427,1,0,0:0:0:0:
64,192,89570,1,0,0:0:0:0:
320,192,89713,1,0,0:0:0:0:
448,192,89856,1,0,0:0:0:0:
64,192,89856,1,0,0:0:0:0:
192,192,89999,1,0,0:0:0:0:
448,192,90142,1,0,0:0:0:0:
320,192,90142,1,0,0:0:0:0:
192,192,90427,1,0,0:0:0:0:
320,192,90427,1,0,0:0:0:0:
448,192,90713,1,0,0:0:0:0:
64,192,90713,1,0,0:0:0:0:
192,192,90784,1,0,0:0:0:0:
320,192,90856,1,0,0:0:0:0:
448,192,90927,1,0,0:0:0:0:
192,192,90999,1,0,0:0:0:0:
64,192,90999,1,0,0:0:0:0:
320,192,91142,1,0,0:0:0:0:
64,192,91142,1,0,0:0:0:0:
448,192,91284,1,0,0:0:0:0:
192,192,91284,1,0,0:0:0:0:
448,192,91427,1,0,0:0:0:0:
64,192,91427,1,0,0:0:0:0:
320,192,91427,1,0,0:0:0:0:
448,192,91713,1,0,0:0:0:0:
320,192,91713,1,0,0:0:0:0:
192,192,91713,1,0,0:0:0:0:
64,192,91713,1,0,0:0:0:0:
64,192,91999,1,0,0:0:0:0:
320,192,91999,1,0,0:0:0:0:
192,192,91999,1,0,0:0:0:0:
448,192,92284,1,0,0:0:0:0:
320,192,92284,1,0,0:0:0:0:
192,192,92284,1,0,0:0:0:0:
64,192,92284,1,0,0:0:0:0:
448,192,92570,1,0,0:0:0:0:
320,192,92570,1,0,0:0:0:0:
192,192,92570,1,0,0:0:0:0:
448,192,92856,1,0,0:0:0:0:
320,192,92856,1,0,0:0:0:0:
192,192,92856,1,0,0:0:0:0:
64,192,92856,1,0,0:0:0:0:
64,192,93142,1,0,0:0:0:0:
448,192,93142,1,0,0:0:0:0:
192,192,93142,1,0,0:0:0:0:
448,192,93427,1,0,0:0:0:0:
320,192,93427,1,0,0:0:0:0:
192,192,93427,1,0,0:0:0:0:
64,192,93427,1,0,0:0:0:0:
448,192,93713,1,0,0:0:0:0:
320,192,93713,1,0,0:0:0:0:
64,192,93713,1,0,0:0:0:0:
448,192,93999,1,0,0:0:0:0:
320,192,93999,1,0,0:0:0:0:
192,192,93999,1,0,0:0:0:0:
64,192,93999,1,0,0:0:0:0:
320,192,94284,1,0,0:0:0:0:
64,192,94284,1,0,0:0:0:0:
192,192,94284,1,0,0:0:0:0:
448,192,94570,1,0,0:0:0:0:
320,192,94570,1,0,0:0:0:0:
192,192,94570,1,0,0:0:0:0:
64,192,94570,1,0,0:0:0:0:
448,192,94856,1,0,0:0:0:0:
320,192,94856,1,0,0:0:0:0:
192,192,94856,1,0,0:0:0:0:
448,192,95142,1,0,0:0:0:0:
320,192,95142,1,0,0:0:0:0:
192,192,95142,1,0,0:0:0:0:
64,192,95142,1,0,0:0:0:0:
64,192,95427,1,0,0:0:0:0:
192,192,95427,1,0,0:0:0:0:
320,192,95427,1,0,0:0:0:0:
448,192,95713,1,0,0:0:0:0:
320,192,95713,1,0,0:0:0:0:
64,192,95713,1,0,0:0:0:0:
192,192,95713,1,0,0:0:0:0:
64,192,95856,1,0,0:0:0:0:
320,192,95856,1,0,0:0:0:0:
448,192,95856,1,0,0:0:0:0:
448,192,95999,1,0,0:0:0:0:
320,192,95999,1,0,0:0:0:0:
192,192,95999,1,0,0:0:0:0:
448,192,96284,1,0,0:0:0:0:
320,192,96284,1,0,0:0:0:0:
192,192,96284,1,0,0:0:0:0:
64,192,96284,1,0,0:0:0:0:
448,192,96570,1,0,0:0:0:0:
64,192,96570,1,0,0:0:0:0:
192,192,96570,1,0,0:0:0:0:
448,192,96856,1,0,0:0:0:0:
320,192,96856,1,0,0:0:0:0:
192,192,96856,1,0,0:0:0:0:
64,192,96856,1,0,0:0:0:0:
64,192,97142,1,0,0:0:0:0:
320,192,97142,1,0,0:0:0:0:
192,192,97142,1,0,0:0:0:0:
448,192,97427,1,0,0:0:0:0:
320,192,97427,1,0,0:0:0:0:
64,192,97427,1,0,0:0:0:0:
192,192,97427,1,0,0:0:0:0:
320,192,97713,1,0,0:0:0:0:
448,192,97713,1,0,0:0:0:0:
192,192,97713,1,0,0:0:0:0:
448,192,97999,1,0,0:0:0:0:
320,192,97999,1,0,0:0:0:0:
192,192,97999,1,0,0:0:0:0:
64,192,97999,1,0,0:0:0:0:
448,192,98284,1,0,0:0:0:0:
64,192,98284,1,0,0:0:0:0:
320,192,98284,1,0,0:0:0:0:
320,192,98427,1,0,0:0:0:0:
448,192,98427,1,0,0:0:0:0:
64,192,98427,1,0,0:0:0:0:
448,192,98570,1,0,0:0:0:0:
64,192,98570,1,0,0:0:0:0:
192,192,98570,1,0,0:0:0:0:
192,192,98713,1,0,0:0:0:0:
64,192,98713,1,0,0:0:0:0:
448,192,98713,1,0,0:0:0:0:
448,192,98856,1,0,0:0:0:0:
64,192,98856,1,0,0:0:0:0:
320,192,98856,1,0,0:0:0:0:
320,192,98999,5,0,0:0:0:0:
448,192,98999,1,0,0:0:0:0:
64,192,98999,1,0,0:0:0:0:
448,192,99142,1,0,0:0:0:0:
64,192,99142,1,0,0:0:0:0:
192,192,99142,1,0,0:0:0:0:
192,192,99284,1,0,0:0:0:0:
64,192,99284,1,0,0:0:0:0:
448,192,99284,1,0,0:0:0:0:
448,192,99427,1,0,0:0:0:0:
320,192,99427,1,0,0:0:0:0:
64,192,99499,1,0,0:0:0:0:
192,192,99499,1,0,0:0:0:0:
448,192,99570,1,0,0:0:0:0:
320,192,99570,1,0,0:0:0:0:
64,192,99642,1,0,0:0:0:0:
192,192,99642,1,0,0:0:0:0:
448,192,99713,1,0,0:0:0:0:
320,192,99713,1,0,0:0:0:0:
64,192,99784,1,0,0:0:0:0:
192,192,99784,1,0,0:0:0:0:
320,192,99856,1,0,0:0:0:0:
448,192,99856,1,0,0:0:0:0:
192,192,99927,1,0,0:0:0:0:
64,192,99927,1,0,0:0:0:0:
448,192,99999,1,0,0:0:0:0:
64,192,100142,5,0,0:0:0:0:
320,192,100142,1,0,0:0:0:0:
64,192,100284,1,0,0:0:0:0:
448,192,100284,1,0,0:0:0:0:
192,192,100427,1,0,0:0:0:0:
448,192,100427,1,0,0:0:0:0:
192,192,100570,1,0,0:0:0:0:
64,192,100570,1,0,0:0:0:0:
320,192,100570,1,0,0:0:0:0:
448,192,100713,1,0,0:0:0:0:
64,192,100713,1,0,0:0:0:0:
448,192,100856,1,0,0:0:0:0:
320,192,100856,1,0,0:0:0:0:
192,192,100856,1,0,0:0:0:0:
64,192,100856,1,0,0:0:0:0:
320,192,100999,1,0,0:0:0:0:
192,192,100999,1,0,0:0:0:0:
448,192,101142,1,0,0:0:0:0:
64,192,101142,1,0,0:0:0:0:
320,192,101142,1,0,0:0:0:0:
64,192,101284,1,0,0:0:0:0:
192,192,101284,1,0,0:0:0:0:
64,192,101427,1,0,0:0:0:0:
320,192,101427,1,0,0:0:0:0:
448,192,101427,1,0,0:0:0:0:
192,192,101427,1,0,0:0:0:0:
448,192,101570,1,0,0:0:0:0:
320,192,101570,1,0,0:0:0:0:
448,192,101713,1,0,0:0:0:0:
64,192,101713,1,0,0:0:0:0:
320,192,101713,1,0,0:0:0:0:
192,192,101856,1,0,0:0:0:0:
320,192,101856,1,0,0:0:0:0:
320,192,101999,1,0,0:0:0:0:
448,192,101999,1,0,0:0:0:0:
192,192,101999,1,0,0:0:0:0:
64,192,101999,1,0,0:0:0:0:
64,192,102142,1,0,0:0:0:0:
448,192,102142,1,0,0:0:0:0:
448,192,102284,1,0,0:0:0:0:
320,192,102284,1,0,0:0:0:0:
192,192,102284,1,0,0:0:0:0:
320,192,102427,1,0,0:0:0:0:
64,192,102427,1,0,0:0:0:0:
192,192,102570,1,0,0:0:0:0:
448,192,102570,1,0,0:0:0:0:
320,192,102570,1,0,0:0:0:0:
64,192,102570,1,0,0:0:0:0:
64,192,102713,1,0,0:0:0:0:
448,192,102713,1,0,0:0:0:0:
192,192,102856,1,0,0:0:0:0:
448,192,102856,1,0,0:0:0:0:
320,192,102856,1,0,0:0:0:0:
192,192,102999,1,0,0:0:0:0:
320,192,102999,1,0,0:0:0:0:
192,192,103142,1,0,0:0:0:0:
320,192,103142,1,0,0:0:0:0:
448,192,103142,1,0,0:0:0:0:
64,192,103142,1,0,0:0:0:0:
64,192,103284,1,0,0:0:0:0:
192,192,103284,1,0,0:0:0:0:
320,192,103427,1,0,0:0:0:0:
448,192,103427,1,0,0:0:0:0:
64,192,103427,1,0,0:0:0:0:
448,192,103570,1,0,0:0:0:0:
192,192,103570,1,0,0:0:0:0:
320,192,103713,1,0,0:0:0:0:
448,192,103713,1,0,0:0:0:0:
192,192,103713,1,0,0:0:0:0:
64,192,103713,1,0,0:0:0:0:
320,192,103856,1,0,0:0:0:0:
64,192,103856,1,0,0:0:0:0:
192,192,103999,1,0,0:0:0:0:
320,192,103999,1,0,0:0:0:0:
64,192,103999,1,0,0:0:0:0:
192,192,104142,1,0,0:0:0:0:
320,192,104142,1,0,0:0:0:0:
192,192,104284,1,0,0:0:0:0:
448,192,104284,1,0,0:0:0:0:
320,192,104284,1,0,0:0:0:0:
64,192,104284,1,0,0:0:0:0:
448,192,104427,1,0,0:0:0:0:
64,192,104427,1,0,0:0:0:0:
192,192,104570,1,0,0:0:0:0:
448,192,104570,1,0,0:0:0:0:
320,192,104570,1,0,0:0:0:0:
64,192,104570,1,0,0:0:0:0:
320,192,104713,1,0,0:0:0:0:
192,192,104713,1,0,0:0:0:0:
64,192,104856,1,0,0:0:0:0:
192,192,104856,1,0,0:0:0:0:
448,192,104856,1,0,0:0:0:0:
320,192,104856,1,0,0:0:0:0:
448,192,104999,1,0,0:0:0:0:
64,192,104999,1,0,0:0:0:0:
192,192,104999,1,0,0:0:0:0:
64,192,105142,1,0,0:0:0:0:
448,192,105142,1,0,0:0:0:0:
192,192,105142,1,0,0:0:0:0:
448,192,105284,1,0,0:0:0:0:
320,192,105284,1,0,0:0:0:0:
320,192,105427,1,0,0:0:0:0:
448,192,105427,1,0,0:0:0:0:
192,192,105427,1,0,0:0:0:0:
64,192,105427,1,0,0:0:0:0:
192,192,105570,1,0,0:0:0:0:
64,192,105570,1,0,0:0:0:0:
448,192,105713,1,0,0:0:0:0:
320,192,105713,1,0,0:0:0:0:
64,192,105713,1,0,0:0:0:0:
320,192,105856,1,0,0:0:0:0:
192,192,105856,1,0,0:0:0:0:
192,192,105999,1,0,0:0:0:0:
448,192,105999,1,0,0:0:0:0:
320,192,105999,1,0,0:0:0:0:
64,192,105999,1,0,0:0:0:0:
64,192,106142,1,0,0:0:0:0:
448,192,106142,1,0,0:0:0:0:
320,192,106284,1,0,0:0:0:0:
64,192,106284,1,0,0:0:0:0:
192,192,106284,1,0,0:0:0:0:
320,192,106427,1,0,0:0:0:0:
448,192,106427,1,0,0:0:0:0:
192,192,106570,1,0,0:0:0:0:
320,192,106570,1,0,0:0:0:0:
448,192,106570,1,0,0:0:0:0:
64,192,106570,1,0,0:0:0:0:
64,192,106713,1,0,0:0:0:0:
192,192,106713,1,0,0:0:0:0:
320,192,106856,1,0,0:0:0:0:
448,192,106856,1,0,0:0:0:0:
64,192,106856,1,0,0:0:0:0:
192,192,106999,1,0,0:0:0:0:
320,192,106999,1,0,0:0:0:0:
320,192,107142,1,0,0:0:0:0:
448,192,107142,1,0,0:0:0:0:
192,192,107142,1,0,0:0:0:0:
64,192,107142,1,0,0:0:0:0:
64,192,107284,1,0,0:0:0:0:
448,192,107284,1,0,0:0:0:0:
64,192,107427,1,0,0:0:0:0:
192,192,107427,1,0,0:0:0:0:
320,192,107427,1,0,0:0:0:0:
448,192,107570,1,0,0:0:0:0:
192,192,107570,1,0,0:0:0:0:
192,192,107713,1,0,0:0:0:0:
448,192,107713,1,0,0:0:0:0:
320,192,107713,1,0,0:0:0:0:
64,192,107713,1,0,0:0:0:0:
320,192,107856,1,0,0:0:0:0:
64,192,107856,1,0,0:0:0:0:
192,192,107999,1,0,0:0:0:0:
64,192,107999,1,0,0:0:0:0:
448,192,107999,1,0,0:0:0:0:
448,192,108142,1,0,0:0:0:0:
320,192,108142,1,0,0:0:0:0:
192,192,108284,1,0,0:0:0:0:
320,192,108284,1,0,0:0:0:0:
448,192,108284,1,0,0:0:0:0:
64,192,108284,1,0,0:0:0:0:
64,192,108427,1,0,0:0:0:0:
192,192,108427,1,0,0:0:0:0:
64,192,108570,1,0,0:0:0:0:
448,192,108570,1,0,0:0:0:0:
192,192,108570,1,0,0:0:0:0:
320,192,108856,1,0,0:0:0:0:
448,192,108856,1,0,0:0:0:0:
192,192,108856,1,0,0:0:0:0:
64,192,108856,1,0,0:0:0:0:
64,192,108999,1,0,0:0:0:0:
448,192,108999,1,0,0:0:0:0:
448,192,109142,1,0,0:0:0:0:
320,192,109142,1,0,0:0:0:0:
192,192,109142,1,0,0:0:0:0:
320,192,109284,1,0,0:0:0:0:
448,192,109284,1,0,0:0:0:0:
192,192,109284,1,0,0:0:0:0:
64,192,109427,1,0,0:0:0:0:
192,192,109427,1,0,0:0:0:0:
448,192,109499,1,0,0:0:0:0:
320,192,109499,1,0,0:0:0:0:
192,192,109570,1,0,0:0:0:0:
64,192,109570,1,0,0:0:0:0:
320,192,109642,1,0,0:0:0:0:
192,192,109713,1,0,0:0:0:0:
448,192,109713,1,0,0:0:0:0:
64,192,109713,1,0,0:0:0:0:
448,192,109856,1,0,0:0:0:0:
64,192,109856,1,0,0:0:0:0:
320,192,109856,1,0,0:0:0:0:
320,192,109999,1,0,0:0:0:0:
448,192,109999,1,0,0:0:0:0:
64,192,109999,1,0,0:0:0:0:
192,192,109999,1,0,0:0:0:0:
320,192,110142,1,0,0:0:0:0:
192,192,110142,1,0,0:0:0:0:
192,192,110284,1,0,0:0:0:0:
448,192,110284,1,0,0:0:0:0:
64,192,110284,1,0,0:0:0:0:
320,192,110427,1,0,0:0:0:0:
448,192,110427,1,0,0:0:0:0:
64,192,110570,1,0,0:0:0:0:
320,192,110570,1,0,0:0:0:0:
448,192,110570,1,0,0:0:0:0:
192,192,110570,1,0,0:0:0:0:
192,192,110713,1,0,0:0:0:0:
64,192,110713,1,0,0:0:0:0:
192,192,110856,1,0,0:0:0:0:
448,192,110856,1,0,0:0:0:0:
64,192,110856,1,0,0:0:0:0:
192,192,110999,1,0,0:0:0:0:
320,192,110999,1,0,0:0:0:0:
320,192,111142,1,0,0:0:0:0:
448,192,111142,1,0,0:0:0:0:
192,192,111142,1,0,0:0:0:0:
64,192,111142,1,0,0:0:0:0:
64,192,111284,1,0,0:0:0:0:
448,192,111284,1,0,0:0:0:0:
320,192,111427,1,0,0:0:0:0:
192,192,111427,1,0,0:0:0:0:
64,192,111427,1,0,0:0:0:0:
448,192,111570,1,0,0:0:0:0:
192,192,111570,1,0,0:0:0:0:
192,192,111713,1,0,0:0:0:0:
448,192,111713,1,0,0:0:0:0:
320,192,111713,1,0,0:0:0:0:
64,192,111713,1,0,0:0:0:0:
64,192,111856,1,0,0:0:0:0:
448,192,111856,1,0,0:0:0:0:
192,192,111999,1,0,0:0:0:0:
64,192,111999,1,0,0:0:0:0:
320,192,111999,1,0,0:0:0:0:
192,192,112142,1,0,0:0:0:0:
320,192,112142,1,0,0:0:0:0:
64,192,112284,1,0,0:0:0:0:
448,192,112284,1,0,0:0:0:0:
320,192,112284,1,0,0:0:0:0:
192,192,112284,1,0,0:0:0:0:
320,192,112427,1,0,0:0:0:0:
448,192,112427,1,0,0:0:0:0:
448,192,112570,1,0,0:0:0:0:
64,192,112570,1,0,0:0:0:0:
192,192,112570,1,0,0:0:0:0:
320,192,112713,1,0,0:0:0:0:
64,192,112713,1,0,0:0:0:0:
320,192,112856,1,0,0:0:0:0:
448,192,112856,1,0,0:0:0:0:
192,192,112856,1,0,0:0:0:0:
64,192,112856,1,0,0:0:0:0:
448,192,112999,1,0,0:0:0:0:
192,192,112999,1,0,0:0:0:0:
448,192,113142,1,0,0:0:0:0:
192,192,113142,1,0,0:0:0:0:
320,192,113142,1,0,0:0:0:0:
192,192,113284,1,0,0:0:0:0:
320,192,113284,1,0,0:0:0:0:
192,192,113427,1,0,0:0:0:0:
448,192,113427,1,0,0:0:0:0:
320,192,113427,1,0,0:0:0:0:
64,192,113427,1,0,0:0:0:0:
448,192,113570,1,0,0:0:0:0:
64,192,113570,1,0,0:0:0:0:
192,192,113713,1,0,0:0:0:0:
448,192,113713,1,0,0:0:0:0:
320,192,113713,1,0,0:0:0:0:
64,192,113713,1,0,0:0:0:0:
320,192,113856,1,0,0:0:0:0:
192,192,113856,1,0,0:0:0:0:
64,192,113999,1,0,0:0:0:0:
192,192,113999,1,0,0:0:0:0:
448,192,113999,1,0,0:0:0:0:
320,192,113999,1,0,0:0:0:0:
320,192,114142,1,0,0:0:0:0:
448,192,114142,1,0,0:0:0:0:
64,192,114142,1,0,0:0:0:0:
320,192,114284,1,0,0:0:0:0:
64,192,114284,1,0,0:0:0:0:
448,192,114284,1,0,0:0:0:0:
192,192,114427,1,0,0:0:0:0:
64,192,114427,1,0,0:0:0:0:
320,192,114570,1,0,0:0:0:0:
448,192,114570,1,0,0:0:0:0:
192,192,114570,1,0,0:0:0:0:
64,192,114570,1,0,0:0:0:0:
448,192,114713,1,0,0:0:0:0:
320,192,114713,1,0,0:0:0:0:
448,192,114856,1,0,0:0:0:0:
192,192,114856,1,0,0:0:0:0:
64,192,114856,1,0,0:0:0:0:
320,192,114999,1,0,0:0:0:0:
192,192,114999,1,0,0:0:0:0:
192,192,115142,1,0,0:0:0:0:
448,192,115142,1,0,0:0:0:0:
320,192,115142,1,0,0:0:0:0:
64,192,115142,1,0,0:0:0:0:
64,192,115284,1,0,0:0:0:0:
448,192,115284,1,0,0:0:0:0:
192,192,115427,1,0,0:0:0:0:
64,192,115427,1,0,0:0:0:0:
320,192,115427,1,0,0:0:0:0:
192,192,115570,1,0,0:0:0:0:
448,192,115570,1,0,0:0:0:0:
64,192,115713,1,0,0:0:0:0:
448,192,115713,1,0,0:0:0:0:
320,192,115713,1,0,0:0:0:0:
192,192,115713,1,0,0:0:0:0:
320,192,115856,1,0,0:0:0:0:
64,192,115856,1,0,0:0:0:0:
448,192,115999,1,0,0:0:0:0:
64,192,115999,1,0,0:0:0:0:
192,192,115999,1,0,0:0:0:0:
448,192,116142,1,0,0:0:0:0:
320,192,116142,1,0,0:0:0:0:
320,192,116284,1,0,0:0:0:0:
448,192,116284,1,0,0:0:0:0:
192,192,116284,1,0,0:0:0:0:
64,192,116284,1,0,0:0:0:0:
64,192,116427,1,0,0:0:0:0:
192,192,116427,1,0,0:0:0:0:
320,192,116570,1,0,0:0:0:0:
448,192,116570,1,0,0:0:0:0:
64,192,116570,1,0,0:0:0:0:
192,192,116713,1,0,0:0:0:0:
448,192,116713,1,0,0:0:0:0:
192,192,116856,1,0,0:0:0:0:
448,192,116856,1,0,0:0:0:0:
320,192,116856,1,0,0:0:0:0:
64,192,116856,1,0,0:0:0:0:
64,192,116999,1,0,0:0:0:0:
320,192,116999,1,0,0:0:0:0:
192,192,117142,1,0,0:0:0:0:
448,192,117142,1,0,0:0:0:0:
320,192,117142,1,0,0:0:0:0:
192,192,117284,1,0,0:0:0:0:
64,192,117284,1,0,0:0:0:0:
64,192,117427,1,0,0:0:0:0:
448,192,117427,1,0,0:0:0:0:
320,192,117427,1,0,0:0:0:0:
192,192,117427,1,0,0:0:0:0:
320,192,117570,1,0,0:0:0:0:
448,192,117570,1,0,0:0:0:0:
320,192,117713,1,0,0:0:0:0:
64,192,117713,1,0,0:0:0:0:
448,192,117713,1,0,0:0:0:0:
448,192,117999,1,0,0:0:0:0:
64,192,117999,1,0,0:0:0:0:
192,192,117999,1,0,0:0:0:0:
320,192,117999,1,0,0:0:0:0:
64,192,118142,1,0,0:0:0:0:
448,192,118142,1,0,0:0:0:0:
320,192,118284,1,0,0:0:0:0:
192,192,118284,1,0,0:0:0:0:
448,192,118284,1,0,0:0:0:0:
448,192,118427,1,0,0:0:0:0:
192,192,118427,1,0,0:0:0:0:
320,192,118427,1,0,0:0:0:0:
64,192,118570,1,0,0:0:0:0:
192,192,118570,1,0,0:0:0:0:
320,192,118642,1,0,0:0:0:0:
448,192,118642,1,0,0:0:0:0:
64,192,118713,1,0,0:0:0:0:
192,192,118713,1,0,0:0:0:0:
320,192,118784,1,0,0:0:0:0:
448,192,118784,1,0,0:0:0:0:
64,192,118856,1,0,0:0:0:0:
