osu file format v14

[General]
AudioFilename: audio.ogg
AudioLeadIn: 0
PreviewTime: 17856
Countdown: 0
SampleSet: Soft
StackLeniency: 0.7
Mode: 3
LetterboxInBreaks: 0
SpecialStyle: 0
WidescreenStoryboard: 1

[Editor]
Bookmarks: 9141,14856,18284,36570,54856,73142,82284,91427,100570
DistanceSpacing: 1.5
BeatDivisor: 4
GridSize: 4
TimelineZoom: 1.2

[Metadata]
Title:davay rasskazhem (ily Frenchcore Remix) (Sped Up Ver.)
TitleUnicode:давай расскажем (ily Frenchcore Remix) (Sped Up Ver.)
Artist:trinadtsat' karat
ArtistUnicode:тринадцать карат
Creator:keksikosu
Version:(u_u) // easy
Source:
Tags:russian русский electronic hardcore хардкор hardstyle nightcore 13 причин почему davai trinadcat' stamina chordjack chordjacks chord chords jack jacks cj rice Flade
BeatmapID:4436011
BeatmapSetID:2087660

[Difficulty]
HPDrainRate:7
CircleSize:4
OverallDifficulty:7
ApproachRate:5
SliderMultiplier:1.4
SliderTickRate:1

[Events]
//Background and Video events
0,0,"fladenyashka.jpg",0,0
//Break Periods
//Storyboard Layer 0 (Background)
//Storyboard Layer 1 (Fail)
//Storyboard Layer 2 (Pass)
//Storyboard Layer 3 (Foreground)
//Storyboard Layer 4 (Overlay)
//Storyboard Sound Samples

[TimingPoints]
9142,285.714285714286,4,2,1,40,1,0
18284,-100,4,2,1,50,0,1
26284,-100,4,2,1,40,0,0
27427,-100,4,2,1,50,0,1
35427,-100,4,2,1,40,0,0
54856,-100,4,2,1,50,0,1
62856,-100,4,2,1,40,0,0
63999,-100,4,2,1,50,0,1
71999,-100,4,2,1,40,0,0
100570,-100,4,2,1,50,0,1
108570,-100,4,2,1,40,0,0
109713,-100,4,2,1,50,0,1
117713,-100,4,2,1,40,0,0

[HitObjects]
64,192,9141,5,0,0:0:0:0:
448,192,9427,1,0,0:0:0:0:
192,192,9856,1,0,0:0:0:0:
320,192,9999,1,0,0:0:0:0:
64,192,10284,1,0,0:0:0:0:
320,192,10570,1,0,0:0:0:0:
192,192,10999,1,0,0:0:0:0:
448,192,11141,1,0,0:0:0:0:
320,192,11427,1,0,0:0:0:0:
192,192,11713,1,0,0:0:0:0:
448,192,12141,1,0,0:0:0:0:
64,192,12284,1,0,0:0:0:0:
320,192,12570,1,0,0:0:0:0:
64,192,12856,1,0,0:0:0:0:
448,192,13284,1,0,0:0:0:0:
192,192,13427,1,0,0:0:0:0:
64,192,13713,1,0,0:0:0:0:
448,192,13999,1,0,0:0:0:0:
192,192,14427,1,0,0:0:0:0:
320,192,14570,1,0,0:0:0:0:
64,192,14856,1,0,0:0:0:0:
320,192,15142,1,0,0:0:0:0:
192,192,15570,1,0,0:0:0:0:
448,192,15713,1,0,0:0:0:0:
320,192,15999,1,0,0:0:0:0:
192,192,16284,1,0,0:0:0:0:
448,192,16713,1,0,0:0:0:0:
64,192,16856,1,0,0:0:0:0:
320,192,17142,1,0,0:0:0:0:
64,192,18284,1,0,0:0:0:0:
64,192,18570,1,0,0:0:0:0:
320,192,18856,1,0,0:0:0:0:
320,192,19142,1,0,0:0:0:0:
64,192,19427,1,0,0:0:0:0:
448,192,19713,1,0,0:0:0:0:
64,192,19999,1,0,0:0:0:0:
448,192,20284,1,0,0:0:0:0:
192,192,20570,1,0,0:0:0:0:
192,192,20856,1,0,0:0:0:0:
448,192,21142,1,0,0:0:0:0:
448,192,21427,1,0,0:0:0:0:
192,192,21713,1,0,0:0:0:0:
320,192,21999,1,0,0:0:0:0:
192,192,22284,1,0,0:0:0:0:
320,192,22570,1,0,0:0:0:0:
448,192,22713,1,0,0:0:0:0:
64,192,22856,1,0,0:0:0:0:
64,192,23142,1,0,0:0:0:0:
320,192,23427,1,0,0:0:0:0:
320,192,23713,1,0,0:0:0:0:
192,192,23999,1,0,0:0:0:0:
448,192,24284,1,0,0:0:0:0:
192,192,24570,1,0,0:0:0:0:
448,192,24856,1,0,0:0:0:0:
64,192,25142,1,0,0:0:0:0:
64,192,25427,1,0,0:0:0:0:
64,192,25713,1,0,0:0:0:0:
64,192,25999,1,0,0:0:0:0:
320,192,26284,1,0,0:0:0:0:
320,192,26570,1,0,0:0:0:0:
192,192,26856,1,0,0:0:0:0:
448,192,26999,1,0,0:0:0:0:
192,192,27142,1,0,0:0:0:0:
320,192,27427,1,0,0:0:0:0:
64,192,27570,1,0,0:0:0:0:
448,192,27713,1,0,0:0:0:0:
320,192,27713,1,0,0:0:0:0:
192,192,27999,1,0,0:0:0:0:
64,192,28284,1,0,0:0:0:0:
448,192,28284,1,0,0:0:0:0:
320,192,28570,1,0,0:0:0:0:
192,192,28856,1,0,0:0:0:0:
64,192,28856,1,0,0:0:0:0:
320,192,29142,1,0,0:0:0:0:
64,192,29427,1,0,0:0:0:0:
448,192,29427,1,0,0:0:0:0:
192,192,29713,1,0,0:0:0:0:
64,192,29999,1,0,0:0:0:0:
320,192,29999,1,0,0:0:0:0:
192,192,30284,1,0,0:0:0:0:
448,192,30570,1,0,0:0:0:0:
320,192,30570,1,0,0:0:0:0:
64,192,30856,1,0,0:0:0:0:
320,192,31142,1,0,0:0:0:0:
448,192,31142,1,0,0:0:0:0:
192,192,31427,1,0,0:0:0:0:
64,192,31427,1,0,0:0:0:0:
448,192,31713,1,0,0:0:0:0:
320,192,31856,1,0,0:0:0:0:
192,192,31999,1,0,0:0:0:0:
64,192,32284,1,0,0:0:0:0:
448,192,32284,1,0,0:0:0:0:
320,192,32570,1,0,0:0:0:0:
192,192,32856,1,0,0:0:0:0:
448,192,32856,1,0,0:0:0:0:
320,192,33142,1,0,0:0:0:0:
192,192,33427,1,0,0:0:0:0:
64,192,33427,1,0,0:0:0:0:
448,192,33713,1,0,0:0:0:0:
320,192,33999,1,0,0:0:0:0:
192,192,33999,1,0,0:0:0:0:
64,192,34284,1,0,0:0:0:0:
448,192,34570,1,0,0:0:0:0:
320,192,34570,1,0,0:0:0:0:
64,192,34856,1,0,0:0:0:0:
320,192,35142,1,0,0:0:0:0:
448,192,35142,1,0,0:0:0:0:
192,192,35427,1,0,0:0:0:0:
64,192,35713,1,0,0:0:0:0:
320,192,35713,1,0,0:0:0:0:
448,192,35999,1,0,0:0:0:0:
192,192,36142,1,0,0:0:0:0:
320,192,36284,1,0,0:0:0:0:
64,192,36427,1,0,0:0:0:0:
192,192,36570,1,0,0:0:0:0:
448,192,36856,1,0,0:0:0:0:
64,192,37142,1,0,0:0:0:0:
320,192,37284,1,0,0:0:0:0:
192,192,37427,1,0,0:0:0:0:
448,192,37713,1,0,0:0:0:0:
320,192,37999,1,0,0:0:0:0:
64,192,38142,1,0,0:0:0:0:
192,192,38427,1,0,0:0:0:0:
448,192,38570,1,0,0:0:0:0:
64,192,38856,1,0,0:0:0:0:
320,192,39142,1,0,0:0:0:0:
192,192,39427,1,0,0:0:0:0:
448,192,39570,1,0,0:0:0:0:
64,192,39713,1,0,0:0:0:0:
320,192,39999,1,0,0:0:0:0:
192,192,40284,1,0,0:0:0:0:
448,192,40427,1,0,0:0:0:0:
320,192,40713,1,0,0:0:0:0:
64,192,40856,1,0,0:0:0:0:
192,192,40999,1,0,0:0:0:0:
448,192,41142,1,0,0:0:0:0:
64,192,41427,1,0,0:0:0:0:
320,192,41713,1,0,0:0:0:0:
192,192,41856,1,0,0:0:0:0:
448,192,41999,1,0,0:0:0:0:
320,192,42284,1,0,0:0:0:0:
64,192,42570,1,0,0:0:0:0:
448,192,42713,1,0,0:0:0:0:
192,192,42999,1,0,0:0:0:0:
320,192,43142,1,0,0:0:0:0:
64,192,43427,1,0,0:0:0:0:
192,192,43713,1,0,0:0:0:0:
448,192,43999,1,0,0:0:0:0:
64,192,44142,1,0,0:0:0:0:
320,192,44284,1,0,0:0:0:0:
192,192,44570,1,0,0:0:0:0:
448,192,44856,1,0,0:0:0:0:
448,192,45142,1,0,0:0:0:0:
448,192,45427,1,0,0:0:0:0:
64,192,45570,1,0,0:0:0:0:
192,192,45713,1,0,0:0:0:0:
320,192,45999,1,0,0:0:0:0:
64,192,46284,1,0,0:0:0:0:
448,192,46427,1,0,0:0:0:0:
192,192,46570,1,0,0:0:0:0:
320,192,46856,1,0,0:0:0:0:
64,192,47142,1,0,0:0:0:0:
448,192,47284,1,0,0:0:0:0:
320,192,47570,1,0,0:0:0:0:
192,192,47713,1,0,0:0:0:0:
64,192,47999,1,0,0:0:0:0:
448,192,48284,1,0,0:0:0:0:
192,192,48570,1,0,0:0:0:0:
320,192,48713,1,0,0:0:0:0:
64,192,48856,1,0,0:0:0:0:
192,192,49142,1,0,0:0:0:0:
448,192,49427,1,0,0:0:0:0:
64,192,49570,1,0,0:0:0:0:
320,192,49856,1,0,0:0:0:0:
192,192,49999,1,0,0:0:0:0:
64,192,50142,1,0,0:0:0:0:
448,192,50284,1,0,0:0:0:0:
320,192,50570,1,0,0:0:0:0:
192,192,50856,1,0,0:0:0:0:
448,192,50999,1,0,0:0:0:0:
64,192,51142,1,0,0:0:0:0:
320,192,51427,1,0,0:0:0:0:
192,192,51713,1,0,0:0:0:0:
448,192,51856,1,0,0:0:0:0:
320,192,52142,1,0,0:0:0:0:
64,192,52284,1,0,0:0:0:0:
192,192,52570,1,0,0:0:0:0:
448,192,52856,1,0,0:0:0:0:
64,192,53142,1,0,0:0:0:0:
320,192,53284,1,0,0:0:0:0:
192,192,53427,1,0,0:0:0:0:
448,192,53713,5,0,0:0:0:0:
64,192,53999,1,0,0:0:0:0:
64,192,54284,1,0,0:0:0:0:
64,192,54570,1,0,0:0:0:0:
448,192,54856,5,0,0:0:0:0:
320,192,54856,1,0,0:0:0:0:
448,192,55142,1,0,0:0:0:0:
192,192,55427,1,0,0:0:0:0:
192,192,55713,1,0,0:0:0:0:
448,192,55999,1,0,0:0:0:0:
64,192,56284,1,0,0:0:0:0:
448,192,56570,1,0,0:0:0:0:
64,192,56856,1,0,0:0:0:0:
320,192,57142,1,0,0:0:0:0:
320,192,57427,1,0,0:0:0:0:
64,192,57713,1,0,0:0:0:0:
64,192,57999,1,0,0:0:0:0:
320,192,58284,1,0,0:0:0:0:
192,192,58570,1,0,0:0:0:0:
320,192,58856,1,0,0:0:0:0:
192,192,59142,1,0,0:0:0:0:
64,192,59284,1,0,0:0:0:0:
448,192,59427,1,0,0:0:0:0:
448,192,59713,1,0,0:0:0:0:
192,192,59999,1,0,0:0:0:0:
192,192,60284,1,0,0:0:0:0:
320,192,60570,1,0,0:0:0:0:
64,192,60856,1,0,0:0:0:0:
320,192,61142,1,0,0:0:0:0:
64,192,61427,1,0,0:0:0:0:
448,192,61713,1,0,0:0:0:0:
448,192,61999,1,0,0:0:0:0:
448,192,62284,1,0,0:0:0:0:
448,192,62570,1,0,0:0:0:0:
192,192,62856,1,0,0:0:0:0:
192,192,63142,1,0,0:0:0:0:
320,192,63427,1,0,0:0:0:0:
64,192,63570,1,0,0:0:0:0:
320,192,63713,1,0,0:0:0:0:
192,192,63999,1,0,0:0:0:0:
448,192,64142,1,0,0:0:0:0:
64,192,64284,1,0,0:0:0:0:
192,192,64284,1,0,0:0:0:0:
320,192,64570,1,0,0:0:0:0:
448,192,64856,1,0,0:0:0:0:
64,192,64856,1,0,0:0:0:0:
192,192,65142,1,0,0:0:0:0:
320,192,65427,1,0,0:0:0:0:
448,192,65427,1,0,0:0:0:0:
192,192,65713,1,0,0:0:0:0:
448,192,65999,1,0,0:0:0:0:
64,192,65999,1,0,0:0:0:0:
320,192,66284,1,0,0:0:0:0:
448,192,66570,1,0,0:0:0:0:
192,192,66570,1,0,0:0:0:0:
320,192,66856,1,0,0:0:0:0:
64,192,67142,1,0,0:0:0:0:
192,192,67142,1,0,0:0:0:0:
448,192,67427,1,0,0:0:0:0:
192,192,67713,1,0,0:0:0:0:
64,192,67713,1,0,0:0:0:0:
320,192,67999,1,0,0:0:0:0:
448,192,67999,1,0,0:0:0:0:
64,192,68284,1,0,0:0:0:0:
192,192,68427,1,0,0:0:0:0:
320,192,68570,1,0,0:0:0:0:
448,192,68856,1,0,0:0:0:0:
64,192,68856,1,0,0:0:0:0:
192,192,69142,1,0,0:0:0:0:
320,192,69427,1,0,0:0:0:0:
64,192,69427,1,0,0:0:0:0:
192,192,69713,1,0,0:0:0:0:
320,192,69999,1,0,0:0:0:0:
448,192,69999,1,0,0:0:0:0:
64,192,70284,1,0,0:0:0:0:
192,192,70570,1,0,0:0:0:0:
320,192,70570,1,0,0:0:0:0:
448,192,70856,1,0,0:0:0:0:
64,192,71142,1,0,0:0:0:0:
192,192,71142,1,0,0:0:0:0:
448,192,71427,1,0,0:0:0:0:
192,192,71713,1,0,0:0:0:0:
64,192,71713,1,0,0:0:0:0:
320,192,71999,1,0,0:0:0:0:
448,192,72284,1,0,0:0:0:0:
192,192,72284,1,0,0:0:0:0:
64,192,72570,1,0,0:0:0:0:
320,192,72713,1,0,0:0:0:0:
192,192,72856,1,0,0:0:0:0:
448,192,72999,1,0,0:0:0:0:
320,192,73142,1,0,0:0:0:0:
64,192,73856,1,0,0:0:0:0:
448,192,74170,1,0,0:0:0:0:
192,192,75142,1,0,0:0:0:0:
320,192,75313,1,0,0:0:0:0:
64,192,75713,1,0,0:0:0:0:
320,192,75884,1,0,0:0:0:0:
192,192,76284,1,0,0:0:0:0:
448,192,76456,1,0,0:0:0:0:
448,192,77356,1,0,0:0:0:0:
64,192,77599,1,0,0:0:0:0:
192,192,78456,1,0,0:0:0:0:
448,192,78742,1,0,0:0:0:0:
320,192,79713,1,0,0:0:0:0:
192,192,79884,1,0,0:0:0:0:
448,192,80284,1,0,0:0:0:0:
192,192,80456,1,0,0:0:0:0:
320,192,80856,1,0,0:0:0:0:
64,192,81027,1,0,0:0:0:0:
448,192,82284,1,0,0:0:0:0:
192,192,82570,1,0,0:0:0:0:
448,192,82856,1,0,0:0:0:0:
192,192,83142,1,0,0:0:0:0:
320,192,83427,1,0,0:0:0:0:
64,192,83713,1,0,0:0:0:0:
320,192,83999,1,0,0:0:0:0:
64,192,84284,1,0,0:0:0:0:
448,192,84570,1,0,0:0:0:0:
320,192,84856,1,0,0:0:0:0:
192,192,85284,1,0,0:0:0:0:
448,192,85570,1,0,0:0:0:0:
64,192,85856,1,0,0:0:0:0:
192,192,86142,1,0,0:0:0:0:
320,192,86427,1,0,0:0:0:0:
64,192,86856,1,0,0:0:0:0:
64,192,87142,1,0,0:0:0:0:
448,192,87427,1,0,0:0:0:0:
448,192,87713,1,0,0:0:0:0:
192,192,87999,1,0,0:0:0:0:
192,192,88284,1,0,0:0:0:0:
320,192,88570,1,0,0:0:0:0:
320,192,88856,1,0,0:0:0:0:
64,192,89142,1,0,0:0:0:0:
192,192,89427,1,0,0:0:0:0:
320,192,89713,1,0,0:0:0:0:
448,192,89999,1,0,0:0:0:0:
64,192,90284,1,0,0:0:0:0:
320,192,91427,1,0,0:0:0:0:
192,192,91713,1,0,0:0:0:0:
320,192,91999,1,0,0:0:0:0:
192,192,92284,1,0,0:0:0:0:
448,192,92570,1,0,0:0:0:0:
64,192,92856,1,0,0:0:0:0:
448,192,93142,1,0,0:0:0:0:
64,192,93427,1,0,0:0:0:0:
320,192,93713,1,0,0:0:0:0:
64,192,93999,1,0,0:0:0:0:
320,192,94284,1,0,0:0:0:0:
64,192,94570,1,0,0:0:0:0:
448,192,94856,1,0,0:0:0:0:
192,192,95142,1,0,0:0:0:0:
448,192,95427,1,0,0:0:0:0:
192,192,95713,1,0,0:0:0:0:
320,192,95856,1,0,0:0:0:0:
64,192,95999,1,0,0:0:0:0:
448,192,96284,1,0,0:0:0:0:
64,192,96570,1,0,0:0:0:0:
448,192,96856,1,0,0:0:0:0:
192,192,97142,1,0,0:0:0:0:
320,192,97427,1,0,0:0:0:0:
192,192,97713,1,0,0:0:0:0:
320,192,97999,1,0,0:0:0:0:
64,192,98284,1,0,0:0:0:0:
320,192,98427,1,0,0:0:0:0:
64,192,98570,1,0,0:0:0:0:
448,192,98856,1,0,0:0:0:0:
192,192,98999,1,0,0:0:0:0:
448,192,99142,1,0,0:0:0:0:
64,192,99427,1,0,0:0:0:0:
192,192,99570,1,0,0:0:0:0:
320,192,99713,1,0,0:0:0:0:
448,192,99856,1,0,0:0:0:0:
192,192,100570,1,0,0:0:0:0:
64,192,100570,1,0,0:0:0:0:
448,192,100856,1,0,0:0:0:0:
320,192,100856,1,0,0:0:0:0:
64,192,101142,1,0,0:0:0:0:
192,192,101427,1,0,0:0:0:0:
448,192,101427,1,0,0:0:0:0:
320,192,101713,1,0,0:0:0:0:
64,192,101999,1,0,0:0:0:0:
448,192,101999,1,0,0:0:0:0:
192,192,102284,1,0,0:0:0:0:
64,192,102570,1,0,0:0:0:0:
320,192,102570,1,0,0:0:0:0:
192,192,102856,1,0,0:0:0:0:
320,192,103142,1,0,0:0:0:0:
448,192,103142,1,0,0:0:0:0:
64,192,103427,1,0,0:0:0:0:
192,192,103713,1,0,0:0:0:0:
448,192,103713,1,0,0:0:0:0:
320,192,103999,1,0,0:0:0:0:
192,192,104284,1,0,0:0:0:0:
64,192,104284,1,0,0:0:0:0:
320,192,104570,1,0,0:0:0:0:
448,192,104570,1,0,0:0:0:0:
64,192,104856,1,0,0:0:0:0:
192,192,104999,1,0,0:0:0:0:
448,192,105142,1,0,0:0:0:0:
320,192,105427,1,0,0:0:0:0:
64,192,105427,1,0,0:0:0:0:
192,192,105713,1,0,0:0:0:0:
320,192,105999,1,0,0:0:0:0:
448,192,105999,1,0,0:0:0:0:
64,192,106284,1,0,0:0:0:0:
192,192,106570,1,0,0:0:0:0:
320,192,106570,1,0,0:0:0:0:
448,192,106856,1,0,0:0:0:0:
192,192,107142,1,0,0:0:0:0:
64,192,107142,1,0,0:0:0:0:
320,192,107427,1,0,0:0:0:0:
448,192,107713,1,0,0:0:0:0:
64,192,107713,1,0,0:0:0:0:
320,192,107999,1,0,0:0:0:0:
64,192,108284,1,0,0:0:0:0:
448,192,108284,1,0,0:0:0:0:
192,192,108570,1,0,0:0:0:0:
320,192,108856,1,0,0:0:0:0:
448,192,108856,1,0,0:0:0:0:
64,192,109142,1,0,0:0:0:0:
448,192,109284,1,0,0:0:0:0:
64,192,109427,1,0,0:0:0:0:
320,192,109713,1,0,0:0:0:0:
192,192,109856,1,0,0:0:0:0:
448,192,109999,1,0,0:0:0:0:
320,192,109999,1,0,0:0:0:0:
64,192,110284,1,0,0:0:0:0:
192,192,110570,1,0,0:0:0:0:
448,192,110570,1,0,0:0:0:0:
320,192,110856,1,0,0:0:0:0:
64,192,111142,1,0,0:0:0:0:
192,192,111142,1,0,0:0:0:0:
448,192,111427,1,0,0:0:0:0:
320,192,111713,1,0,0:0:0:0:
192,192,111713,1,0,0:0:0:0:
64,192,111999,1,0,0:0:0:0:
448,192,112284,1,0,0:0:0:0:
320,192,112284,1,0,0:0:0:0:
192,192,112570,1,0,0:0:0:0:
64,192,112856,1,0,0:0:0:0:
320,192,112856,1,0,0:0:0:0:
192,192,113142,1,0,0:0:0:0:
320,192,113427,1,0,0:0:0:0:
448,192,113427,1,0,0:0:0:0:
64,192,113713,1,0,0:0:0:0:
192,192,113713,1,0,0:0:0:0:
448,192,113999,1,0,0:0:0:0:
320,192,114142,1,0,0:0:0:0:
64,192,114284,1,0,0:0:0:0:
192,192,114570,1,0,0:0:0:0:
448,192,114570,1,0,0:0:0:0:
320,192,114856,1,0,0:0:0:0:
192,192,115142,1,0,0:0:0:0:
64,192,115142,1,0,0:0:0:0:
448,192,115427,1,0,0:0:0:0:
320,192,115713,1,0,0:0:0:0:
192,192,115713,1,0,0:0:0:0:
64,192,115999,1,0,0:0:0:0:
320,192,116284,1,0,0:0:0:0:
448,192,116284,1,0,0:0:0:0:
192,192,116570,1,0,0:0:0:0:
64,192,116856,1,0,0:0:0:0:
448,192,116856,1,0,0:0:0:0:
192,192,117142,1,0,0:0:0:0:
448,192,117427,1,0,0:0:0:0:
64,192,117427,1,0,0:0:0:0:
320,192,117713,1,0,0:0:0:0:
192,192,117999,1,0,0:0:0:0:
64,192,117999,1,0,0:0:0:0:
448,192,118284,1,0,0:0:0:0:
192,192,118427,1,0,0:0:0:0:
320,192,118570,1,0,0:0:0:0:
64,192,118713,1,0,0:0:0:0:
192,192,118856,1,0,0:0:0:0:
