osu file format v14

[General]
AudioFilename: audio.mp3
AudioLeadIn: 0
PreviewTime: 66667
Countdown: 1
SampleSet: None
StackLeniency: 0.2
Mode: 0
LetterboxInBreaks: 0
WidescreenStoryboard: 0

[Editor]
Bookmarks: 7283,13949,20252,26568,28911,83420
DistanceSpacing: 1.3
BeatDivisor: 4
GridSize: 4
TimelineZoom: 1.911466

[Metadata]
Title:Namu
TitleUnicode:Namu
Artist:Tricot
ArtistUnicode:Tricot
Creator:AutumnsFall
Version:Insane
Source:
Tags:
BeatmapID:1626255
BeatmapSetID:773651

[Difficulty]
HPDrainRate:5
CircleSize:4.5
OverallDifficulty:8
ApproachRate:9
SliderMultiplier:1.79999990463257
SliderTickRate:1

[Events]
//Background and Video events
0,0,"a2393756968_10.jpg",0,0
//Break Periods
//Storyboard Layer 0 (Background)
//Storyboard Layer 1 (Fail)
//Storyboard Layer 2 (Pass)
//Storyboard Layer 3 (Foreground)
//Storyboard Sound Samples

[TimingPoints]
762,326.086956521739,6,3,0,56,1,0
762,-80,6,3,0,56,0,0
7283,333.333333333333,6,3,0,56,1,0
7283,-80,6,3,0,56,0,0
13282,-1000,6,3,0,56,0,0
13949,312.5,4,3,0,56,1,0
15199,319.148936170213,4,3,0,56,1,0
17433,-200,4,3,0,56,0,0
17752,312.5,4,3,0,56,1,0
17752,-100,4,3,0,56,0,0
18064,-66.6666666666667,4,3,0,56,0,0
18377,-50,4,3,0,56,0,0
18689,-66.6666666666667,4,3,0,56,0,0
19002,-100,4,3,0,56,0,0
19314,-200,4,3,0,56,0,0
20252,320.855614973262,4,3,0,56,1,0
22818,312.5,4,3,0,56,1,0
23755,-200,4,3,0,56,0,0
24068,-100,4,3,0,56,0,0
24380,-66.6666666666667,4,3,0,56,0,0
24693,-50,4,3,0,56,0,0
25005,-66.6666666666667,4,3,0,56,0,0
25318,-100,4,3,0,56,0,0
25630,-200,4,3,0,56,0,0
26568,312.5,4,3,0,56,1,0
26568,-66.6666666666667,4,3,0,56,0,0
29068,315.789473684211,4,3,0,56,1,0
29068,-66.6666666666667,4,3,0,56,0,0
30015,-50,4,3,0,56,0,0
30331,-66.6666666666667,4,3,0,56,0,0
30646,-100,4,3,0,56,0,0
30962,-200,4,3,0,56,0,0
31278,-100,4,3,0,56,0,0
31594,-66.6666666666667,4,3,0,56,0,0
31910,-50,4,3,0,56,0,0
32857,312.5,4,3,0,56,1,0
32857,-66.6666666666667,4,3,0,56,0,0
35357,317.460317460317,4,3,0,56,1,0
35357,-66.6666666666667,4,3,0,56,0,0
36309,-50,4,3,0,56,0,0
36626,-66.6666666666667,4,3,0,56,0,0
36944,-100,4,3,0,56,0,0
37261,-200,4,3,0,56,0,0
37579,-100,4,3,0,56,0,0
37896,-66.6666666666667,4,3,0,56,0,0
38214,-50,4,3,0,56,0,0
39483,306.122448979592,5,3,0,56,1,0
44534,300,4,3,0,56,1,0
45584,303.030303030303,5,3,0,56,1,0
51644,300,5,3,0,56,1,0
54644,297.029702970297,5,3,0,56,1,0
62069,285.714285714286,4,3,0,56,1,0
62569,285.714285714286,4,3,0,56,1,0
62997,285.714285714286,4,3,0,56,1,0
63497,285.714285714286,4,3,0,56,1,0
64211,307.692307692308,4,3,0,56,1,0
64826,301.507537688442,4,3,0,56,1,0
65730,312.5,4,3,0,56,1,0
68855,300,4,3,0,56,1,0
70355,312.5,4,3,0,56,1,0
72855,312.5,4,3,0,56,1,0
76605,315.789473684211,4,3,0,56,1,0
82920,333.333333333333,4,3,0,56,1,0
83420,342.857142857143,6,3,0,56,1,0
89077,329.67032967033,4,3,0,56,1,0
89736,379.746835443038,4,3,0,56,1,0
90780,500,4,3,0,56,1,0
91280,500,4,3,0,56,1,0
95280,491.803278688525,4,3,0,56,1,0
99214,491.803278688525,4,3,0,56,1,0
103148,500,4,3,0,56,1,0
107148,504.201680672269,4,3,0,56,1,0
111181,504.201680672269,4,3,0,56,1,0
115214,967.741935483871,4,3,0,56,1,0
125859,967.741935483871,4,3,0,56,1,0
126298,483.870967741935,4,3,0,56,1,0
128233,468.75,4,3,0,56,1,0
130107,480,4,3,0,56,1,0
132027,472.44094488189,4,3,0,56,1,0
135806,483.870967741935,4,3,0,56,1,0
137741,476.190476190476,4,3,0,56,1,0
141550,483.870967741935,4,3,0,56,1,0
147356,666.666666666667,4,3,0,56,1,0
148689,468.75,4,3,0,56,1,0
150564,476.190476190476,4,3,0,56,1,0
154867,476.190476190476,4,3,0,56,1,0
159153,666.666666666667,4,3,0,56,1,0
160486,612.244897959184,4,3,0,56,1,0
161404,631.578947368421,4,3,0,56,1,0
162035,685.714285714286,4,3,0,56,1,0

[Colours]
Combo1 : 215,167,254
Combo2 : 170,255,170
Combo3 : 147,196,255
Combo4 : 249,138,155

[HitObjects]
24,104,762,6,0,B|-4:56|-4:56|268:100,1,281.249985098839
492,132,1251,2,0,B|520:180|520:180|248:136,1,281.249985098839
488,136,1740,5,0,0:0:0:0:
488,136,2229,6,0,B|440:108|440:108|484:380,1,281.249985098839
296,140,2718,2,0,B|344:112|344:112|300:384,1,281.249985098839
296,140,3207,2,0,B|268:188|268:188|540:144,1,281.249985098839
296,140,3696,5,0,0:0:0:0:
296,140,4185,6,0,B|324:92|324:92|52:136,1,281.249985098839
296,284,4674,2,0,B|324:332|324:332|101:295,1,281.249985098839
101,295,5163,2,0,B|73:343|73:343|328:272,1,281.249985098839
101,295,5652,5,0,0:0:0:0:
108,308,6142,6,0,B|60:336|60:336|131:81,1,281.249985098839
108,308,6631,5,0,0:0:0:0:
120,118,6957,1,0,0:0:0:0:
120,118,7283,6,0,B|92:166|92:166|347:95,1,281.249985098839
192,336,7782,2,0,B|220:288|220:288|-35:359,1,281.249985098839
192,336,8282,5,0,0:0:0:0:
192,336,8782,6,0,B|164:384|164:384|419:313,1,281.249985098839
456,68,9282,2,0,B|504:40|504:40|433:295,1,281.249985098839
456,68,9782,2,0,B|484:20|484:20|229:91,1,281.249985098839
456,68,10282,5,0,0:0:0:0:
456,68,10782,6,0,B|408:40|408:40|479:295,1,281.249985098839
208,280,11282,2,0,B|180:232|180:232|435:303,1,281.249985098839
208,280,11782,2,0,B|236:328|236:328|-19:257,1,281.249985098839
208,280,12282,5,0,0:0:0:0:
208,280,12782,6,0,B|160:308|160:308|231:53,1,281.249985098839
256,328,13282,2,0,L|272:316,1,17.9999990463257
256,156,13949,6,0,P|173:185|153:258,1,134.999992847443
256,156,14261,1,0,0:0:0:0:
132,48,14417,5,0,0:0:0:0:
132,48,14574,2,0,P|49:18|28:-16,1,89.9999952316285
256,156,14886,1,0,0:0:0:0:
358,89,14964,6,0,P|320:143|256:156,1,134.999992847443
132,48,15358,1,0,0:0:0:0:
254,154,15518,1,0,0:0:0:0:
191,257,15597,6,0,P|244:220|258:155,1,134.999992847443
358,89,15996,1,0,0:0:0:0:
254,154,16156,1,0,0:0:0:0:
400,200,16316,5,0,0:0:0:0:
316,244,16475,2,0,P|251:258|214:312,1,134.999992847443
316,244,16794,5,0,0:0:0:0:
284,316,16874,2,0,P|246:369|181:384,1,134.999992847443
84,268,17273,1,0,0:0:0:0:
136,212,17433,6,0,P|154:224|164:264,1,44.9999976158143
40,88,17752,2,0,P|57:65|124:32,1,89.9999952316285
84,268,18064,2,0,B|88:312|4:372|4:372|80:360,1,202.499996995926
272,284,18377,6,0,B|304:248|356:284|356:284|408:312|440:268,1,179.999990463257
132,208,18689,6,0,P|103:195|53:109,1,134.999997997284
156,48,19002,2,0,P|204:20|252:24,1,89.9999952316285
204,232,19314,2,0,P|192:264|156:288,1,67.4999964237214
160,160,19627,1,0,0:0:0:0:
219,161,19705,1,0,0:0:0:0:
269,194,19783,1,0,0:0:0:0:
293,249,19861,1,0,0:0:0:0:
293,249,19939,1,0,0:0:0:0:
269,194,20017,1,0,0:0:0:0:
276,136,20095,1,0,0:0:0:0:
304,84,20173,1,0,0:0:0:0:
425,61,20252,6,0,B|347:101|347:101|289:77,1,134.999992847443
425,61,20572,1,0,0:0:0:0:
356,208,20733,5,0,0:0:0:0:
356,208,20893,2,0,B|336:245|336:245|337:294,1,89.9999952316285
425,61,21214,1,0,0:0:0:0:
494,162,21294,6,0,B|468:78|468:78|424:60,1,134.999992847443
424,220,21699,1,0,0:0:0:0:
425,61,21859,1,0,0:0:0:0:
325,134,21936,6,0,B|372:131|372:131|425:61,1,134.999992847443
272,56,22337,1,0,0:0:0:0:
424,61,22497,1,0,0:0:0:0:
325,134,22658,5,0,0:0:0:0:
274,202,22818,2,0,B|255:240|255:240|289:322,1,134.999992847443
274,202,23130,5,0,0:0:0:0:
320,248,23208,2,0,B|282:267|282:267|200:233,1,134.999992847443
452,232,23599,1,0,0:0:0:0:
452,316,23755,6,0,B|439:334|439:334|419:344,1,44.9999976158143
284,228,24068,2,0,B|312:264|312:264|368:284,1,89.9999952316285
498,53,24380,2,0,B|453:80|453:80|455:141|455:141|354:201,1,202.499996995926
275,320,24693,6,0,B|305:231|305:231|379:187,1,179.999990463257
275,320,25005,6,0,B|246:307|246:307|191:216,1,134.999997997284
160,16,25318,2,0,B|189:29|189:29|242:116,1,89.9999952316285
144,336,25630,2,0,B|112:352|112:352|56:352,1,89.9999952316285
321,304,26098,1,0,0:0:0:0:
381,292,26177,1,0,0:0:0:0:
441,280,26255,1,0,0:0:0:0:
381,292,26333,1,0,0:0:0:0:
321,304,26412,1,0,0:0:0:0:
261,316,26490,1,0,0:0:0:0:
144,336,26568,6,0,B|116:288|116:288|264:316,1,202.499996995926
116,288,26880,1,0,0:0:0:0:
223,223,26958,6,0,P|158:236|116:287,1,134.999997997284
8,224,27193,1,0,0:0:0:0:
116,287,27271,6,0,P|74:236|9:224,1,134.999997997284
115,160,27506,1,0,0:0:0:0:
8,224,27583,6,0,P|73:211|115:160,1,134.999997997284
223,222,27818,1,0,0:0:0:0:
115,158,27896,6,0,P|158:210|223:223,1,134.999997997284
262,163,28130,6,0,P|219:111|154:98,1,134.999997997284
52,145,28443,1,0,0:0:0:0:
262,163,28599,1,0,0:0:0:0:
52,145,28755,1,0,0:0:0:0:
208,104,28911,5,0,0:0:0:0:
392,112,29068,2,0,B|420:64|420:64|272:92,1,202.499996995926
420,64,29383,5,0,0:0:0:0:
392,112,29462,2,0,B|364:160|364:160|455:140,1,134.999997997284
491,173,29699,2,0,B|519:125|519:125|428:145,1,134.999997997284
481,270,30015,6,0,B|425:317|316:196|316:196|291:212|272:288,1,269.999985694885
256,380,30331,2,0,B|218:423|198:357|170:256|224:210,1,202.499996995926
352,24,30646,2,0,P|284:8|208:60,1,134.999992847443
16,304,30962,2,0,L|88:276,1,67.4999964237214
448,16,31278,2,0,P|436:84|360:120,1,134.999992847443
118,164,31594,2,0,B|82:176|75:206|75:206|170:184|226:248,1,202.499996995926
332,340,31910,2,0,P|466:333|349:267,1,359.999980926514
332,340,32383,5,0,0:0:0:0:
376,384,32462,1,0,0:0:0:0:
436,376,32541,1,0,0:0:0:0:
468,324,32620,1,0,0:0:0:0:
448,268,32699,1,0,0:0:0:0:
392,248,32778,1,0,0:0:0:0:
196,296,32857,6,0,B|256:340|256:340|281:262|349:267,1,202.499996995926
260,188,33169,5,0,0:0:0:0:
196,296,33247,6,0,P|209:231|260:189,1,134.999997997284
83,237,33482,1,0,0:0:0:0:
208,232,33560,6,0,P|145:256|83:237,1,134.999997997284
259,188,33794,1,0,0:0:0:0:
324,81,33872,6,0,P|311:146|260:188,1,134.999997997284
436,152,34107,1,0,0:0:0:0:
311,146,34185,6,0,P|374:127|436:152,1,134.999997997284
173,16,34419,1,0,0:0:0:0:
244,120,34497,6,0,P|190:80|173:16,1,134.999997997284
120,96,34732,1,0,0:0:0:0:
436,152,34888,1,0,0:0:0:0:
173,16,35044,1,0,0:0:0:0:
244,120,35200,5,0,0:0:0:0:
60,225,35357,2,0,B|12:196|12:196|155:149,1,202.499996995926
32,276,35674,1,0,0:0:0:0:
60,225,35753,2,0,B|108:253|108:253|29:278,1,134.999997997284
4,328,35991,2,0,B|-44:300|-44:300|31:276,1,134.999997997284
