osu file format v14

[General]
AudioFilename: minefield surfing.mp3
AudioLeadIn: 0
PreviewTime: 88315
Countdown: 0
SampleSet: Normal
StackLeniency: 0.7
Mode: 1
LetterboxInBreaks: 0
WidescreenStoryboard: 1

[Editor]
Bookmarks: 44795,58755,62683,65657,73297,86812,88315,90065,98974
DistanceSpacing: 0.6
BeatDivisor: 8
GridSize: 4
TimelineZoom: 4.399998

[Metadata]
Title:minefield surfing
TitleUnicode:minefield surfing
Artist:trapman
ArtistUnicode:trapman
Creator:n1doking
Version:Jester
Source:BMS
Tags:
BeatmapID:1370173
BeatmapSetID:646702

[Difficulty]
HPDrainRate:7.7
CircleSize:7
OverallDifficulty:7.7
ApproachRate:7.7
SliderMultiplier:1.4
SliderTickRate:1

[Events]
//Background and Video events
0,0,"jpg.jpg",0,0
//Break Periods
//Storyboard Layer 0 (Background)
//Storyboard Layer 1 (Fail)
//Storyboard Layer 2 (Pass)
//Storyboard Layer 3 (Foreground)
//Storyboard Sound Samples

[TimingPoints]
307,400,4,1,0,55,1,8
307,-50,4,1,0,55,0,8
12307,342.857,4,1,0,60,1,8
12307,-58.3333333331875,4,1,0,60,0,0
12992,400,4,1,0,70,1,0
12992,-50,4,1,0,70,0,0
16992,342.857,4,1,0,70,1,8
16992,-58.3333333331875,4,1,0,70,0,0
17678,400,4,1,0,70,1,0
17678,-50,4,1,0,70,0,0
21678,342.857,4,1,0,55,1,8
21678,-58.3333333331875,4,1,0,55,0,0
22364,400,4,1,0,55,1,0
22364,-50,4,1,0,55,0,0
25564,300,4,1,0,55,1,0
25564,-66.6666666666667,4,1,0,55,0,0
26764,400,4,1,0,55,1,0
26764,-50,4,1,0,55,0,0
31564,300,4,1,0,55,1,0
31564,-66.6666666666667,4,1,0,55,0,0
32764,400,4,1,0,55,1,0
32764,-50,4,1,0,55,0,0
35164,342.857,4,1,0,55,1,0
35164,-58.4795321637427,4,1,0,55,0,0
35850,300,4,1,0,55,1,0
35850,-66.6666666666667,4,1,0,55,0,0
37050,400,4,1,0,55,1,0
37050,-50,4,1,0,55,0,0
37450,394.716,4,1,0,55,1,8
37450,-50.6842372022301,4,1,0,55,0,0
37844,774.193548387097,4,1,0,55,1,8
37844,-25.8397932816537,4,1,0,55,0,0
38231,379.728,4,1,0,55,1,8
38231,-52.6315789473684,4,1,0,55,0,0
38611,749.971876054648,4,1,0,55,1,0
38611,-26.6666666666667,4,1,0,55,0,0
38986,352.925,4,1,0,55,1,8
38986,-56.4971751412429,4,1,0,55,0,0
39339,333.333,4,1,0,55,1,8
39339,-59.8802395209581,4,1,0,55,0,0
39672,352.925,4,1,0,55,1,8
39672,-56.4971751412429,4,1,0,55,0,0
40025,749.971876054648,4,1,0,55,1,0
40025,-26.6666666666667,4,1,0,55,0,0
40400,400,4,1,0,55,1,8
40400,-50,4,1,0,55,0,0
40800,405.397,4,1,0,55,1,8
40800,-49.2610837438424,4,1,0,55,0,0
41206,428.571,4,1,0,55,1,8
41206,-46.7289719626168,4,1,0,55,0,0
41634,461.521,4,1,0,55,1,0
41634,-43.2900432900433,4,1,0,55,0,0
42096,500,4,1,0,55,1,8
42096,-40,4,1,0,55,0,0
42596,444.444,4,1,0,55,1,8
42596,-45.045045045045,4,1,0,55,0,0
43040,352.925,4,1,0,55,1,0
43040,-56.4971751412429,4,1,0,55,0,0
43393,333.333,4,1,0,55,1,8
43393,-59.8802395209581,4,1,0,55,0,0
43727,315.783,4,1,0,55,1,8
43727,-63.2911392405063,4,1,0,55,0,0
44042,352.925,4,1,0,55,1,8
44042,-56.4971751412429,4,1,0,55,0,0
44395,400,4,1,0,55,1,8
44395,-50,4,1,0,55,0,0
44795,428.571,4,1,0,55,1,0
44795,-46.7289719626168,4,1,0,55,0,0
45224,500,4,1,0,55,1,8
45224,-40,4,1,0,55,0,0
45724,400,4,1,0,55,1,8
45724,-50,4,1,0,55,0,0
46124,374.988,4,1,0,55,1,8
46124,-53.1914893617021,4,1,0,55,0,0
46499,352.925,4,1,0,55,1,0
46499,-56.4971751412429,4,1,0,55,0,8
46852,545.442149042067,4,1,0,55,1,8
46852,-36.6300366300366,4,1,0,55,0,8
47124,240,4,1,0,55,1,8
47124,-83.3333333333333,4,1,0,55,0,8
47364,300,4,1,0,55,1,8
47364,-66.6666666666667,4,1,0,55,0,0
47664,333.333,4,1,0,55,1,0
47664,-59.8802395209581,4,1,0,55,0,8
47998,352.925,4,1,0,55,1,8
47998,-56.4971751412429,4,1,0,55,0,8
48351,749.971876054648,4,1,0,55,1,8
48351,-26.6666666666667,4,1,0,55,0,8
48726,400,4,1,0,55,1,8
48726,-50,4,1,0,55,0,0
49126,461.521,4,1,0,55,1,0
49126,-43.2900432900433,4,1,0,55,0,8
49587,500,4,1,0,55,1,8
49587,-40,4,1,0,55,0,8
50087,666.667,4,1,0,55,1,8
50087,-30.03003003003,4,1,0,55,0,8
50754,461.521,4,1,0,55,1,8
50754,-43.2900432900433,4,1,0,55,0,0
51215,428.571,4,1,0,55,1,0
51215,-46.7289719626168,4,1,0,55,0,8
51644,500,4,1,0,55,1,8
51644,-40,4,1,0,55,0,8
52144,600,4,1,0,55,1,8
52144,-33.3333333333333,4,1,0,55,0,8
52744,333.333333333333,4,1,0,55,1,8
52744,-59.8802395209581,4,1,0,55,0,8
53411,500,4,1,0,55,1,0
53411,-40,4,1,0,55,0,0
54411,600,4,1,0,55,1,8
54411,-33.3333333333333,4,1,0,55,0,8
55011,461.521,4,1,0,55,1,8
55011,-43.2900432900433,4,1,0,55,0,8
55472,400,4,1,0,55,1,8
55472,-50,4,1,0,55,0,8
55872,352.925,4,1,0,55,1,0
55872,-56.8181818181818,4,1,0,55,0,0
56225,333.333,4,1,0,55,1,8
56225,-59.8802395209581,4,1,0,55,0,8
56558,315.783,4,1,0,55,1,8
56558,-63.2911392405063,4,1,0,55,0,8
56874,300,4,1,0,55,1,8
56874,-66.6666666666667,4,1,0,55,0,8
57174,285.714,4,1,0,55,1,0
57174,-69.9300699300699,4,1,0,55,0,0
57460,272.721,4,1,0,55,1,8
57460,-73.5294117647059,4,1,0,55,0,8
57733,260.862,4,1,0,55,1,8
57733,-76.9230769230769,4,1,0,55,0,8
57993,250,4,1,0,55,1,8
57993,-80,4,1,0,55,0,8
58243,240,4,1,0,55,1,0
58243,-83.3333333333333,4,1,0,55,0,0
58483,272.721,4,1,0,55,1,8
58483,-73.5294117647059,4,1,0,55,0,8
58756,300,4,1,0,55,1,8
58756,-66.6666666666667,4,1,0,55,0,8
59056,333.333,4,1,0,55,1,8
59056,-59.8802395209581,4,1,0,55,0,8
59390,400,4,1,0,55,1,0
59390,-50,4,1,0,55,0,0
59790,461.521,4,1,0,55,1,8
59790,-43.2900432900433,4,1,0,55,0,8
60251,500,4,1,0,55,1,8
60251,-40,4,1,0,55,0,8
60751,428.571,4,1,0,55,1,8
60751,-46.7289719626168,4,1,0,55,0,8
61180,400,4,1,0,55,1,0
61180,-50,4,1,0,55,0,0
61580,749.976563232399,4,1,0,55,1,8
61580,-26.6666666666667,4,1,0,55,0,8
61955,352.925,4,1,0,55,1,8
61955,-56.8181818181818,4,1,0,55,0,8
62308,749.971876054648,4,1,0,55,1,8
62308,-26.6666666666667,4,1,0,55,0,8
62683,400,4,1,0,55,1,0
62683,-50,4,1,0,55,0,0
63083,394.716,4,1,0,55,1,8
63083,-50.761421319797,4,1,0,55,0,0
63477,774.193548387097,4,1,0,55,1,8
63477,-25.8397932816537,4,1,0,55,0,0
63864,379.728,4,1,0,55,1,8
63864,-52.6315789473684,4,1,0,55,0,0
64244,749.971876054648,4,1,0,55,1,0
64244,-26.6666666666667,4,1,0,55,0,0
64619,352.925,4,1,0,55,1,8
64619,-56.4971751412429,4,1,0,55,0,0
64972,333.333,4,1,0,55,1,8
64972,-60.2409638554217,4,1,0,55,0,0
65305,352.925,4,1,0,55,1,8
65305,-56.4971751412429,4,1,0,55,0,0
65658,749.971876054648,4,1,0,55,1,0
65658,-26.6666666666667,4,1,0,55,0,0
66033,400,4,1,0,55,1,8
66033,-50,4,1,0,55,0,0
66433,405.397,4,1,0,55,1,8
66433,-49.2610837438424,4,1,0,55,0,0
66839,428.571,4,1,0,55,1,8
66839,-46.7289719626168,4,1,0,55,0,0
67267,461.521,4,1,0,55,1,0
67267,-43.2900432900433,4,1,0,55,0,0
67729,500,4,1,0,55,1,8
67729,-40,4,1,0,55,0,0
68229,444.444,4,1,0,55,1,8
68229,-45.045045045045,4,1,0,55,0,0
68673,352.925,4,1,0,55,1,8
68673,-56.4971751412429,4,1,0,55,0,0
69026,333.333,4,1,0,55,1,0
69026,-59.8802395209581,4,1,0,55,0,0
69359,315.783,4,1,0,55,1,8
69359,-63.2911392405063,4,1,0,55,0,0
69675,352.925,4,1,0,55,1,8
69675,-56.4971751412429,4,1,0,55,0,0
70028,400,4,1,0,55,1,8
70028,-50,4,1,0,55,0,0
70428,428.571,4,1,0,55,1,0
70428,-46.7289719626168,4,1,0,55,0,0
70857,500,4,1,0,55,1,8
70857,-40,4,1,0,55,0,0
71357,400,4,1,0,55,1,8
71357,-50,4,1,0,55,0,0
71757,374.988,4,1,0,55,1,8
71757,-53.1914893617021,4,1,0,55,0,0
72132,352.925,4,1,0,55,1,0
72132,-56.4971751412429,4,1,0,55,0,0
72485,272.721,4,1,0,55,1,8
72485,-73.5294117647059,4,1,0,55,0,0
72757,240,4,1,0,55,1,8
72757,-83.3333333333333,4,1,0,55,0,0
72997,300,4,1,0,55,1,8
72997,-66.6666666666667,4,1,0,55,0,0
73297,333.333,4,1,0,55,1,0
73297,-59.8802395209581,4,1,0,55,0,0
73631,352.925,4,1,0,55,1,8
73631,-56.4971751412429,4,1,0,55,0,0
73984,374.988,4,1,0,55,1,8
73984,-53.1914893617021,4,1,0,55,0,0
74359,400,4,1,0,55,1,8
74359,-50,4,1,0,55,0,0
74759,461.521,4,1,0,55,1,0
74759,-43.4782608695652,4,1,0,55,0,0
75220,500,4,1,0,55,1,8
75220,-40,4,1,0,55,0,0
75720,666.667,4,1,0,55,1,8
75720,-30.03003003003,4,1,0,55,0,0
76387,461.521,4,1,0,55,1,8
76387,-43.4782608695652,4,1,0,55,0,0
76848,428.571,4,1,0,55,1,0
76848,-46.7289719626168,4,1,0,55,0,0
77277,500,4,1,0,55,1,8
77277,-40,4,1,0,55,0,0
77777,600,4,1,0,55,1,8
77777,-33.3333333333333,4,1,0,55,0,0
78377,666.667,4,1,0,55,1,8
78377,-30.03003003003,4,1,0,55,0,0
79044,500,4,1,0,55,1,0
79044,-40,4,1,0,55,0,0
80044,600,4,1,0,55,1,8
80044,-33.3333333333333,4,1,0,55,0,0
80644,461.521,4,1,0,55,1,8
80644,-43.2900432900433,4,1,0,55,0,0
81105,400,4,1,0,55,1,8
81105,-50,4,1,0,55,0,0
81505,352.925,4,1,0,55,1,0
81505,-56.4971751412429,4,1,0,55,0,0
81858,333.333,4,1,0,55,1,8
81858,-59.8802395209581,4,1,0,55,0,0
82191,315.783,4,1,0,55,1,8
82191,-63.2911392405063,4,1,0,55,0,0
82507,300,4,1,0,55,1,8
82507,-66.6666666666667,4,1,0,55,0,0
82807,285.714,4,1,0,55,1,0
82807,-69.9300699300699,4,1,0,55,0,0
83093,272.721,4,1,0,55,1,8
83093,-73.5294117647059,4,1,0,55,0,0
83366,260.862,4,1,0,55,1,8
83366,-76.9230769230769,4,1,0,55,0,0
83626,250,4,1,0,55,1,8
83626,-80,4,1,0,55,0,0
83876,240,4,1,0,55,1,0
83876,-83.3333333333333,4,1,0,55,0,0
84116,272.721,4,1,0,55,1,8
84116,-73.5294117647059,4,1,0,55,0,0
84389,300,4,1,0,55,1,8
84389,-66.6666666666667,4,1,0,55,0,0
84689,333.333,4,1,0,55,1,8
84689,-59.8802395209581,4,1,0,55,0,0
85022,400,4,1,0,55,1,0
85022,-50,4,1,0,55,0,0
85422,461.521,4,1,0,55,1,8
85422,-43.2900432900433,4,1,0,55,0,0
85884,500,4,1,0,55,1,8
85884,-40,4,1,0,55,0,0
86384,428.571,4,1,0,55,1,8
86384,-46.0829493087558,4,1,0,55,0,0
86812,400,4,1,0,55,1,0
86812,-51.5463917525773,4,1,0,55,0,0
86913,-53.475935828877,4,1,0,55,0,0
87013,-55.2486187845304,4,1,0,55,0,0
87113,-57.1428571428571,4,1,0,55,0,0
87213,749.976563232399,4,1,0,55,1,8
87213,-31.6455696202532,4,1,0,55,0,0
87306,-32.7868852459016,4,1,0,55,0,0
87400,-34.1296928327645,4,1,0,55,0,0
87494,-35.5871886120996,4,1,0,55,0,0
87588,352.925,4,1,0,55,1,8
87588,-78.7401574803149,4,1,0,55,0,0
87852,-90.9090909090909,4,1,0,55,0,0
87940,749.971876054648,4,1,0,55,1,8
88127,-50.251256281407,4,1,0,55,0,0
88314,400,4,1,0,55,1,0
88314,-76.9230769230769,4,1,0,55,0,0
88515,397.350993377483,4,1,0,55,1,8
88515,-76.9230769230769,4,1,0,55,0,8
88713,394.736842105263,4,1,0,55,1,8
88713,-76.9230769230769,4,1,0,55,0,8
88910,392.156862745098,4,1,0,55,1,8
88910,-76.9230769230769,4,1,0,55,0,8
89106,389.61038961039,4,1,0,55,1,8
89106,-76.9230769230769,4,1,0,55,0,8
89300,387.096774193548,4,1,0,55,1,8
89300,-76.9230769230769,4,1,0,55,0,8
89493,384.615384615385,4,1,0,55,1,8
89493,-76.9230769230769,4,1,0,55,0,8
89685,382.165605095541,4,1,0,55,1,8
89685,-76.9230769230769,4,1,0,55,0,8
89876,379.746835443038,4,1,0,55,1,0
89876,-76.9230769230769,4,1,0,55,0,0
90065,377.358490566038,4,1,0,55,1,8
90065,-76.9230769230769,4,1,0,55,0,8
90253,375,4,1,0,55,1,8
90253,-76.9230769230769,4,1,0,55,0,8
90440,372.670807453416,4,1,0,55,1,8
90440,-76.9230769230769,4,1,0,55,0,8
90626,370.37037037037,4,1,0,55,1,8
90626,-76.9230769230769,4,1,0,55,0,8
90811,368.098159509202,4,1,0,55,1,8
90811,-76.9230769230769,4,1,0,55,0,8
90995,365.853658536585,4,1,0,55,1,8
90995,-76.9230769230769,4,1,0,55,0,8
91177,363.636363636364,4,1,0,55,1,8
91177,-76.9230769230769,4,1,0,55,0,8
91358,361.44578313253,4,1,0,55,1,0
91358,-76.9230769230769,4,1,0,55,0,0
91538,359.281437125748,4,1,0,55,1,8
91538,-76.9230769230769,4,1,0,55,0,8
91717,357.142857142857,4,1,0,55,1,8
91717,-76.9230769230769,4,1,0,55,0,8
91895,355.029585798817,4,1,0,55,1,8
91895,-76.9230769230769,4,1,0,55,0,8
92072,352.941176470588,4,1,0,55,1,8
92072,-76.9230769230769,4,1,0,55,0,8
92248,350.877192982456,4,1,0,55,1,8
92248,-76.9230769230769,4,1,0,55,0,8
92423,348.837209302326,4,1,0,55,1,8
92423,-76.9230769230769,4,1,0,55,0,8
92597,346.820809248555,4,1,0,55,1,8
92597,-76.9230769230769,4,1,0,55,0,8
92770,344.827586206897,4,1,0,55,1,0
92770,-76.9230769230769,4,1,0,55,0,0
92942,342.857142857143,4,1,0,55,1,8
92942,-76.9230769230769,4,1,0,55,0,8
93113,340.909090909091,4,1,0,55,1,8
93113,-76.9230769230769,4,1,0,55,0,8
93283,338.983050847458,4,1,0,55,1,8
93283,-76.9230769230769,4,1,0,55,0,8
93452,337.078651685393,4,1,0,55,1,8
93452,-76.9230769230769,4,1,0,55,0,8
93620,335.195530726257,4,1,0,55,1,8
93620,-76.9230769230769,4,1,0,55,0,8
93787,333.333333333333,4,1,0,55,1,8
93787,-76.9230769230769,4,1,0,55,0,8
93953,331.491712707182,4,1,0,55,1,8
93953,-76.9230769230769,4,1,0,55,0,8
94118,329.67032967033,4,1,0,55,1,0
94118,-76.9230769230769,4,1,0,55,0,0
94282,327.868852459016,4,1,0,55,1,8
94282,-76.9230769230769,4,1,0,55,0,8
94445,326.086956521739,4,1,0,55,1,8
94445,-76.9230769230769,4,1,0,55,0,8
94608,324.324324324324,4,1,0,55,1,8
94608,-76.9230769230769,4,1,0,55,0,8
94770,322.58064516129,4,1,0,55,1,8
94770,-76.9230769230769,4,1,0,55,0,8
94931,320.855614973262,4,1,0,55,1,8
94931,-76.9230769230769,4,1,0,55,0,8
95091,319.148936170213,4,1,0,55,1,8
95091,-76.9230769230769,4,1,0,55,0,8
95250,317.460317460317,4,1,0,55,1,8
95250,-76.9230769230769,4,1,0,55,0,8
95408,315.789473684211,4,1,0,55,1,0
95408,-76.9230769230769,4,1,0,55,0,0
95565,314.13612565445,4,1,0,55,1,8
95565,-76.9230769230769,4,1,0,55,0,8
95722,312.5,4,1,0,55,1,8
95722,-76.9230769230769,4,1,0,55,0,8
95878,310.880829015544,4,1,0,55,1,8
95878,-76.9230769230769,4,1,0,55,0,8
96033,309.278350515464,4,1,0,55,1,8
96033,-76.9230769230769,4,1,0,55,0,8
96187,307.692307692308,4,1,0,55,1,8
96187,-76.9230769230769,4,1,0,55,0,8
96340,306.122448979592,4,1,0,55,1,8
96340,-76.9230769230769,4,1,0,55,0,8
96493,304.568527918782,4,1,0,55,1,8
96493,-76.9230769230769,4,1,0,55,0,8
96645,303.030303030303,4,1,0,55,1,0
96645,-76.9230769230769,4,1,0,55,0,0
96796,301.507537688442,4,1,0,55,1,8
96796,-76.9230769230769,4,1,0,55,0,8
96946,300,4,1,0,55,1,8
96946,-76.9230769230769,4,1,0,55,0,8
97096,298.507462686567,4,1,0,55,1,8
97096,-76.9230769230769,4,1,0,55,0,8
97245,297.029702970297,4,1,0,55,1,8
97245,-76.9230769230769,4,1,0,55,0,8
97393,295.566502463054,4,1,0,55,1,8
97393,-76.9230769230769,4,1,0,55,0,8
97540,294.117647058824,4,1,0,55,1,8
97540,-76.9230769230769,4,1,0,55,0,8
97687,292.682926829268,4,1,0,55,1,8
97687,-76.9230769230769,4,1,0,55,0,8
97833,291.26213592233,4,1,0,55,1,0
97833,-76.9230769230769,4,1,0,55,0,0
97978,289.855072463768,4,1,0,55,1,8
97978,-76.9230769230769,4,1,0,55,0,8
98122,288.461538461538,4,1,0,55,1,8
98122,-76.9230769230769,4,1,0,55,0,8
98266,287.081339712919,4,1,0,55,1,8
98266,-76.9230769230769,4,1,0,55,0,8
98409,285.714285714286,4,1,0,55,1,8
98409,-76.9230769230769,4,1,0,55,0,8
98551,284.36018957346,4,1,0,55,1,8
98551,-76.9230769230769,4,1,0,55,0,8
98693,283.018867924528,4,1,0,55,1,8
98693,-76.9230769230769,4,1,0,55,0,8
98834,281.69014084507,4,1,0,55,1,8
98834,-76.9230769230769,4,1,0,55,0,8
98974,280.373831775701,4,1,0,55,1,0
98974,-76.9230769230769,4,1,0,55,0,0
99166,279.06976744186,4,1,0,55,1,8
99166,-76.9230769230769,4,1,0,55,0,8
99305,277.777777777778,4,1,0,55,1,8
99305,-76.9230769230769,4,1,0,55,0,8
99443,276.497695852535,4,1,0,55,1,8
99443,-76.9230769230769,4,1,0,55,0,8
99581,275.229357798165,4,1,0,55,1,8
99581,-76.9230769230769,4,1,0,55,0,8
99718,273.972602739726,4,1,0,55,1,8
99718,-76.9230769230769,4,1,0,55,0,8
99854,272.727272727273,4,1,0,55,1,8
99854,-76.9230769230769,4,1,0,55,0,8
99990,271.493212669683,4,1,0,55,1,8
99990,-76.9230769230769,4,1,0,55,0,8
100125,270.27027027027,4,1,0,55,1,0
100125,-76.9230769230769,4,1,0,55,0,0
100260,269.058295964126,4,1,0,55,1,8
100260,-76.9230769230769,4,1,0,55,0,8
100394,267.857142857143,4,1,0,55,1,8
100394,-76.9230769230769,4,1,0,55,0,8
100527,266.666666666667,4,1,0,55,1,8
100527,-76.9230769230769,4,1,0,55,0,8
100660,265.486725663717,4,1,0,55,1,8
100660,-76.9230769230769,4,1,0,55,0,8
100792,264.31718061674,4,1,0,55,1,8
100792,-76.9230769230769,4,1,0,55,0,8
100924,263.157894736842,4,1,0,55,1,8
100924,-76.9230769230769,4,1,0,55,0,8
101055,262.008733624454,4,1,0,55,1,8
101055,-76.9230769230769,4,1,0,55,0,8
101186,260.869565217391,4,1,0,55,1,0
101186,-76.9230769230769,4,1,0,55,0,0
101316,259.74025974026,4,1,0,55,1,8
101316,-76.9230769230769,4,1,0,55,0,8
101445,258.620689655172,4,1,0,55,1,8
101445,-76.9230769230769,4,1,0,55,0,8
101574,257.510729613734,4,1,0,55,1,8
101574,-76.9230769230769,4,1,0,55,0,8
101702,256.410256410256,4,1,0,55,1,8
101702,-76.9230769230769,4,1,0,55,0,8
101830,255.31914893617,4,1,0,55,1,8
101830,-76.9230769230769,4,1,0,55,0,8
101957,254.237288135593,4,1,0,55,1,8
101957,-76.9230769230769,4,1,0,55,0,8
102084,253.164556962025,4,1,0,55,1,8
102084,-76.9230769230769,4,1,0,55,0,8
102210,252.100840336134,4,1,0,55,1,0
102210,-76.9230769230769,4,1,0,55,0,0
102336,251.046025104603,4,1,0,55,1,8
102336,-76.9230769230769,4,1,0,55,0,8
102461,250,4,1,0,55,1,8
102461,-76.9230769230769,4,1,0,55,0,8
102586,248.96265560166,4,1,0,55,1,8
102586,-76.9230769230769,4,1,0,55,0,8
102710,247.933884297521,4,1,0,55,1,8
102710,-76.9230769230769,4,1,0,55,0,8
102833,246.913580246914,4,1,0,55,1,8
102833,-76.9230769230769,4,1,0,55,0,8
102956,245.901639344262,4,1,0,55,1,8
102956,-76.9230769230769,4,1,0,55,0,8
103078,244.897959183673,4,1,0,55,1,8
103078,-76.9230769230769,4,1,0,55,0,8
103200,243.90243902439,4,1,0,55,1,0
103200,-76.9230769230769,4,1,0,55,0,0
103321,242.914979757085,4,1,0,55,1,8
103321,-76.9230769230769,4,1,0,55,0,8
103442,241.935483870968,4,1,0,55,1,8
103442,-76.9230769230769,4,1,0,55,0,8
103562,240.963855421687,4,1,0,55,1,8
103562,-76.9230769230769,4,1,0,55,0,8
103682,240,4,1,0,55,1,8
103682,-76.9230769230769,4,1,0,55,0,8
103802,239.043824701195,4,1,0,55,1,8
103802,-76.9230769230769,4,1,0,55,0,8
103921,238.095238095238,4,1,0,55,1,8
103921,-76.9230769230769,4,1,0,55,0,8
104040,237.154150197628,4,1,0,55,1,8
104040,-76.9230769230769,4,1,0,55,0,8
104158,236.220472440945,4,1,0,55,1,0
104158,-76.9230769230769,4,1,0,55,0,0
104276,235.294117647059,4,1,0,55,1,8
104276,-76.9230769230769,4,1,0,55,0,8
104393,234.375,4,1,0,55,1,8
104393,-76.9230769230769,4,1,0,55,0,8
104510,233.463035019455,4,1,0,55,1,8
104510,-76.9230769230769,4,1,0,55,0,8
104626,232.558139534884,4,1,0,55,1,8
104626,-76.9230769230769,4,1,0,55,0,8
104742,231.660231660232,4,1,0,55,1,8
104742,-76.9230769230769,4,1,0,55,0,8
104857,230.769230769231,4,1,0,55,1,8
104857,-76.9230769230769,4,1,0,55,0,8
104972,229.885057471264,4,1,0,55,1,8
104972,-76.9230769230769,4,1,0,55,0,8
105086,229.007633587786,4,1,0,55,1,0
105086,-76.9230769230769,4,1,0,55,0,0
105200,228.136882129278,4,1,0,55,1,8
105200,-76.9230769230769,4,1,0,55,0,8
105314,227.272727272727,4,1,0,55,1,8
105314,-76.9230769230769,4,1,0,55,0,8
105427,226.415094339623,4,1,0,55,1,8
105427,-76.9230769230769,4,1,0,55,0,8
105540,225.563909774436,4,1,0,55,1,8
105540,-76.9230769230769,4,1,0,55,0,8
105652,224.719101123595,4,1,0,55,1,8
105652,-76.9230769230769,4,1,0,55,0,8
105764,223.880597014925,4,1,0,55,1,8
105764,-76.9230769230769,4,1,0,55,0,8
105875,223.048327137546,4,1,0,55,1,8
105875,-76.9230769230769,4,1,0,55,0,8
105986,222.222222222222,4,1,0,55,1,0
105986,-76.9230769230769,4,1,0,55,0,0
106097,221.40221402214,4,1,0,55,1,8
106097,-76.9230769230769,4,1,0,55,0,8
106207,220.588235294118,4,1,0,55,1,8
106207,-76.9230769230769,4,1,0,55,0,8
106317,219.78021978022,4,1,0,55,1,8
106317,-76.9230769230769,4,1,0,55,0,8
106426,218.978102189781,4,1,0,55,1,8
106426,-76.9230769230769,4,1,0,55,0,8
106535,218.181818181818,4,1,0,55,1,8
106535,-76.9230769230769,4,1,0,55,0,8
106644,217.391304347826,4,1,0,55,1,8
106644,-76.9230769230769,4,1,0,55,0,8
106752,216.606498194946,4,1,0,55,1,8
106752,-76.9230769230769,4,1,0,55,0,8
106860,215.827338129496,4,1,0,55,1,0
106860,-76.9230769230769,4,1,0,55,0,0
106967,240,4,1,0,55,1,8
106967,-69.4444444444444,4,1,0,55,0,0
107087,285.714285714286,4,1,0,55,1,8
107087,-58.1395348837209,4,1,0,55,0,0
107229,315.789473684211,4,1,0,55,1,8
107229,-52.6315789473684,4,1,0,55,0,0
107386,352.941176470588,4,1,0,55,1,8
107386,-46.9483568075117,4,1,0,55,0,0
107562,428.571428571429,4,1,0,55,1,8
107562,-38.7596899224806,4,1,0,55,0,0
107776,545.454545454546,4,1,0,55,1,8
107776,-30.4878048780488,4,1,0,55,0,0
108048,375,4,1,0,55,1,8
108048,-44.4444444444445,4,1,0,55,0,0
109173,6E+17,4,1,0,55,1,8
109173,-50,4,1,0,55,0,0

[HitObjects]
256,188,307,5,8,0:0:0:0:
256,188,407,1,8,0:0:0:0:
256,208,507,1,0,0:0:0:0:
256,188,607,1,8,0:0:0:0:
256,188,1007,1,8,0:0:0:0:
256,188,1107,1,0,0:0:0:0:
256,188,1307,1,8,0:0:0:0:
256,188,1607,1,0,0:0:0:0:
256,188,1707,1,8,0:0:0:0:
256,188,1807,1,0,0:0:0:0:
256,188,1907,1,0,0:0:0:0:
256,188,2107,1,0,0:0:0:0:
256,188,2307,1,8,0:0:0:0:
256,188,2507,1,0,0:0:0:0:
256,188,2707,1,8,0:0:0:0:
256,188,2907,1,0,0:0:0:0:
256,188,3007,1,8,0:0:0:0:
272,188,3207,1,0,0:0:0:0:
256,188,3307,1,8,0:0:0:0:
256,188,3507,1,8,0:0:0:0:
256,188,3607,1,8,0:0:0:0:
256,188,3707,1,0,0:0:0:0:
256,188,3807,1,8,0:0:0:0:
264,192,4207,1,8,0:0:0:0:
264,192,4307,1,0,0:0:0:0:
272,200,4507,1,8,0:0:0:0:
264,196,4807,1,8,0:0:0:0:
264,192,4907,1,8,0:0:0:0:
264,192,5007,1,0,0:0:0:0:
264,192,5107,1,8,0:0:0:0:
264,192,5307,1,0,0:0:0:0:
260,188,5407,1,0,0:0:0:0:
260,188,5507,1,8,0:0:0:0:
260,188,5707,1,0,0:0:0:0:
264,192,5907,1,0,0:0:0:0:
264,192,6007,1,8,0:0:0:0:
264,192,6107,1,0,0:0:0:0:
264,192,6207,1,0,0:0:0:0:
264,192,6307,1,8,0:0:0:0:
260,188,6407,1,8,0:0:0:0:
260,188,6507,1,0,0:0:0:0:
252,192,6707,1,8,0:0:0:0:
252,192,6807,1,8,0:0:0:0:
252,192,6907,1,0,0:0:0:0:
252,192,7007,1,8,0:0:0:0:
252,192,7107,1,0,0:0:0:0:
252,192,7407,1,8,0:0:0:0:
252,192,7507,1,0,0:0:0:0:
252,192,7707,1,0,0:0:0:0:
252,192,7907,1,0,0:0:0:0:
252,192,8007,1,8,0:0:0:0:
252,192,8107,1,8,0:0:0:0:
252,192,8207,1,0,0:0:0:0:
252,192,8307,1,0,0:0:0:0:
252,192,8507,1,0,0:0:0:0:
252,192,8707,1,8,0:0:0:0:
248,200,8907,1,0,0:0:0:0:
250,199,9007,1,0,0:0:0:0:
248,200,9107,1,8,0:0:0:0:
248,200,9307,1,0,0:0:0:0:
248,200,9407,1,8,0:0:0:0:
248,200,9507,1,0,0:0:0:0:
248,200,9607,1,0,0:0:0:0:
248,200,9707,1,8,0:0:0:0:
248,200,9907,1,8,0:0:0:0:
250,199,10007,1,8,0:0:0:0:
248,200,10107,1,0,0:0:0:0:
248,200,10207,1,8,0:0:0:0:
248,200,10307,1,0,0:0:0:0:
241,189,10607,1,8,0:0:0:0:
241,189,10707,1,0,0:0:0:0:
241,189,10907,1,0,0:0:0:0:
239,197,11107,1,0,0:0:0:0:
239,197,11207,1,8,0:0:0:0:
239,197,11307,1,0,0:0:0:0:
239,197,11407,1,0,0:0:0:0:
239,197,11507,1,8,0:0:0:0:
239,197,11707,1,0,0:0:0:0:
239,197,11807,1,0,0:0:0:0:
239,197,11907,1,8,0:0:0:0:
239,197,12107,1,0,0:0:0:0:
239,197,12307,1,0,0:0:0:0:
239,197,12392,1,8,0:0:0:0:
239,197,12478,1,0,0:0:0:0:
239,197,12564,1,0,0:0:0:0:
239,197,12649,1,8,0:0:0:0:
239,197,12735,1,8,0:0:0:0:
239,197,12821,1,8,0:0:0:0:
239,197,12906,1,8,0:0:0:0:
239,197,12992,1,4,0:0:0:0:
239,197,13192,1,8,0:0:0:0:
239,197,13392,1,0,0:0:0:0:
239,197,13492,1,8,0:0:0:0:
239,197,13592,1,0,0:0:0:0:
239,197,13792,1,8,0:0:0:0:
239,197,13992,1,0,0:0:0:0:
239,197,14092,1,8,0:0:0:0:
239,197,14192,1,0,0:0:0:0:
239,197,14292,1,0,0:0:0:0:
239,197,14392,1,8,0:0:0:0:
239,197,14492,1,8,0:0:0:0:
239,197,14592,1,0,0:0:0:0:
239,197,14792,1,8,0:0:0:0:
239,197,14992,1,0,0:0:0:0:
239,197,15092,1,8,0:0:0:0:
239,197,15192,1,0,0:0:0:0:
239,197,15392,1,8,0:0:0:0:
239,197,15592,1,8,0:0:0:0:
239,197,15692,1,0,0:0:0:0:
239,197,15792,1,8,0:0:0:0:
239,197,15892,1,8,0:0:0:0:
239,197,15992,1,0,0:0:0:0:
239,197,16092,1,8,0:0:0:0:
239,197,16192,1,8,0:0:0:0:
239,197,16392,1,8,0:0:0:0:
239,197,16592,1,0,0:0:0:0:
239,197,16692,1,8,0:0:0:0:
240,192,16792,1,0,0:0:0:0:
240,192,16992,1,8,0:0:0:0:
240,192,17077,1,8,0:0:0:0:
239,197,17163,1,0,0:0:0:0:
240,192,17249,1,8,0:0:0:0:
239,197,17334,1,0,0:0:0:0:
239,197,17420,1,8,0:0:0:0:
239,197,17506,1,0,0:0:0:0:
239,197,17591,1,0,0:0:0:0:
239,197,17677,1,12,0:0:0:0:
248,192,17878,1,8,0:0:0:0:
248,192,18078,1,0,0:0:0:0:
248,192,18178,1,8,0:0:0:0:
248,192,18278,1,0,0:0:0:0:
248,192,18478,1,8,0:0:0:0:
248,192,18578,1,0,0:0:0:0:
248,196,18678,1,8,0:0:0:0:
248,192,18778,1,0,0:0:0:0:
248,192,18878,1,8,0:0:0:0:
248,192,18978,1,8,0:0:0:0:
248,192,19078,1,0,0:0:0:0:
248,192,19278,1,0,0:0:0:0:
248,192,19478,1,8,0:0:0:0:
248,196,19678,1,0,0:0:0:0:
248,192,19778,1,8,0:0:0:0:
252,200,19878,1,0,0:0:0:0:
248,192,20078,1,8,0:0:0:0:
252,200,20178,1,0,0:0:0:0:
252,200,20278,1,0,0:0:0:0:
248,192,20378,1,8,0:0:0:0:
252,200,20478,1,0,0:0:0:0:
248,196,20578,1,0,0:0:0:0:
248,196,20678,1,8,0:0:0:0:
252,200,20878,1,8,0:0:0:0:
248,200,21078,1,8,0:0:0:0:
248,196,21278,1,0,0:0:0:0:
248,200,21378,1,8,0:0:0:0:
248,196,21478,1,0,0:0:0:0:
236,200,21678,1,8,0:0:0:0:
236,200,21763,1,0,0:0:0:0:
236,200,21849,1,0,0:0:0:0:
236,200,21935,1,8,0:0:0:0:
236,200,22020,1,8,0:0:0:0:
232,200,22106,1,0,0:0:0:0:
236,200,22192,1,8,0:0:0:0:
236,200,22277,1,8,0:0:0:0:
232,200,22363,1,4,0:0:0:0:
236,200,22564,1,8,0:0:0:0:
236,200,22764,1,0,0:0:0:0:
236,200,22864,1,8,0:0:0:0:
236,200,22964,1,0,0:0:0:0:
236,200,23164,1,8,0:0:0:0:
236,200,23264,1,0,0:0:0:0:
240,200,23364,1,0,0:0:0:0:
236,200,23464,1,8,0:0:0:0:
236,200,23564,1,0,0:0:0:0:
236,200,23664,1,8,0:0:0:0:
236,200,23764,1,8,0:0:0:0:
236,200,23964,1,8,0:0:0:0:
236,200,24164,1,8,0:0:0:0:
240,200,24364,1,0,0:0:0:0:
236,200,24464,1,8,0:0:0:0:
236,200,24564,1,0,0:0:0:0:
236,200,24764,1,8,0:0:0:0:
236,200,24864,1,8,0:0:0:0:
236,200,24964,1,0,0:0:0:0:
236,200,25064,1,8,0:0:0:0:
236,200,25164,1,8,0:0:0:0:
240,200,25264,1,0,0:0:0:0:
236,200,25364,1,8,0:0:0:0:
256,200,25564,1,8,0:0:0:0:
256,200,25639,1,8,0:0:0:0:
256,200,25714,1,0,0:0:0:0:
256,200,25789,1,8,0:0:0:0:
256,200,25864,1,0,0:0:0:0:
256,200,25939,1,8,0:0:0:0:
256,200,26014,1,0,0:0:0:0:
256,200,26089,1,8,0:0:0:0:
256,200,26164,1,8,0:0:0:0:
256,200,26239,1,0,0:0:0:0:
256,200,26314,1,0,0:0:0:0:
268,200,26389,1,8,0:0:0:0:
256,200,26464,1,8,0:0:0:0:
256,200,26539,1,0,0:0:0:0:
256,200,26614,1,8,0:0:0:0:
256,200,26689,1,0,0:0:0:0:
256,200,26764,1,8,0:0:0:0:
256,200,26964,1,8,0:0:0:0:
256,200,27164,1,0,0:0:0:0:
256,200,27264,1,8,0:0:0:0:
256,204,27364,1,0,0:0:0:0:
256,200,27564,1,8,0:0:0:0:
256,200,27664,1,0,0:0:0:0:
256,200,27764,1,8,0:0:0:0:
256,200,27864,1,8,0:0:0:0:
256,200,27964,1,8,0:0:0:0:
256,200,28064,1,0,0:0:0:0:
256,200,28164,1,8,0:0:0:0:
256,204,28364,1,0,0:0:0:0:
256,200,28564,1,8,0:0:0:0:
256,200,28764,1,0,0:0:0:0:
256,200,28864,1,8,0:0:0:0:
256,200,28964,1,0,0:0:0:0:
256,200,29164,1,8,0:0:0:0:
256,204,29264,1,0,0:0:0:0:
256,204,29364,1,8,0:0:0:0:
256,200,29464,1,8,0:0:0:0:
256,200,29564,1,0,0:0:0:0:
256,200,29664,1,8,0:0:0:0:
256,200,29764,1,8,0:0:0:0:
256,200,29964,1,8,0:0:0:0:
256,200,30164,1,8,0:0:0:0:
256,204,30364,1,0,0:0:0:0:
256,200,30464,1,8,0:0:0:0:
256,200,30564,1,0,0:0:0:0:
256,200,30764,1,8,0:0:0:0:
256,200,30864,1,8,0:0:0:0:
256,200,30964,1,0,0:0:0:0:
256,200,31064,1,8,0:0:0:0:
256,200,31164,1,8,0:0:0:0:
256,200,31264,1,8,0:0:0:0:
256,200,31364,1,8,0:0:0:0:
256,200,31564,1,8,0:0:0:0:
256,200,31639,1,8,0:0:0:0:
256,200,31714,1,8,0:0:0:0:
256,200,31789,1,0,0:0:0:0:
256,200,31864,1,8,0:0:0:0:
256,200,31939,1,0,0:0:0:0:
256,200,32014,1,0,0:0:0:0:
256,200,32089,1,8,0:0:0:0:
256,200,32164,1,8,0:0:0:0:
256,200,32239,1,0,0:0:0:0:
256,200,32314,1,8,0:0:0:0:
256,200,32389,1,8,0:0:0:0:
256,200,32464,1,0,0:0:0:0:
256,200,32539,1,0,0:0:0:0:
256,200,32614,1,8,0:0:0:0:
256,200,32689,1,0,0:0:0:0:
256,200,32764,1,8,0:0:0:0:
256,200,32964,1,8,0:0:0:0:
256,200,33164,1,0,0:0:0:0:
256,200,33264,1,8,0:0:0:0:
256,200,33364,1,0,0:0:0:0:
256,200,33564,1,8,0:0:0:0:
256,200,33664,1,8,0:0:0:0:
256,200,33764,1,0,0:0:0:0:
256,200,33864,1,8,0:0:0:0:
256,200,33964,1,8,0:0:0:0:
256,200,34064,1,0,0:0:0:0:
256,200,34164,1,8,0:0:0:0:
256,200,34264,1,0,0:0:0:0:
256,200,34364,1,0,0:0:0:0:
256,200,34564,1,8,0:0:0:0:
256,200,34764,1,0,0:0:0:0:
256,200,34864,1,8,0:0:0:0:
256,200,34964,1,0,0:0:0:0:
256,200,35164,1,8,0:0:0:0:
256,200,35249,1,0,0:0:0:0:
256,200,35335,1,8,0:0:0:0:
256,200,35421,1,8,0:0:0:0:
256,200,35506,1,0,0:0:0:0:
256,200,35592,1,0,0:0:0:0:
256,200,35678,1,8,0:0:0:0:
256,200,35763,1,8,0:0:0:0:
256,200,35849,1,8,0:0:0:0:
256,200,35925,1,0,0:0:0:0:
256,200,36000,1,8,0:0:0:0:
256,200,36075,1,8,0:0:0:0:
256,200,36150,1,8,0:0:0:0:
256,200,36225,1,0,0:0:0:0:
256,200,36300,1,0,0:0:0:0:
256,200,36375,1,8,0:0:0:0:
256,200,36450,1,8,0:0:0:0:
256,200,36525,1,0,0:0:0:0:
256,200,36600,1,8,0:0:0:0:
256,200,36675,1,8,0:0:0:0:
256,200,36750,1,0,0:0:0:0:
256,200,36825,1,8,0:0:0:0:
256,200,36900,1,8,0:0:0:0:
256,200,36975,1,8,0:0:0:0:
256,200,37050,1,0,0:0:0:0:
256,200,37250,1,0,0:0:0:0:
256,200,37350,1,0,0:0:0:0:
256,200,37450,1,8,0:0:0:0:
248,192,37548,1,0,0:0:0:0:
256,200,37647,1,8,0:0:0:0:
256,200,37746,1,8,0:0:0:0:
256,200,37844,1,8,0:0:0:0:
248,192,37940,1,0,0:0:0:0:
248,192,38037,1,0,0:0:0:0:
256,200,38134,1,8,0:0:0:0:
248,192,38231,1,8,0:0:0:0:
256,200,38278,1,8,0:0:0:0:
248,192,38420,1,8,0:0:0:0:
248,192,38468,1,0,0:0:0:0:
256,192,38610,1,0,0:0:0:0:
256,188,38704,1,8,0:0:0:0:
256,188,38798,1,8,0:0:0:0:
256,192,38892,1,0,0:0:0:0:
256,188,38985,1,8,0:0:0:0:
256,188,39030,1,8,0:0:0:0:
256,196,39162,1,8,0:0:0:0:
256,200,39250,1,0,0:0:0:0:
256,196,39338,1,0,0:0:0:0:
256,196,39422,1,0,0:0:0:0:
256,196,39505,1,8,0:0:0:0:
272,216,39588,1,8,0:0:0:0:
256,200,39672,1,0,0:0:0:0:
256,200,39716,1,0,0:0:0:0:
248,192,39848,1,0,0:0:0:0:
248,192,39892,1,0,0:0:0:0:
264,192,40024,1,0,0:0:0:0:
264,192,40118,1,8,0:0:0:0:
264,192,40212,1,8,0:0:0:0:
264,192,40306,1,0,0:0:0:0:
264,192,40399,1,8,0:0:0:0:
264,192,40500,1,8,0:0:0:0:
264,192,40600,1,8,0:0:0:0:
263,194,40700,1,0,0:0:0:0:
263,194,40800,1,8,0:0:0:0:
261,194,40901,1,0,0:0:0:0:
264,192,41002,1,0,0:0:0:0:
264,192,41104,1,8,0:0:0:0:
264,192,41205,1,0,0:0:0:0:
264,192,41313,1,0,0:0:0:0:
264,192,41420,1,8,0:0:0:0:
280,197,41527,1,0,0:0:0:0:
280,197,41634,1,0,0:0:0:0:
280,197,41749,1,8,0:0:0:0:
280,197,41864,1,8,0:0:0:0:
280,197,41980,1,0,0:0:0:0:
280,197,42095,1,8,0:0:0:0:
280,197,42221,1,8,0:0:0:0:
280,197,42346,1,0,0:0:0:0:
280,197,42471,1,8,0:0:0:0:
280,197,42596,1,0,0:0:0:0:
280,197,42707,1,8,0:0:0:0:
280,197,42818,1,0,0:0:0:0:
280,197,42929,1,0,0:0:0:0:
280,197,43040,1,8,0:0:0:0:
280,197,43128,1,0,0:0:0:0:
280,197,43216,1,8,0:0:0:0:
280,197,43304,1,8,0:0:0:0:
280,197,43392,1,0,0:0:0:0:
280,197,43476,1,8,0:0:0:0:
280,197,43559,1,0,0:0:0:0:
299,193,43642,1,8,0:0:0:0:
280,197,43726,1,8,0:0:0:0:
299,193,43805,1,8,0:0:0:0:
299,193,43884,1,0,0:0:0:0:
296,193,43963,1,0,0:0:0:0:
296,193,44042,1,8,0:0:0:0:
296,193,44130,1,0,0:0:0:0:
296,193,44218,1,0,0:0:0:0:
296,193,44306,1,0,0:0:0:0:
296,193,44394,1,8,0:0:0:0:
296,193,44495,1,0,0:0:0:0:
296,193,44595,1,8,0:0:0:0:
296,193,44695,1,8,0:0:0:0:
299,193,44795,1,0,0:0:0:0:
299,193,44902,1,8,0:0:0:0:
296,193,45009,1,8,0:0:0:0:
296,193,45116,1,0,0:0:0:0:
296,193,45223,1,8,0:0:0:0:
296,193,45349,1,0,0:0:0:0:
296,193,45474,1,8,0:0:0:0:
296,193,45599,1,0,0:0:0:0:
296,193,45724,1,0,0:0:0:0:
299,193,45824,1,8,0:0:0:0:
299,193,45924,1,8,0:0:0:0:
296,193,46024,1,0,0:0:0:0:
296,193,46124,1,0,0:0:0:0:
296,193,46217,1,8,0:0:0:0:
296,193,46311,1,8,0:0:0:0:
296,193,46405,1,0,0:0:0:0:
296,193,46498,1,8,0:0:0:0:
296,193,46587,1,0,0:0:0:0:
296,193,46675,1,8,0:0:0:0:
311,196,46763,1,8,0:0:0:0:
311,196,46851,1,8,0:0:0:0:
311,196,46920,1,8,0:0:0:0:
311,196,46988,1,0,0:0:0:0:
311,196,47056,1,0,0:0:0:0:
311,196,47124,1,8,0:0:0:0:
311,196,47184,1,8,0:0:0:0:
311,196,47244,1,0,0:0:0:0:
311,196,47304,1,8,0:0:0:0:
311,196,47364,1,8,0:0:0:0:
311,196,47439,1,0,0:0:0:0:
311,196,47514,1,8,0:0:0:0:
302,192,47589,1,0,0:0:0:0:
302,192,47664,1,0,0:0:0:0:
302,192,47747,1,8,0:0:0:0:
302,192,47830,1,0,0:0:0:0:
302,192,47913,1,0,0:0:0:0:
302,192,47997,1,8,0:0:0:0:
302,192,48086,1,8,0:0:0:0:
302,192,48174,1,0,0:0:0:0:
302,192,48262,1,0,0:0:0:0:
302,192,48351,1,8,0:0:0:0:
302,192,48444,1,0,0:0:0:0:
302,192,48538,1,8,0:0:0:0:
302,192,48632,1,8,0:0:0:0:
302,192,48725,1,0,0:0:0:0:
302,192,48826,1,0,0:0:0:0:
302,192,48926,1,8,0:0:0:0:
302,192,49026,1,8,0:0:0:0:
302,192,49126,1,4,0:0:0:0:
302,192,49356,1,0,0:0:0:0:
302,192,49472,1,0,0:0:0:0:
252,188,49587,1,8,0:0:0:0:
268,184,49837,1,8,0:0:0:0:
268,184,49962,1,8,0:0:0:0:
288,200,50087,1,0,0:0:0:0:
260,192,50253,1,8,0:0:0:0:
260,192,50420,1,8,0:0:0:0:
260,192,50587,1,0,0:0:0:0:
260,192,50753,1,8,0:0:0:0:
260,196,50811,1,8,0:0:0:0:
260,192,50984,1,0,0:0:0:0:
260,196,51042,1,8,0:0:0:0:
288,200,51215,1,0,0:0:0:0:
280,200,51322,1,8,0:0:0:0:
280,200,51429,1,8,0:0:0:0:
280,200,51536,1,0,0:0:0:0:
280,200,51643,1,8,0:0:0:0:
276,196,51706,1,8,0:0:0:0:
272,192,51894,1,8,0:0:0:0:
272,192,52019,1,0,0:0:0:0:
268,196,52144,1,0,0:0:0:0:
264,196,52294,1,0,0:0:0:0:
264,192,52444,1,8,0:0:0:0:
264,192,52594,1,0,0:0:0:0:
264,192,52744,1,8,0:0:0:0:
264,192,52910,1,8,0:0:0:0:
268,196,53077,1,8,0:0:0:0:
264,196,53244,1,0,0:0:0:0:
264,192,53410,1,0,0:0:0:0:
264,192,53661,1,0,0:0:0:0:
264,192,53911,1,8,0:0:0:0:
264,192,54161,1,0,0:0:0:0:
264,192,54411,1,8,0:0:0:0:
264,192,54561,1,0,0:0:0:0:
264,192,54711,1,0,0:0:0:0:
264,192,54861,1,0,0:0:0:0:
264,192,55011,1,8,0:0:0:0:
264,192,55126,1,0,0:0:0:0:
264,192,55241,1,0,0:0:0:0:
264,192,55357,1,8,0:0:0:0:
264,192,55472,1,0,0:0:0:0:
264,192,55572,1,8,0:0:0:0:
264,192,55672,1,8,0:0:0:0:
264,192,55772,1,0,0:0:0:0:
264,192,55872,1,8,0:0:0:0:
264,192,55960,1,0,0:0:0:0:
264,192,56048,1,8,0:0:0:0:
264,192,56136,1,8,0:0:0:0:
264,192,56224,1,0,0:0:0:0:
264,192,56308,1,0,0:0:0:0:
264,192,56391,1,8,0:0:0:0:
264,192,56474,1,8,0:0:0:0:
264,192,56558,1,0,0:0:0:0:
264,192,56636,1,8,0:0:0:0:
264,192,56715,1,0,0:0:0:0:
264,192,56794,1,8,0:0:0:0:
264,192,56873,1,8,0:0:0:0:
264,192,56949,1,0,0:0:0:0:
264,192,57024,1,8,0:0:0:0:
264,192,57099,1,8,0:0:0:0:
264,192,57174,1,0,0:0:0:0:
264,192,57245,1,8,0:0:0:0:
264,192,57316,1,8,0:0:0:0:
264,192,57388,1,0,0:0:0:0:
264,192,57459,1,0,0:0:0:0:
264,192,57528,1,0,0:0:0:0:
260,196,57596,1,8,0:0:0:0:
264,192,57664,1,8,0:0:0:0:
264,192,57732,1,8,0:0:0:0:
264,192,57798,1,0,0:0:0:0:
264,192,57863,1,0,0:0:0:0:
264,192,57928,1,8,0:0:0:0:
264,192,57993,1,8,0:0:0:0:
264,192,58055,1,0,0:0:0:0:
264,192,58118,1,8,0:0:0:0:
264,192,58180,1,8,0:0:0:0:
264,192,58243,1,0,0:0:0:0:
264,192,58303,1,8,0:0:0:0:
264,192,58363,1,0,0:0:0:0:
264,192,58423,1,0,0:0:0:0:
264,192,58483,1,8,0:0:0:0:
264,192,58551,1,0,0:0:0:0:
260,196,58619,1,8,0:0:0:0:
264,192,58687,1,0,0:0:0:0:
264,192,58755,1,0,0:0:0:0:
264,192,58831,1,8,0:0:0:0:
264,192,58906,1,8,0:0:0:0:
264,192,58981,1,0,0:0:0:0:
264,192,59056,1,8,0:0:0:0:
264,192,59139,1,0,0:0:0:0:
264,192,59222,1,8,0:0:0:0:
264,192,59305,1,8,0:0:0:0:
264,192,59389,1,8,0:0:0:0:
251,193,59490,1,0,0:0:0:0:
264,192,59590,1,8,0:0:0:0:
251,193,59690,1,0,0:0:0:0:
251,193,59790,1,8,0:0:0:0:
252,192,59905,1,8,0:0:0:0:
251,193,60020,1,0,0:0:0:0:
251,193,60136,1,0,0:0:0:0:
252,192,60251,1,0,0:0:0:0:
252,192,60376,1,8,0:0:0:0:
251,193,60501,1,0,0:0:0:0:
251,193,60626,1,0,0:0:0:0:
252,192,60751,1,8,0:0:0:0:
252,192,60858,1,0,0:0:0:0:
251,193,60965,1,8,0:0:0:0:
251,193,61072,1,8,0:0:0:0:
252,192,61179,1,0,0:0:0:0:
252,192,61280,1,8,0:0:0:0:
252,192,61380,1,8,0:0:0:0:
251,193,61480,1,0,0:0:0:0:
252,192,61580,1,8,0:0:0:0:
251,193,61673,1,8,0:0:0:0:
252,192,61767,1,0,0:0:0:0:
252,192,61861,1,8,0:0:0:0:
251,193,61954,1,8,0:0:0:0:
251,193,62043,1,0,0:0:0:0:
252,192,62131,1,0,0:0:0:0:
252,192,62219,1,8,0:0:0:0:
252,192,62308,1,0,0:0:0:0:
252,192,62401,1,8,0:0:0:0:
251,193,62495,1,8,0:0:0:0:
252,192,62682,1,4,0:0:0:0:
252,192,62883,1,0,0:0:0:0:
251,193,62983,1,0,0:0:0:0:
251,193,63083,1,8,0:0:0:0:
252,192,63181,1,0,0:0:0:0:
252,192,63280,1,8,0:0:0:0:
252,192,63379,1,8,0:0:0:0:
252,192,63477,1,0,0:0:0:0:
251,193,63573,1,0,0:0:0:0:
252,192,63670,1,8,0:0:0:0:
252,192,63767,1,8,0:0:0:0:
252,192,63864,1,8,0:0:0:0:
252,192,63911,1,8,0:0:0:0:
251,193,64053,1,8,0:0:0:0:
251,193,64101,1,0,0:0:0:0:
272,212,64243,1,0,0:0:0:0:
272,212,64337,1,8,0:0:0:0:
272,212,64431,1,8,0:0:0:0:
268,212,64525,1,0,0:0:0:0:
268,200,64619,1,8,0:0:0:0:
268,200,64663,1,8,0:0:0:0:
252,204,64795,1,8,0:0:0:0:
252,204,64883,1,0,0:0:0:0:
252,204,64971,1,0,0:0:0:0:
252,204,65055,1,0,0:0:0:0:
252,204,65138,1,8,0:0:0:0:
252,204,65221,1,8,0:0:0:0:
252,204,65305,1,8,0:0:0:0:
268,200,65349,1,0,0:0:0:0:
268,176,65481,1,8,0:0:0:0:
256,200,65525,1,0,0:0:0:0:
260,184,65657,1,0,0:0:0:0:
264,180,65751,1,8,0:0:0:0:
264,180,65845,1,8,0:0:0:0:
260,184,65939,1,0,0:0:0:0:
256,184,66032,1,8,0:0:0:0:
256,184,66133,1,8,0:0:0:0:
256,184,66233,1,8,0:0:0:0:
256,184,66333,1,0,0:0:0:0:
256,184,66433,1,8,0:0:0:0:
256,184,66534,1,0,0:0:0:0:
260,184,66635,1,0,0:0:0:0:
256,184,66737,1,8,0:0:0:0:
256,184,66838,1,0,0:0:0:0:
260,184,66946,1,0,0:0:0:0:
256,184,67053,1,8,0:0:0:0:
256,184,67160,1,0,0:0:0:0:
256,192,67267,1,0,0:0:0:0:
256,192,67382,1,8,0:0:0:0:
256,192,67497,1,0,0:0:0:0:
256,192,67613,1,8,0:0:0:0:
256,192,67728,1,8,0:0:0:0:
256,192,67854,1,8,0:0:0:0:
256,192,67979,1,0,0:0:0:0:
256,192,68104,1,8,0:0:0:0:
256,192,68229,1,0,0:0:0:0:
256,192,68340,1,8,0:0:0:0:
256,192,68451,1,0,0:0:0:0:
256,192,68562,1,0,0:0:0:0:
256,192,68673,1,8,0:0:0:0:
256,192,68761,1,0,0:0:0:0:
256,192,68849,1,8,0:0:0:0:
256,192,68937,1,8,0:0:0:0:
256,192,69025,1,0,0:0:0:0:
256,192,69109,1,8,0:0:0:0:
256,192,69192,1,8,0:0:0:0:
256,192,69275,1,0,0:0:0:0:
256,192,69359,1,8,0:0:0:0:
256,192,69437,1,0,0:0:0:0:
256,192,69516,1,8,0:0:0:0:
256,192,69595,1,8,0:0:0:0:
256,192,69674,1,0,0:0:0:0:
256,192,69763,1,8,0:0:0:0:
256,192,69851,1,8,0:0:0:0:
256,192,69939,1,0,0:0:0:0:
256,192,70027,1,8,0:0:0:0:
256,192,70128,1,8,0:0:0:0:
256,192,70228,1,8,0:0:0:0:
256,192,70328,1,0,0:0:0:0:
256,192,70428,1,0,0:0:0:0:
256,200,70535,1,8,0:0:0:0:
256,200,70642,1,0,0:0:0:0:
256,200,70749,1,8,0:0:0:0:
256,200,70856,1,8,0:0:0:0:
256,200,70982,1,0,0:0:0:0:
256,200,71107,1,8,0:0:0:0:
256,200,71232,1,0,0:0:0:0:
256,200,71357,1,0,0:0:0:0:
256,200,71457,1,8,0:0:0:0:
256,200,71557,1,8,0:0:0:0:
248,196,71657,1,0,0:0:0:0:
256,200,71757,1,8,0:0:0:0:
248,196,71850,1,0,0:0:0:0:
248,196,71944,1,8,0:0:0:0:
248,196,72038,1,8,0:0:0:0:
248,196,72131,1,0,0:0:0:0:
240,200,72220,1,8,0:0:0:0:
248,196,72308,1,8,0:0:0:0:
248,196,72396,1,0,0:0:0:0:
248,196,72484,1,8,0:0:0:0:
240,200,72553,1,8,0:0:0:0:
240,200,72621,1,0,0:0:0:0:
240,200,72689,1,0,0:0:0:0:
240,200,72757,1,8,0:0:0:0:
240,200,72817,1,8,0:0:0:0:
248,196,72877,1,0,0:0:0:0:
240,200,72937,1,8,0:0:0:0:
240,200,72997,1,8,0:0:0:0:
240,196,73072,1,0,0:0:0:0:
240,196,73147,1,8,0:0:0:0:
240,200,73222,1,8,0:0:0:0:
240,196,73297,1,0,0:0:0:0:
240,196,73380,1,0,0:0:0:0:
240,196,73463,1,8,0:0:0:0:
244,196,73546,1,8,0:0:0:0:
244,196,73630,1,8,0:0:0:0:
244,196,73719,1,8,0:0:0:0:
244,196,73807,1,0,0:0:0:0:
248,196,73895,1,0,0:0:0:0:
244,196,73983,1,8,0:0:0:0:
240,200,74077,1,0,0:0:0:0:
240,200,74171,1,8,0:0:0:0:
240,200,74265,1,8,0:0:0:0:
240,200,74358,1,0,0:0:0:0:
240,200,74459,1,8,0:0:0:0:
240,200,74559,1,8,0:0:0:0:
240,200,74759,1,4,0:0:0:0:
256,208,74989,1,8,0:0:0:0:
256,208,75105,1,0,0:0:0:0:
256,208,75220,1,8,0:0:0:0:
256,208,75470,1,8,0:0:0:0:
256,208,75595,1,0,0:0:0:0:
256,208,75720,1,0,0:0:0:0:
256,208,75886,1,0,0:0:0:0:
256,208,76053,1,8,0:0:0:0:
256,208,76220,1,0,0:0:0:0:
256,208,76386,1,8,0:0:0:0:
256,208,76444,1,8,0:0:0:0:
256,208,76617,1,8,0:0:0:0:
256,208,76733,1,0,0:0:0:0:
252,212,76848,1,0,0:0:0:0:
252,212,76955,1,8,0:0:0:0:
264,224,77062,1,0,0:0:0:0:
256,208,77169,1,8,0:0:0:0:
256,224,77277,1,8,0:0:0:0:
256,208,77339,1,8,0:0:0:0:
256,200,77527,1,8,0:0:0:0:
256,200,77652,1,8,0:0:0:0:
256,200,77777,1,8,0:0:0:0:
256,200,77927,1,0,0:0:0:0:
256,200,78077,1,0,0:0:0:0:
256,200,78227,1,0,0:0:0:0:
256,200,78377,1,8,0:0:0:0:
256,200,78543,1,8,0:0:0:0:
256,200,78710,1,8,0:0:0:0:
256,200,78877,1,0,0:0:0:0:
256,200,79043,1,0,0:0:0:0:
256,200,79294,1,0,0:0:0:0:
256,200,79544,1,8,0:0:0:0:
256,200,79794,1,0,0:0:0:0:
256,200,80044,1,8,0:0:0:0:
256,200,80194,1,0,0:0:0:0:
256,200,80344,1,0,0:0:0:0:
256,200,80494,1,0,0:0:0:0:
256,200,80644,1,8,0:0:0:0:
256,200,80759,1,0,0:0:0:0:
256,200,80874,1,0,0:0:0:0:
256,200,80990,1,8,0:0:0:0:
256,200,81105,1,0,0:0:0:0:
256,200,81205,1,8,0:0:0:0:
256,200,81305,1,8,0:0:0:0:
256,200,81405,1,0,0:0:0:0:
256,200,81505,1,0,0:0:0:0:
256,200,81593,1,8,0:0:0:0:
256,200,81681,1,0,0:0:0:0:
256,200,81769,1,0,0:0:0:0:
256,200,81857,1,8,0:0:0:0:
256,200,81941,1,0,0:0:0:0:
256,200,82024,1,8,0:0:0:0:
256,200,82107,1,8,0:0:0:0:
256,200,82191,1,0,0:0:0:0:
256,200,82269,1,8,0:0:0:0:
256,200,82348,1,0,0:0:0:0:
256,200,82427,1,8,0:0:0:0:
256,200,82506,1,8,0:0:0:0:
232,200,82582,1,0,0:0:0:0:
240,200,82657,1,0,0:0:0:0:
240,200,82732,1,8,0:0:0:0:
240,200,82807,1,0,0:0:0:0:
240,200,82878,1,0,0:0:0:0:
240,200,82949,1,8,0:0:0:0:
240,200,83021,1,8,0:0:0:0:
240,200,83092,1,8,0:0:0:0:
240,200,83161,1,0,0:0:0:0:
240,200,83229,1,8,0:0:0:0:
240,200,83297,1,8,0:0:0:0:
240,200,83365,1,0,0:0:0:0:
240,200,83431,1,0,0:0:0:0:
240,200,83496,1,0,0:0:0:0:
240,200,83561,1,8,0:0:0:0:
240,200,83626,1,8,0:0:0:0:
240,200,83688,1,0,0:0:0:0:
240,200,83751,1,8,0:0:0:0:
240,200,83813,1,8,0:0:0:0:
240,200,83876,1,0,0:0:0:0:
240,200,83936,1,8,0:0:0:0:
240,200,83996,1,0,0:0:0:0:
240,200,84056,1,0,0:0:0:0:
240,200,84116,1,8,0:0:0:0:
240,200,84184,1,8,0:0:0:0:
240,200,84252,1,8,0:0:0:0:
240,200,84320,1,0,0:0:0:0:
240,200,84388,1,0,0:0:0:0:
240,200,84464,1,8,0:0:0:0:
264,208,84539,1,8,0:0:0:0:
240,200,84614,1,0,0:0:0:0:
240,200,84689,1,8,0:0:0:0:
264,208,84772,1,0,0:0:0:0:
264,208,84855,1,8,0:0:0:0:
264,208,84938,1,8,0:0:0:0:
264,208,85022,1,0,0:0:0:0:
264,208,85122,1,0,0:0:0:0:
264,208,85222,1,8,0:0:0:0:
264,208,85322,1,0,0:0:0:0:
264,208,85422,1,8,0:0:0:0:
264,208,85537,1,8,0:0:0:0:
264,208,85652,1,0,0:0:0:0:
264,208,85768,1,0,0:0:0:0:
264,208,85883,1,0,0:0:0:0:
264,208,86009,1,8,0:0:0:0:
264,208,86134,1,0,0:0:0:0:
264,208,86259,1,0,0:0:0:0:
264,208,86384,1,8,0:0:0:0:
280,204,86491,1,0,0:0:0:0:
268,204,86598,1,8,0:0:0:0:
268,204,86705,1,8,0:0:0:0:
258,209,86812,1,0,0:0:0:0:
264,208,86913,1,8,0:0:0:0:
264,208,87013,1,8,0:0:0:0:
264,208,87113,1,8,0:0:0:0:
264,208,87213,1,0,0:0:0:0:
264,208,87306,1,0,0:0:0:0:
264,208,87400,1,8,0:0:0:0:
260,209,87494,1,0,0:0:0:0:
260,209,87588,1,8,0:0:0:0:
258,209,87852,1,8,0:0:0:0:
264,208,88127,1,8,0:0:0:0:
264,208,88314,1,4,0:0:0:0:
264,213,88515,1,0,0:0:0:0:
274,222,88614,1,0,0:0:0:0:
264,213,88713,1,8,0:0:0:0:
272,219,88811,1,8,0:0:0:0:
272,219,88910,1,0,0:0:0:0:
274,222,89008,1,0,0:0:0:0:
274,222,89106,1,0,0:0:0:0:
274,222,89203,1,8,0:0:0:0:
274,222,89300,1,0,0:0:0:0:
274,222,89396,1,0,0:0:0:0:
274,222,89493,1,8,0:0:0:0:
274,222,89589,1,0,0:0:0:0:
274,222,89685,1,8,0:0:0:0:
272,219,89780,1,8,0:0:0:0:
272,219,89876,1,0,0:0:0:0:
274,222,89970,1,0,0:0:0:0:
274,222,90065,1,8,0:0:0:0:
274,222,90159,1,0,0:0:0:0:
274,222,90253,1,8,0:0:0:0:
274,222,90346,1,0,0:0:0:0:
274,222,90440,1,0,0:0:0:0:
274,222,90533,1,0,0:0:0:0:
274,222,90626,1,8,0:0:0:0:
274,222,90718,1,8,0:0:0:0:
278,222,90811,1,0,0:0:0:0:
278,222,90903,1,8,0:0:0:0:
274,222,90995,1,8,0:0:0:0:
274,222,91086,1,0,0:0:0:0:
274,222,91177,1,8,0:0:0:0:
274,222,91267,1,0,0:0:0:0:
274,222,91358,1,0,0:0:0:0:
274,222,91448,1,0,0:0:0:0:
274,222,91538,1,8,0:0:0:0:
274,222,91627,1,0,0:0:0:0:
274,222,91717,1,8,0:0:0:0:
278,222,91806,1,0,0:0:0:0:
278,222,91895,1,0,0:0:0:0:
274,222,91983,1,8,0:0:0:0:
274,222,92072,1,0,0:0:0:0:
280,224,92160,1,8,0:0:0:0:
274,222,92248,1,8,0:0:0:0:
274,222,92335,1,0,0:0:0:0:
274,222,92423,1,8,0:0:0:0:
274,222,92510,1,0,0:0:0:0:
274,222,92597,1,8,0:0:0:0:
274,222,92683,1,0,0:0:0:0:
278,222,92770,1,0,0:0:0:0:
278,222,92856,1,0,0:0:0:0:
274,222,92942,1,8,0:0:0:0:
274,222,93027,1,8,0:0:0:0:
274,222,93113,1,8,0:0:0:0:
274,222,93198,1,0,0:0:0:0:
256,208,93283,1,0,0:0:0:0:
274,222,93367,1,0,0:0:0:0:
274,222,93452,1,8,0:0:0:0:
256,208,93536,1,8,0:0:0:0:
274,222,93620,1,0,0:0:0:0:
274,222,93703,1,8,0:0:0:0:
278,222,93787,1,8,0:0:0:0:
278,222,93870,1,0,0:0:0:0:
274,222,93953,1,8,0:0:0:0:
256,216,94035,1,8,0:0:0:0:
256,216,94118,1,0,0:0:0:0:
256,216,94200,1,0,0:0:0:0:
256,216,94282,1,8,0:0:0:0:
256,216,94363,1,0,0:0:0:0:
272,204,94445,1,8,0:0:0:0:
256,216,94526,1,0,0:0:0:0:
256,216,94608,1,0,0:0:0:0:
256,216,94689,1,8,0:0:0:0:
268,204,94770,1,0,0:0:0:0:
268,204,94850,1,8,0:0:0:0:
256,216,94931,1,8,0:0:0:0:
268,204,95011,1,0,0:0:0:0:
272,204,95091,1,8,0:0:0:0:
268,208,95170,1,8,0:0:0:0:
272,216,95250,1,0,0:0:0:0:
272,216,95329,1,0,0:0:0:0:
272,212,95408,1,8,0:0:0:0:
272,216,95486,1,0,0:0:0:0:
272,212,95565,1,8,0:0:0:0:
272,212,95643,1,8,0:0:0:0:
272,212,95722,1,8,0:0:0:0:
272,216,95800,1,0,0:0:0:0:
272,216,95878,1,0,0:0:0:0:
272,216,95955,1,8,0:0:0:0:
272,216,96033,1,0,0:0:0:0:
272,212,96110,1,8,0:0:0:0:
272,216,96187,1,0,0:0:0:0:
272,212,96263,1,0,0:0:0:0:
272,212,96340,1,8,0:0:0:0:
272,212,96416,1,8,0:0:0:0:
272,212,96493,1,8,0:0:0:0:
272,216,96569,1,0,0:0:0:0:
256,220,96645,1,0,0:0:0:0:
256,220,96720,1,0,0:0:0:0:
272,216,96796,1,8,0:0:0:0:
272,216,96871,1,0,0:0:0:0:
272,216,96946,1,8,0:0:0:0:
272,216,97021,1,0,0:0:0:0:
272,212,97096,1,0,0:0:0:0:
272,216,97170,1,8,0:0:0:0:
272,212,97245,1,0,0:0:0:0:
272,212,97319,1,8,0:0:0:0:
272,212,97393,1,0,0:0:0:0:
272,212,97466,1,8,0:0:0:0:
272,216,97540,1,8,0:0:0:0:
272,216,97613,1,8,0:0:0:0:
272,216,97687,1,0,0:0:0:0:
272,216,97760,1,0,0:0:0:0:
272,216,97833,1,0,0:0:0:0:
272,216,97905,1,0,0:0:0:0:
272,216,97978,1,8,0:0:0:0:
272,216,98050,1,0,0:0:0:0:
272,212,98122,1,8,0:0:0:0:
272,216,98194,1,8,0:0:0:0:
272,212,98266,1,0,0:0:0:0:
272,212,98337,1,8,0:0:0:0:
272,212,98409,1,8,0:0:0:0:
272,212,98480,1,8,0:0:0:0:
272,216,98551,1,0,0:0:0:0:
272,216,98622,1,0,0:0:0:0:
272,216,98693,1,8,0:0:0:0:
272,216,98763,1,0,0:0:0:0:
272,216,98834,1,8,0:0:0:0:
272,216,98904,1,8,0:0:0:0:
272,216,98974,1,0,0:0:0:0:
264,208,99166,1,0,0:0:0:0:
276,220,99235,1,0,0:0:0:0:
276,220,99305,1,8,0:0:0:0:
276,220,99374,1,8,0:0:0:0:
276,220,99443,1,0,0:0:0:0:
276,220,99512,1,0,0:0:0:0:
276,220,99581,1,0,0:0:0:0:
276,220,99649,1,8,0:0:0:0:
276,220,99718,1,0,0:0:0:0:
276,220,99786,1,0,0:0:0:0:
276,220,99854,1,8,0:0:0:0:
276,220,99922,1,0,0:0:0:0:
276,220,99990,1,8,0:0:0:0:
276,220,100057,1,0,0:0:0:0:
276,220,100125,1,0,0:0:0:0:
276,220,100192,1,0,0:0:0:0:
248,221,100260,1,8,0:0:0:0:
276,220,100327,1,0,0:0:0:0:
276,220,100394,1,8,0:0:0:0:
256,216,100460,1,0,0:0:0:0:
256,216,100527,1,0,0:0:0:0:
256,216,100593,1,0,0:0:0:0:
256,216,100660,1,8,0:0:0:0:
256,216,100726,1,8,0:0:0:0:
256,216,100792,1,0,0:0:0:0:
256,216,100858,1,8,0:0:0:0:
256,216,100924,1,8,0:0:0:0:
256,216,100989,1,0,0:0:0:0:
256,216,101055,1,8,0:0:0:0:
256,216,101120,1,0,0:0:0:0:
256,216,101186,1,0,0:0:0:0:
256,216,101251,1,8,0:0:0:0:
260,216,101316,1,0,0:0:0:0:
260,216,101380,1,0,0:0:0:0:
256,216,101445,1,8,0:0:0:0:
248,221,101509,1,8,0:0:0:0:
256,216,101574,1,0,0:0:0:0:
256,216,101638,1,0,0:0:0:0:
256,216,101702,1,8,0:0:0:0:
256,216,101766,1,8,0:0:0:0:
256,216,101830,1,0,0:0:0:0:
256,216,101893,1,8,0:0:0:0:
256,216,101957,1,0,0:0:0:0:
256,220,102020,1,0,0:0:0:0:
256,216,102084,1,8,0:0:0:0:
256,220,102147,1,0,0:0:0:0:
256,220,102210,1,0,0:0:0:0:
256,220,102273,1,0,0:0:0:0:
256,220,102336,1,8,0:0:0:0:
248,221,102398,1,0,0:0:0:0:
256,220,102461,1,8,0:0:0:0:
248,221,102523,1,8,0:0:0:0:
248,221,102586,1,0,0:0:0:0:
248,221,102648,1,0,0:0:0:0:
248,221,102710,1,8,0:0:0:0:
248,221,102771,1,8,0:0:0:0:
248,221,102833,1,8,0:0:0:0:
248,221,102894,1,0,0:0:0:0:
248,221,102956,1,8,0:0:0:0:
248,221,103017,1,8,0:0:0:0:
248,221,103078,1,0,0:0:0:0:
248,221,103139,1,8,0:0:0:0:
248,221,103200,1,8,0:0:0:0:
246,229,103260,1,0,0:0:0:0:
246,229,103321,1,8,0:0:0:0:
246,229,103381,1,0,0:0:0:0:
246,229,103442,1,8,0:0:0:0:
246,229,103502,1,8,0:0:0:0:
246,229,103562,1,0,0:0:0:0:
246,229,103622,1,0,0:0:0:0:
246,229,103682,1,0,0:0:0:0:
246,229,103742,1,8,0:0:0:0:
246,229,103802,1,0,0:0:0:0:
246,229,103861,1,0,0:0:0:0:
246,229,103921,1,8,0:0:0:0:
246,229,103980,1,8,0:0:0:0:
246,229,104040,1,0,0:0:0:0:
246,229,104099,1,8,0:0:0:0:
246,229,104158,1,0,0:0:0:0:
252,228,104217,1,0,0:0:0:0:
265,239,104276,1,8,0:0:0:0:
254,230,104334,1,0,0:0:0:0:
254,230,104393,1,8,0:0:0:0:
265,239,104451,1,8,0:0:0:0:
265,239,104510,1,0,0:0:0:0:
265,239,104568,1,0,0:0:0:0:
263,226,104626,1,8,0:0:0:0:
263,226,104684,1,0,0:0:0:0:
263,226,104742,1,0,0:0:0:0:
263,226,104799,1,8,0:0:0:0:
263,226,104857,1,8,0:0:0:0:
263,226,104914,1,0,0:0:0:0:
263,226,104972,1,8,0:0:0:0:
264,233,105029,1,8,0:0:0:0:
264,233,105086,1,0,0:0:0:0:
264,233,105143,1,0,0:0:0:0:
264,233,105200,1,8,0:0:0:0:
264,233,105257,1,0,0:0:0:0:
264,233,105314,1,8,0:0:0:0:
264,233,105370,1,0,0:0:0:0:
264,233,105427,1,0,0:0:0:0:
264,233,105483,1,8,0:0:0:0:
265,233,105540,1,0,0:0:0:0:
264,233,105596,1,8,0:0:0:0:
264,233,105652,1,8,0:0:0:0:
265,233,105708,1,0,0:0:0:0:
264,233,105764,1,8,0:0:0:0:
265,233,105819,1,8,0:0:0:0:
265,233,105875,1,0,0:0:0:0:
265,233,105930,1,8,0:0:0:0:
265,233,105986,1,0,0:0:0:0:
264,233,106041,1,0,0:0:0:0:
264,233,106097,1,8,0:0:0:0:
269,234,106152,1,0,0:0:0:0:
269,233,106207,1,8,0:0:0:0:
269,233,106262,1,0,0:0:0:0:
269,233,106317,1,8,0:0:0:0:
269,233,106371,1,0,0:0:0:0:
269,233,106426,1,8,0:0:0:0:
269,233,106480,1,8,0:0:0:0:
265,233,106535,1,0,0:0:0:0:
269,233,106589,1,8,0:0:0:0:
269,233,106644,1,8,0:0:0:0:
265,233,106698,1,0,0:0:0:0:
269,233,106752,1,8,0:0:0:0:
265,233,106806,1,8,0:0:0:0:
265,233,106860,1,8,0:0:0:0:
265,233,106913,1,0,0:0:0:0:
265,233,106967,1,8,0:0:0:0:
265,233,107027,1,0,0:0:0:0:
264,233,107087,1,8,0:0:0:0:
269,234,107158,1,0,0:0:0:0:
269,233,107229,1,8,0:0:0:0:
269,233,107307,1,0,0:0:0:0:
269,233,107386,1,8,0:0:0:0:
269,233,107474,1,0,0:0:0:0:
265,233,107562,1,0,0:0:0:0:
269,233,107669,1,0,0:0:0:0:
269,233,107776,1,8,0:0:0:0:
265,233,107912,1,8,0:0:0:0:
265,233,108048,5,8,0:0:0:0:
269,233,108235,1,0,0:0:0:0:
254,208,109173,1,4,0:0:0:0:
