osu file format v14

[General]
AudioFilename: SEITEN NO TERIYAKI.mp3
AudioLeadIn: 0
PreviewTime: 72348
Countdown: 1
SampleSet: Normal
StackLeniency: 0.7
Mode: 3
LetterboxInBreaks: 0
SpecialStyle: 0
WidescreenStoryboard: 0

[Editor]
DistanceSpacing: 1.2
BeatDivisor: 4
GridSize: 32
TimelineZoom: 2.4

[Metadata]
Title:Kobaryo Pack
TitleUnicode:Kobaryo Pack
Artist:tprtm
ArtistUnicode:tprtm
Creator:_Sizuka_
Version:SEITEN NO TERIYAKI
Source:
Tags:
BeatmapID:1045241
BeatmapSetID:490375

[Difficulty]
HPDrainRate:8
CircleSize:4
OverallDifficulty:8
ApproachRate:5
SliderMultiplier:1.4
SliderTickRate:1

[Events]
//Background and Video events
0,0,"BG3.jpg",0,0
//Break Periods
//Storyboard Layer 0 (Background)
//Storyboard Layer 1 (Fail)
//Storyboard Layer 2 (Pass)
//Storyboard Layer 3 (Foreground)
//Storyboard Sound Samples

[TimingPoints]
2953,219.78021978022,4,1,0,23,1,0

[HitObjects]
320,192,2953,5,0,0:0:0:0:
448,192,2953,1,0,0:0:0:0:
64,192,3172,1,0,0:0:0:0:
192,192,3227,1,0,0:0:0:0:
320,192,3282,1,0,0:0:0:0:
448,192,3337,1,0,0:0:0:0:
64,192,3392,1,0,0:0:0:0:
192,192,3447,1,0,0:0:0:0:
320,192,3502,1,0,0:0:0:0:
448,192,3612,1,0,0:0:0:0:
192,192,3612,1,0,0:0:0:0:
320,192,3722,1,0,0:0:0:0:
448,192,3722,1,0,0:0:0:0:
320,192,3832,1,0,0:0:0:0:
448,192,3832,1,0,0:0:0:0:
64,192,3832,1,0,0:0:0:0:
448,192,4051,1,0,0:0:0:0:
320,192,4106,1,0,0:0:0:0:
192,192,4161,1,0,0:0:0:0:
64,192,4216,1,0,0:0:0:0:
448,192,4271,1,0,0:0:0:0:
320,192,4326,1,0,0:0:0:0:
192,192,4381,1,0,0:0:0:0:
64,192,4711,1,0,0:0:0:0:
192,192,4711,1,0,0:0:0:0:
320,192,4711,1,0,0:0:0:0:
64,192,4931,1,0,0:0:0:0:
192,192,4985,1,0,0:0:0:0:
320,192,5040,1,0,0:0:0:0:
448,192,5095,1,0,0:0:0:0:
64,192,5150,1,0,0:0:0:0:
192,192,5205,1,0,0:0:0:0:
320,192,5260,1,0,0:0:0:0:
320,192,5370,1,0,0:0:0:0:
448,192,5370,1,0,0:0:0:0:
64,192,5480,1,0,0:0:0:0:
448,192,5480,1,0,0:0:0:0:
192,192,5590,1,0,0:0:0:0:
64,192,5590,1,0,0:0:0:0:
320,192,5590,1,0,0:0:0:0:
320,192,5920,1,0,0:0:0:0:
448,192,5920,1,0,0:0:0:0:
320,192,6249,1,0,0:0:0:0:
448,192,6249,1,0,0:0:0:0:
192,192,6469,1,0,0:0:0:0:
320,192,6469,1,0,0:0:0:0:
448,192,6469,1,0,0:0:0:0:
64,192,6469,1,0,0:0:0:0:
64,192,6524,1,0,0:0:0:0:
192,192,6579,1,0,0:0:0:0:
320,192,6634,1,0,0:0:0:0:
448,192,6689,1,0,0:0:0:0:
64,192,6744,1,0,0:0:0:0:
192,192,6799,1,0,0:0:0:0:
320,192,6854,1,0,0:0:0:0:
448,192,6909,1,0,0:0:0:0:
192,192,6963,1,0,0:0:0:0:
320,192,7018,1,0,0:0:0:0:
448,192,7073,1,0,0:0:0:0:
192,192,7128,1,0,0:0:0:0:
320,192,7183,1,0,0:0:0:0:
448,192,7238,1,0,0:0:0:0:
192,192,7293,1,0,0:0:0:0:
64,192,7348,1,0,0:0:0:0:
448,192,7348,1,0,0:0:0:0:
320,192,7403,1,0,0:0:0:0:
192,192,7458,1,0,0:0:0:0:
64,192,7513,1,0,0:0:0:0:
448,192,7513,1,0,0:0:0:0:
320,192,7568,1,0,0:0:0:0:
192,192,7623,1,0,0:0:0:0:
64,192,7678,1,0,0:0:0:0:
448,192,7678,1,0,0:0:0:0:
320,192,7733,1,0,0:0:0:0:
192,192,7788,1,0,0:0:0:0:
64,192,7788,1,0,0:0:0:0:
64,192,8227,1,0,0:0:0:0:
192,192,8227,1,0,0:0:0:0:
448,192,9106,1,0,0:0:0:0:
320,192,9106,1,0,0:0:0:0:
320,192,9326,1,0,0:0:0:0:
448,192,9326,1,0,0:0:0:0:
320,192,9546,1,0,0:0:0:0:
448,192,9546,1,0,0:0:0:0:
192,192,9601,1,0,0:0:0:0:
64,192,9601,1,0,0:0:0:0:
320,192,9656,1,0,0:0:0:0:
448,192,9656,1,0,0:0:0:0:
64,192,9711,1,0,0:0:0:0:
192,192,9711,1,0,0:0:0:0:
320,192,9766,1,0,0:0:0:0:
448,192,9766,1,0,0:0:0:0:
64,192,9802,1,0,0:0:0:0:
192,192,9839,1,0,0:0:0:0:
320,192,9876,1,0,0:0:0:0:
448,192,9912,1,0,0:0:0:0:
64,192,9949,1,0,0:0:0:0:
192,192,9985,1,0,0:0:0:0:
320,192,9985,1,0,0:0:0:0:
448,192,9985,1,0,0:0:0:0:
64,192,10040,1,0,0:0:0:0:
192,192,10095,1,0,0:0:0:0:
320,192,10150,1,0,0:0:0:0:
448,192,10205,1,0,0:0:0:0:
192,192,10205,1,0,0:0:0:0:
64,192,10205,1,0,0:0:0:0:
320,192,10260,1,0,0:0:0:0:
192,192,10315,1,0,0:0:0:0:
64,192,10370,1,0,0:0:0:0:
320,192,10425,1,0,0:0:0:0:
448,192,10425,1,0,0:0:0:0:
192,192,10480,1,0,0:0:0:0:
64,192,10535,1,0,0:0:0:0:
448,192,10535,1,0,0:0:0:0:
320,192,10590,1,0,0:0:0:0:
192,192,10645,1,0,0:0:0:0:
64,192,10645,1,0,0:0:0:0:
448,192,10700,1,0,0:0:0:0:
192,192,10755,1,0,0:0:0:0:
320,192,10755,1,0,0:0:0:0:
64,192,10810,1,0,0:0:0:0:
320,192,10865,1,0,0:0:0:0:
448,192,10865,1,0,0:0:0:0:
192,192,10920,1,0,0:0:0:0:
64,192,10974,1,0,0:0:0:0:
448,192,11029,1,0,0:0:0:0:
320,192,11084,1,0,0:0:0:0:
192,192,11084,1,0,0:0:0:0:
64,192,11084,1,0,0:0:0:0:
448,192,11139,1,0,0:0:0:0:
64,192,11194,1,0,0:0:0:0:
192,192,11249,1,0,0:0:0:0:
320,192,11304,1,0,0:0:0:0:
448,192,11304,1,0,0:0:0:0:
64,192,11304,1,0,0:0:0:0:
192,192,11359,1,0,0:0:0:0:
320,192,11414,1,0,0:0:0:0:
448,192,11469,1,0,0:0:0:0:
320,192,11524,1,0,0:0:0:0:
192,192,11524,1,0,0:0:0:0:
64,192,11524,1,0,0:0:0:0:
448,192,11579,1,0,0:0:0:0:
192,192,11634,1,0,0:0:0:0:
64,192,11634,1,0,0:0:0:0:
320,192,11689,1,0,0:0:0:0:
192,192,11744,1,0,0:0:0:0:
64,192,11744,1,0,0:0:0:0:
448,192,11799,1,0,0:0:0:0:
320,192,11854,1,0,0:0:0:0:
192,192,11909,1,0,0:0:0:0:
64,192,11963,1,0,0:0:0:0:
320,192,11963,1,0,0:0:0:0:
448,192,11963,1,0,0:0:0:0:
192,192,12018,1,0,0:0:0:0:
448,192,12073,1,0,0:0:0:0:
320,192,12128,1,0,0:0:0:0:
64,192,12183,1,0,0:0:0:0:
192,192,12183,1,0,0:0:0:0:
320,192,12238,1,0,0:0:0:0:
448,192,12293,1,0,0:0:0:0:
64,192,12293,1,0,0:0:0:0:
192,192,12348,1,0,0:0:0:0:
320,192,12403,1,0,0:0:0:0:
448,192,12403,1,0,0:0:0:0:
192,192,12458,1,0,0:0:0:0:
64,192,12513,1,0,0:0:0:0:
320,192,12568,1,0,0:0:0:0:
192,192,12623,1,0,0:0:0:0:
64,192,12623,1,0,0:0:0:0:
448,192,12623,1,0,0:0:0:0:
320,192,12678,1,0,0:0:0:0:
192,192,12733,1,0,0:0:0:0:
64,192,12788,1,0,0:0:0:0:
320,192,12843,1,0,0:0:0:0:
448,192,12843,1,0,0:0:0:0:
64,192,12898,1,0,0:0:0:0:
192,192,12953,1,0,0:0:0:0:
320,192,12953,1,0,0:0:0:0:
448,192,13007,1,0,0:0:0:0:
192,192,13062,1,0,0:0:0:0:
64,192,13062,1,0,0:0:0:0:
320,192,13117,1,0,0:0:0:0:
448,192,13172,1,0,0:0:0:0:
64,192,13227,1,0,0:0:0:0:
192,192,13282,1,0,0:0:0:0:
320,192,13282,1,0,0:0:0:0:
448,192,13282,1,0,0:0:0:0:
64,192,13337,1,0,0:0:0:0:
192,192,13392,1,0,0:0:0:0:
320,192,13447,1,0,0:0:0:0:
448,192,13502,1,0,0:0:0:0:
192,192,13502,1,0,0:0:0:0:
64,192,13502,1,0,0:0:0:0:
320,192,13557,1,0,0:0:0:0:
64,192,13612,1,0,0:0:0:0:
192,192,13612,1,0,0:0:0:0:
448,192,13667,1,0,0:0:0:0:
320,192,13722,1,0,0:0:0:0:
64,192,13722,1,0,0:0:0:0:
192,192,13777,1,0,0:0:0:0:
320,192,13832,1,0,0:0:0:0:
448,192,13887,1,0,0:0:0:0:
64,192,13942,1,0,0:0:0:0:
192,192,13942,1,0,0:0:0:0:
320,192,13942,1,0,0:0:0:0:
448,192,13996,1,0,0:0:0:0:
64,192,14051,1,0,0:0:0:0:
192,192,14051,1,0,0:0:0:0:
320,192,14106,1,0,0:0:0:0:
448,192,14161,1,0,0:0:0:0:
64,192,14161,1,0,0:0:0:0:
192,192,14216,1,0,0:0:0:0:
320,192,14271,1,0,0:0:0:0:
448,192,14271,1,0,0:0:0:0:
192,192,14326,1,0,0:0:0:0:
64,192,14381,1,0,0:0:0:0:
448,192,14381,1,0,0:0:0:0:
320,192,14436,1,0,0:0:0:0:
192,192,14491,1,0,0:0:0:0:
448,192,14491,1,0,0:0:0:0:
64,192,14546,1,0,0:0:0:0:
320,192,14601,1,0,0:0:0:0:
448,192,14601,1,0,0:0:0:0:
192,192,14601,1,0,0:0:0:0:
64,192,14656,1,0,0:0:0:0:
192,192,14711,1,0,0:0:0:0:
320,192,14766,1,0,0:0:0:0:
448,192,14821,1,0,0:0:0:0:
64,192,14821,1,0,0:0:0:0:
192,192,14876,1,0,0:0:0:0:
320,192,14931,1,0,0:0:0:0:
448,192,14931,1,0,0:0:0:0:
192,192,14985,1,0,0:0:0:0:
64,192,15040,1,0,0:0:0:0:
448,192,15040,1,0,0:0:0:0:
320,192,15095,1,0,0:0:0:0:
192,192,15150,1,0,0:0:0:0:
64,192,15150,1,0,0:0:0:0:
320,192,15205,1,0,0:0:0:0:
448,192,15260,1,0,0:0:0:0:
192,192,15260,1,0,0:0:0:0:
64,192,15260,1,0,0:0:0:0:
320,192,15315,1,0,0:0:0:0:
64,192,15370,1,0,0:0:0:0:
192,192,15425,1,0,0:0:0:0:
320,192,15480,1,0,0:0:0:0:
448,192,15480,1,0,0:0:0:0:
192,192,15535,1,0,0:0:0:0:
64,192,15590,1,0,0:0:0:0:
448,192,15590,1,0,0:0:0:0:
320,192,15645,1,0,0:0:0:0:
192,192,15700,1,0,0:0:0:0:
64,192,15700,1,0,0:0:0:0:
448,192,15755,1,0,0:0:0:0:
320,192,15810,1,0,0:0:0:0:
192,192,15865,1,0,0:0:0:0:
64,192,15920,1,0,0:0:0:0:
320,192,15920,1,0,0:0:0:0:
448,192,15920,1,0,0:0:0:0:
192,192,15974,1,0,0:0:0:0:
448,192,16029,1,0,0:0:0:0:
320,192,16029,1,0,0:0:0:0:
64,192,16084,1,0,0:0:0:0:
192,192,16139,1,0,0:0:0:0:
320,192,16139,1,0,0:0:0:0:
448,192,16139,1,0,0:0:0:0:
64,192,16249,1,0,0:0:0:0:
192,192,16249,1,0,0:0:0:0:
448,192,16249,1,0,0:0:0:0:
448,192,16469,1,0,0:0:0:0:
320,192,16469,1,0,0:0:0:0:
192,192,16469,1,0,0:0:0:0:
64,192,16469,1,0,0:0:0:0:
64,192,16689,1,0,0:0:0:0:
192,192,16689,1,0,0:0:0:0:
320,192,16744,1,0,0:0:0:0:
448,192,16744,1,0,0:0:0:0:
192,192,16799,1,0,0:0:0:0:
64,192,16799,1,0,0:0:0:0:
320,192,16909,1,0,0:0:0:0:
448,192,16909,1,0,0:0:0:0:
192,192,17018,1,0,0:0:0:0:
64,192,17018,1,0,0:0:0:0:
448,192,17018,1,0,0:0:0:0:
320,192,17073,1,0,0:0:0:0:
192,192,17128,1,0,0:0:0:0:
64,192,17183,1,0,0:0:0:0:
192,192,17238,1,0,0:0:0:0:
320,192,17238,1,0,0:0:0:0:
448,192,17238,1,0,0:0:0:0:
64,192,17293,1,0,0:0:0:0:
192,192,17348,1,0,0:0:0:0:
320,192,17403,1,0,0:0:0:0:
448,192,17458,1,0,0:0:0:0:
64,192,17458,1,0,0:0:0:0:
192,192,17513,1,0,0:0:0:0:
320,192,17568,1,0,0:0:0:0:
448,192,17568,1,0,0:0:0:0:
192,192,17623,1,0,0:0:0:0:
64,192,17678,1,0,0:0:0:0:
320,192,17678,1,0,0:0:0:0:
448,192,17678,1,0,0:0:0:0:
192,192,17733,1,0,0:0:0:0:
448,192,17788,1,0,0:0:0:0:
320,192,17788,1,0,0:0:0:0:
192,192,17843,1,0,0:0:0:0:
64,192,17898,1,0,0:0:0:0:
448,192,17898,1,0,0:0:0:0:
320,192,17953,1,0,0:0:0:0:
192,192,18007,1,0,0:0:0:0:
64,192,18062,1,0,0:0:0:0:
320,192,18117,1,0,0:0:0:0:
448,192,18117,1,0,0:0:0:0:
192,192,18117,1,0,0:0:0:0:
64,192,18172,1,0,0:0:0:0:
192,192,18227,1,0,0:0:0:0:
448,192,18227,1,0,0:0:0:0:
320,192,18282,1,0,0:0:0:0:
192,192,18337,1,0,0:0:0:0:
64,192,18337,1,0,0:0:0:0:
448,192,18392,1,0,0:0:0:0:
192,192,18447,1,0,0:0:0:0:
64,192,18447,1,0,0:0:0:0:
320,192,18502,1,0,0:0:0:0:
64,192,18557,1,0,0:0:0:0:
192,192,18557,1,0,0:0:0:0:
448,192,18557,1,0,0:0:0:0:
320,192,18612,1,0,0:0:0:0:
64,192,18667,1,0,0:0:0:0:
192,192,18722,1,0,0:0:0:0:
320,192,18777,1,0,0:0:0:0:
448,192,18777,1,0,0:0:0:0:
64,192,18832,1,0,0:0:0:0:
192,192,18887,1,0,0:0:0:0:
320,192,18942,1,0,0:0:0:0:
448,192,18996,1,0,0:0:0:0:
192,192,19051,1,0,0:0:0:0:
64,192,19106,1,0,0:0:0:0:
448,192,19106,1,0,0:0:0:0:
320,192,19161,1,0,0:0:0:0:
192,192,19216,1,0,0:0:0:0:
64,192,19216,1,0,0:0:0:0:
448,192,19216,1,0,0:0:0:0:
320,192,19271,1,0,0:0:0:0:
192,192,19326,1,0,0:0:0:0:
64,192,19381,1,0,0:0:0:0:
448,192,19436,1,0,0:0:0:0:
320,192,19436,1,0,0:0:0:0:
192,192,19436,1,0,0:0:0:0:
64,192,19491,1,0,0:0:0:0:
192,192,19546,1,0,0:0:0:0:
448,192,19601,1,0,0:0:0:0:
320,192,19656,1,0,0:0:0:0:
64,192,19656,1,0,0:0:0:0:
192,192,19711,1,0,0:0:0:0:
320,192,19766,1,0,0:0:0:0:
448,192,19766,1,0,0:0:0:0:
64,192,19821,1,0,0:0:0:0:
192,192,19876,1,0,0:0:0:0:
320,192,19876,1,0,0:0:0:0:
448,192,19876,1,0,0:0:0:0:
64,192,19931,1,0,0:0:0:0:
192,192,19985,1,0,0:0:0:0:
320,192,20040,1,0,0:0:0:0:
448,192,20095,1,0,0:0:0:0:
192,192,20095,1,0,0:0:0:0:
64,192,20095,1,0,0:0:0:0:
320,192,20150,1,0,0:0:0:0:
192,192,20205,1,0,0:0:0:0:
64,192,20205,1,0,0:0:0:0:
448,192,20260,1,0,0:0:0:0:
320,192,20315,1,0,0:0:0:0:
192,192,20315,1,0,0:0:0:0:
64,192,20315,1,0,0:0:0:0:
448,192,20370,1,0,0:0:0:0:
320,192,20425,1,0,0:0:0:0:
192,192,20480,1,0,0:0:0:0:
64,192,20535,1,0,0:0:0:0:
320,192,20535,1,0,0:0:0:0:
448,192,20535,1,0,0:0:0:0:
192,192,20590,1,0,0:0:0:0:
448,192,20645,1,0,0:0:0:0:
320,192,20700,1,0,0:0:0:0:
192,192,20755,1,0,0:0:0:0:
64,192,20755,1,0,0:0:0:0:
448,192,20810,1,0,0:0:0:0:
64,192,20865,1,0,0:0:0:0:
320,192,20865,1,0,0:0:0:0:
192,192,20920,1,0,0:0:0:0:
320,192,20974,1,0,0:0:0:0:
448,192,20974,1,0,0:0:0:0:
192,192,21029,1,0,0:0:0:0:
320,192,21084,1,0,0:0:0:0:
448,192,21084,1,0,0:0:0:0:
192,192,21139,1,0,0:0:0:0:
64,192,21194,1,0,0:0:0:0:
448,192,21194,1,0,0:0:0:0:
320,192,21249,1,0,0:0:0:0:
192,192,21304,1,0,0:0:0:0:
64,192,21304,1,0,0:0:0:0:
448,192,21359,1,0,0:0:0:0:
320,192,21414,1,0,0:0:0:0:
192,192,21414,1,0,0:0:0:0:
64,192,21414,1,0,0:0:0:0:
448,192,21469,1,0,0:0:0:0:
320,192,21524,1,0,0:0:0:0:
192,192,21579,1,0,0:0:0:0:
448,192,21634,1,0,0:0:0:0:
64,192,21634,1,0,0:0:0:0:
192,192,21689,1,0,0:0:0:0:
320,192,21689,1,0,0:0:0:0:
64,192,21744,1,0,0:0:0:0:
448,192,21744,1,0,0:0:0:0:
192,192,21799,1,0,0:0:0:0:
320,192,21854,1,0,0:0:0:0:
448,192,21854,1,0,0:0:0:0:
192,192,21909,1,0,0:0:0:0:
64,192,21963,1,0,0:0:0:0:
448,192,21963,1,0,0:0:0:0:
320,192,22018,1,0,0:0:0:0:
64,192,22073,1,0,0:0:0:0:
192,192,22073,1,0,0:0:0:0:
448,192,22073,1,0,0:0:0:0:
320,192,22128,1,0,0:0:0:0:
64,192,22183,1,0,0:0:0:0:
448,192,22183,1,0,0:0:0:0:
192,192,22238,1,0,0:0:0:0:
320,192,22293,1,0,0:0:0:0:
448,192,22293,1,0,0:0:0:0:
64,192,22403,1,0,0:0:0:0:
192,192,22403,1,0,0:0:0:0:
320,192,22403,1,0,0:0:0:0:
192,192,22513,1,0,0:0:0:0:
64,192,22513,1,0,0:0:0:0:
448,192,22513,1,0,0:0:0:0:
192,192,22623,1,0,0:0:0:0:
320,192,22623,1,0,0:0:0:0:
448,192,22623,1,0,0:0:0:0:
448,192,22733,1,0,0:0:0:0:
320,192,22733,1,0,0:0:0:0:
64,192,22733,1,0,0:0:0:0:
64,192,22843,1,0,0:0:0:0:
192,192,22843,1,0,0:0:0:0:
448,192,22843,1,0,0:0:0:0:
320,192,22898,1,0,0:0:0:0:
192,192,22953,1,0,0:0:0:0:
64,192,23007,1,0,0:0:0:0:
448,192,23007,1,0,0:0:0:0:
320,192,23062,1,0,0:0:0:0:
192,192,23117,1,0,0:0:0:0:
64,192,23172,1,0,0:0:0:0:
320,192,23172,1,0,0:0:0:0:
448,192,23172,1,0,0:0:0:0:
192,192,23282,1,0,0:0:0:0:
320,192,23282,1,0,0:0:0:0:
448,192,23282,1,0,0:0:0:0:
64,192,23502,1,0,0:0:0:0:
192,192,23502,1,0,0:0:0:0:
320,192,23502,1,0,0:0:0:0:
320,192,23722,1,0,0:0:0:0:
448,192,23722,1,0,0:0:0:0:
64,192,23722,1,0,0:0:0:0:
192,192,23777,1,0,0:0:0:0:
64,192,23832,1,0,0:0:0:0:
448,192,23832,1,0,0:0:0:0:
320,192,23887,1,0,0:0:0:0:
192,192,23942,1,0,0:0:0:0:
64,192,23942,1,0,0:0:0:0:
320,192,24051,1,0,0:0:0:0:
448,192,24051,1,0,0:0:0:0:
192,192,24051,1,0,0:0:0:0:
64,192,24051,1,0,0:0:0:0:
320,192,24271,1,0,0:0:0:0:
192,192,24491,1,0,0:0:0:0:
64,192,24491,1,0,0:0:0:0:
448,192,24491,1,0,0:0:0:0:
320,192,24711,1,0,0:0:0:0:
192,192,24821,1,0,0:0:0:0:
64,192,24821,1,0,0:0:0:0:
64,192,24931,1,0,0:0:0:0:
192,192,24967,1,0,0:0:0:0:
320,192,25004,1,0,0:0:0:0:
448,192,25040,1,0,0:0:0:0:
64,192,25077,1,0,0:0:0:0:
192,192,25114,1,0,0:0:0:0:
320,192,25150,1,0,0:0:0:0:
64,192,25150,1,0,0:0:0:0:
448,192,25187,1,0,0:0:0:0:
192,192,25260,1,0,0:0:0:0:
448,192,25297,1,0,0:0:0:0:
320,192,25333,1,0,0:0:0:0:
192,192,25370,1,0,0:0:0:0:
64,192,25407,1,0,0:0:0:0:
448,192,25443,1,0,0:0:0:0:
320,192,25480,1,0,0:0:0:0:
192,192,25517,1,0,0:0:0:0:
64,192,25553,1,0,0:0:0:0:
320,192,25590,1,0,0:0:0:0:
448,192,25590,1,0,0:0:0:0:
192,192,25700,1,0,0:0:0:0:
64,192,25700,1,0,0:0:0:0:
192,192,25810,1,0,0:0:0:0:
64,192,25810,1,0,0:0:0:0:
320,192,25810,1,0,0:0:0:0:
320,192,25920,1,0,0:0:0:0:
192,192,26029,1,0,0:0:0:0:
64,192,26139,1,0,0:0:0:0:
192,192,26249,1,0,0:0:0:0:
320,192,26359,1,0,0:0:0:0:
192,192,26469,1,0,0:0:0:0:
448,192,26469,1,0,0:0:0:0:
64,192,26579,1,0,0:0:0:0:
320,192,26579,1,0,0:0:0:0:
192,192,26689,1,0,0:0:0:0:
448,192,26689,1,0,0:0:0:0:
320,192,26689,1,0,0:0:0:0:
64,192,26799,1,0,0:0:0:0:
192,192,26909,1,0,0:0:0:0:
320,192,26909,1,0,0:0:0:0:
448,192,27018,1,0,0:0:0:0:
64,192,27018,1,0,0:0:0:0:
320,192,27128,1,0,0:0:0:0:
64,192,27128,1,0,0:0:0:0:
192,192,27238,1,0,0:0:0:0:
448,192,27348,1,0,0:0:0:0:
320,192,27348,1,0,0:0:0:0:
64,192,27348,1,0,0:0:0:0:
320,192,27568,1,0,0:0:0:0:
448,192,27568,1,0,0:0:0:0:
192,192,27568,1,0,0:0:0:0:
64,192,27788,1,0,0:0:0:0:
192,192,27788,1,0,0:0:0:0:
64,192,27898,1,0,0:0:0:0:
192,192,27898,1,0,0:0:0:0:
320,192,28007,1,0,0:0:0:0:
448,192,28007,1,0,0:0:0:0:
192,192,28117,1,0,0:0:0:0:
192,192,28227,1,0,0:0:0:0:
448,192,28227,1,0,0:0:0:0:
320,192,28337,1,0,0:0:0:0:
448,192,28337,1,0,0:0:0:0:
320,192,28447,1,0,0:0:0:0:
448,192,28447,1,0,0:0:0:0:
192,192,28557,1,0,0:0:0:0:
64,192,28557,1,0,0:0:0:0:
192,192,28667,1,0,0:0:0:0:
320,192,28667,1,0,0:0:0:0:
64,192,28777,1,0,0:0:0:0:
64,192,28887,1,0,0:0:0:0:
192,192,28887,1,0,0:0:0:0:
448,192,28887,1,0,0:0:0:0:
448,192,28996,1,0,0:0:0:0:
448,192,29106,1,0,0:0:0:0:
320,192,29106,1,0,0:0:0:0:
192,192,29106,1,0,0:0:0:0:
64,192,29216,1,0,0:0:0:0:
192,192,29326,1,0,0:0:0:0:
64,192,29326,1,0,0:0:0:0:
320,192,29326,1,0,0:0:0:0:
448,192,29436,1,0,0:0:0:0:
192,192,29546,1,0,0:0:0:0:
448,192,29656,1,0,0:0:0:0:
64,192,29766,1,0,0:0:0:0:
320,192,29766,1,0,0:0:0:0:
192,192,29766,1,0,0:0:0:0:
64,192,29876,1,0,0:0:0:0:
320,192,29985,1,0,0:0:0:0:
64,192,30095,1,0,0:0:0:0:
320,192,30205,1,0,0:0:0:0:
192,192,30205,1,0,0:0:0:0:
448,192,30205,1,0,0:0:0:0:
448,192,30315,1,0,0:0:0:0:
64,192,30425,1,0,0:0:0:0:
192,192,30425,1,0,0:0:0:0:
448,192,30535,1,0,0:0:0:0:
320,192,30645,1,0,0:0:0:0:
448,192,30645,1,0,0:0:0:0:
192,192,30645,1,0,0:0:0:0:
64,192,30755,1,0,0:0:0:0:
320,192,30755,1,0,0:0:0:0:
64,192,30865,1,0,0:0:0:0:
192,192,30865,1,0,0:0:0:0:
448,192,30865,1,0,0:0:0:0:
320,192,30974,1,0,0:0:0:0:
64,192,30974,1,0,0:0:0:0:
192,192,30974,1,0,0:0:0:0:
64,192,31084,1,0,0:0:0:0:
320,192,31084,1,0,0:0:0:0:
448,192,31084,1,0,0:0:0:0:
192,192,31084,1,0,0:0:0:0:
448,192,31194,1,0,0:0:0:0:
320,192,31194,1,0,0:0:0:0:
448,192,31304,1,0,0:0:0:0:
192,192,31304,1,0,0:0:0:0:
448,192,31414,1,0,0:0:0:0:
320,192,31414,1,0,0:0:0:0:
192,192,31414,1,0,0:0:0:0:
64,192,31414,1,0,0:0:0:0:
64,192,31524,1,0,0:0:0:0:
64,192,31634,1,0,0:0:0:0:
192,192,31634,1,0,0:0:0:0:
320,192,31744,1,0,0:0:0:0:
192,192,31963,1,0,0:0:0:0:
320,192,31963,1,0,0:0:0:0:
448,192,31963,1,0,0:0:0:0:
64,192,31963,1,0,0:0:0:0:
192,192,32073,1,0,0:0:0:0:
448,192,32073,1,0,0:0:0:0:
192,192,32183,1,0,0:0:0:0:
320,192,32183,1,0,0:0:0:0:
192,192,32293,1,0,0:0:0:0:
320,192,32293,1,0,0:0:0:0:
448,192,32293,1,0,0:0:0:0:
64,192,32293,1,0,0:0:0:0:
448,192,32403,1,0,0:0:0:0:
448,192,32513,1,0,0:0:0:0:
320,192,32513,1,0,0:0:0:0:
192,192,32623,1,0,0:0:0:0:
64,192,32623,1,0,0:0:0:0:
320,192,32843,1,0,0:0:0:0:
448,192,32843,1,0,0:0:0:0:
192,192,32843,1,0,0:0:0:0:
64,192,32843,1,0,0:0:0:0:
64,192,32953,1,0,0:0:0:0:
320,192,32953,1,0,0:0:0:0:
64,192,33062,1,0,0:0:0:0:
192,192,33062,1,0,0:0:0:0:
64,192,33172,1,0,0:0:0:0:
192,192,33172,1,0,0:0:0:0:
320,192,33172,1,0,0:0:0:0:
448,192,33172,1,0,0:0:0:0:
320,192,33282,1,0,0:0:0:0:
320,192,33392,1,0,0:0:0:0:
448,192,33392,1,0,0:0:0:0:
192,192,33502,1,0,0:0:0:0:
448,192,33502,1,0,0:0:0:0:
320,192,33557,1,0,0:0:0:0:
192,192,33612,1,0,0:0:0:0:
320,192,33667,1,0,0:0:0:0:
192,192,33722,1,0,0:0:0:0:
64,192,33722,1,0,0:0:0:0:
320,192,33722,1,0,0:0:0:0:
448,192,33722,1,0,0:0:0:0:
64,192,33832,1,0,0:0:0:0:
448,192,33832,1,0,0:0:0:0:
192,192,33942,1,0,0:0:0:0:
64,192,33942,1,0,0:0:0:0:
192,192,34051,1,0,0:0:0:0:
448,192,34051,1,0,0:0:0:0:
320,192,34161,1,0,0:0:0:0:
448,192,34161,1,0,0:0:0:0:
64,192,34161,1,0,0:0:0:0:
192,192,34161,1,0,0:0:0:0:
64,192,34271,1,0,0:0:0:0:
192,192,34271,1,0,0:0:0:0:
320,192,34381,1,0,0:0:0:0:
448,192,34381,1,0,0:0:0:0:
64,192,34491,1,0,0:0:0:0:
448,192,34491,1,0,0:0:0:0:
448,192,34601,1,0,0:0:0:0:
320,192,34601,1,0,0:0:0:0:
64,192,34601,1,0,0:0:0:0:
192,192,34601,1,0,0:0:0:0:
192,192,34711,1,0,0:0:0:0:
320,192,34711,1,0,0:0:0:0:
192,192,34821,1,0,0:0:0:0:
64,192,34821,1,0,0:0:0:0:
192,192,34931,1,0,0:0:0:0:
64,192,34931,1,0,0:0:0:0:
320,192,34931,1,0,0:0:0:0:
448,192,34931,1,0,0:0:0:0:
448,192,35040,1,0,0:0:0:0:
448,192,35150,1,0,0:0:0:0:
320,192,35150,1,0,0:0:0:0:
192,192,35205,1,0,0:0:0:0:
64,192,35205,1,0,0:0:0:0:
320,192,35260,1,0,0:0:0:0:
448,192,35260,1,0,0:0:0:0:
64,192,35370,1,0,0:0:0:0:
192,192,35370,1,0,0:0:0:0:
192,192,35480,1,0,0:0:0:0:
64,192,35480,1,0,0:0:0:0:
320,192,35480,1,0,0:0:0:0:
448,192,35480,1,0,0:0:0:0:
320,192,35590,1,0,0:0:0:0:
448,192,35590,1,0,0:0:0:0:
320,192,35700,1,0,0:0:0:0:
64,192,35700,1,0,0:0:0:0:
320,192,35810,1,0,0:0:0:0:
192,192,35810,1,0,0:0:0:0:
64,192,35810,1,0,0:0:0:0:
448,192,35810,1,0,0:0:0:0:
192,192,35920,1,0,0:0:0:0:
320,192,35974,1,0,0:0:0:0:
448,192,36029,1,0,0:0:0:0:
192,192,36029,1,0,0:0:0:0:
64,192,36084,1,0,0:0:0:0:
192,192,36139,1,0,0:0:0:0:
320,192,36139,1,0,0:0:0:0:
448,192,36139,1,0,0:0:0:0:
320,192,36249,1,0,0:0:0:0:
448,192,36249,1,0,0:0:0:0:
320,192,36359,1,0,0:0:0:0:
448,192,36359,1,0,0:0:0:0:
64,192,36359,1,0,0:0:0:0:
192,192,36359,1,0,0:0:0:0:
64,192,36469,1,0,0:0:0:0:
192,192,36469,1,0,0:0:0:0:
64,192,36579,1,0,0:0:0:0:
448,192,36579,1,0,0:0:0:0:
320,192,36689,1,0,0:0:0:0:
448,192,36689,1,0,0:0:0:0:
192,192,36689,1,0,0:0:0:0:
64,192,36689,1,0,0:0:0:0:
320,192,36799,1,0,0:0:0:0:
192,192,36854,1,0,0:0:0:0:
64,192,36909,1,0,0:0:0:0:
448,192,36909,1,0,0:0:0:0:
320,192,36963,1,0,0:0:0:0:
192,192,37018,1,0,0:0:0:0:
64,192,37018,1,0,0:0:0:0:
448,192,37018,1,0,0:0:0:0:
320,192,37073,1,0,0:0:0:0:
448,192,37073,1,0,0:0:0:0:
192,192,37128,1,0,0:0:0:0:
64,192,37128,1,0,0:0:0:0:
320,192,37183,1,0,0:0:0:0:
448,192,37183,1,0,0:0:0:0:
192,192,37238,1,0,0:0:0:0:
64,192,37238,1,0,0:0:0:0:
448,192,37238,1,0,0:0:0:0:
320,192,37238,1,0,0:0:0:0:
192,192,37348,1,0,0:0:0:0:
64,192,37348,1,0,0:0:0:0:
192,192,37458,1,0,0:0:0:0:
448,192,37458,1,0,0:0:0:0:
192,192,37568,1,0,0:0:0:0:
320,192,37678,1,0,0:0:0:0:
448,192,37678,1,0,0:0:0:0:
64,192,37788,1,0,0:0:0:0:
448,192,37788,1,0,0:0:0:0:
192,192,37898,1,0,0:0:0:0:
64,192,37898,1,0,0:0:0:0:
192,192,38007,1,0,0:0:0:0:
448,192,38007,1,0,0:0:0:0:
320,192,38117,1,0,0:0:0:0:
448,192,38117,1,0,0:0:0:0:
64,192,38117,1,0,0:0:0:0:
64,192,38227,1,0,0:0:0:0:
192,192,38227,1,0,0:0:0:0:
192,192,38337,1,0,0:0:0:0:
448,192,38337,1,0,0:0:0:0:
448,192,38447,1,0,0:0:0:0:
64,192,38447,1,0,0:0:0:0:
64,192,38557,1,0,0:0:0:0:
192,192,38557,1,0,0:0:0:0:
320,192,38667,1,0,0:0:0:0:
448,192,38667,1,0,0:0:0:0:
320,192,38777,1,0,0:0:0:0:
64,192,38777,1,0,0:0:0:0:
192,192,38887,1,0,0:0:0:0:
448,192,38887,1,0,0:0:0:0:
320,192,38996,1,0,0:0:0:0:
448,192,38996,1,0,0:0:0:0:
64,192,39106,1,0,0:0:0:0:
320,192,39106,1,0,0:0:0:0:
192,192,39216,1,0,0:0:0:0:
64,192,39216,1,0,0:0:0:0:
192,192,39326,1,0,0:0:0:0:
448,192,39326,1,0,0:0:0:0:
320,192,39436,1,0,0:0:0:0:
64,192,39436,1,0,0:0:0:0:
192,192,39546,1,0,0:0:0:0:
448,192,39546,1,0,0:0:0:0:
320,192,39656,1,0,0:0:0:0:
448,192,39656,1,0,0:0:0:0:
192,192,39766,1,0,0:0:0:0:
64,192,39766,1,0,0:0:0:0:
64,192,39876,1,0,0:0:0:0:
320,192,39876,1,0,0:0:0:0:
448,192,39876,1,0,0:0:0:0:
192,192,39985,1,0,0:0:0:0:
448,192,39985,1,0,0:0:0:0:
320,192,40095,1,0,0:0:0:0:
192,192,40095,1,0,0:0:0:0:
64,192,40095,1,0,0:0:0:0:
64,192,40205,1,0,0:0:0:0:
448,192,40205,1,0,0:0:0:0:
320,192,40315,1,0,0:0:0:0:
448,192,40315,1,0,0:0:0:0:
192,192,40315,1,0,0:0:0:0:
320,192,40425,1,0,0:0:0:0:
64,192,40425,1,0,0:0:0:0:
192,192,40535,1,0,0:0:0:0:
320,192,40535,1,0,0:0:0:0:
448,192,40535,1,0,0:0:0:0:
192,192,40645,1,0,0:0:0:0:
64,192,40645,1,0,0:0:0:0:
64,192,40755,1,0,0:0:0:0:
320,192,40755,1,0,0:0:0:0:
448,192,40755,1,0,0:0:0:0:
192,192,40865,1,0,0:0:0:0:
448,192,40865,1,0,0:0:0:0:
320,192,40974,1,0,0:0:0:0:
192,192,40974,1,0,0:0:0:0:
64,192,40974,1,0,0:0:0:0:
64,192,41084,1,0,0:0:0:0:
448,192,41084,1,0,0:0:0:0:
320,192,41194,1,0,0:0:0:0:
448,192,41194,1,0,0:0:0:0:
64,192,41194,1,0,0:0:0:0:
192,192,41304,1,0,0:0:0:0:
320,192,41304,1,0,0:0:0:0:
64,192,41414,1,0,0:0:0:0:
448,192,41414,1,0,0:0:0:0:
320,192,41524,1,0,0:0:0:0:
448,192,41524,1,0,0:0:0:0:
192,192,41634,1,0,0:0:0:0:
64,192,41634,1,0,0:0:0:0:
320,192,41634,1,0,0:0:0:0:
64,192,41744,1,0,0:0:0:0:
192,192,41744,1,0,0:0:0:0:
448,192,41744,1,0,0:0:0:0:
64,192,41854,1,0,0:0:0:0:
192,192,41854,1,0,0:0:0:0:
320,192,41854,1,0,0:0:0:0:
64,192,41963,1,0,0:0:0:0:
192,192,41963,1,0,0:0:0:0:
320,192,41963,1,0,0:0:0:0:
192,192,42073,1,0,0:0:0:0:
64,192,42073,1,0,0:0:0:0:
448,192,42073,1,0,0:0:0:0:
320,192,42183,1,0,0:0:0:0:
448,192,42183,1,0,0:0:0:0:
192,192,42183,1,0,0:0:0:0:
64,192,42293,1,0,0:0:0:0:
320,192,42403,1,0,0:0:0:0:
448,192,42403,1,0,0:0:0:0:
192,192,42403,1,0,0:0:0:0:
448,192,42513,1,0,0:0:0:0:
64,192,42513,1,0,0:0:0:0:
192,192,42623,1,0,0:0:0:0:
448,192,42623,1,0,0:0:0:0:
64,192,42623,1,0,0:0:0:0:
320,192,42733,1,0,0:0:0:0:
192,192,42733,1,0,0:0:0:0:
64,192,42733,1,0,0:0:0:0:
192,192,42843,1,0,0:0:0:0:
64,192,42843,1,0,0:0:0:0:
448,192,42843,1,0,0:0:0:0:
320,192,42953,1,0,0:0:0:0:
448,192,42953,1,0,0:0:0:0:
192,192,42953,1,0,0:0:0:0:
320,192,43062,1,0,0:0:0:0:
448,192,43062,1,0,0:0:0:0:
64,192,43062,1,0,0:0:0:0:
320,192,43172,1,0,0:0:0:0:
448,192,43172,1,0,0:0:0:0:
192,192,43172,1,0,0:0:0:0:
320,192,43282,1,0,0:0:0:0:
448,192,43282,1,0,0:0:0:0:
64,192,43282,1,0,0:0:0:0:
320,192,43392,1,0,0:0:0:0:
448,192,43392,1,0,0:0:0:0:
64,192,43392,1,0,0:0:0:0:
64,192,45150,1,0,0:0:0:0:
192,192,45150,1,0,0:0:0:0:
320,192,45150,1,0,0:0:0:0:
320,192,45590,1,0,0:0:0:0:
448,192,45590,1,0,0:0:0:0:
64,192,45590,1,0,0:0:0:0:
192,192,45810,1,0,0:0:0:0:
64,192,45810,1,0,0:0:0:0:
320,192,46029,1,0,0:0:0:0:
448,192,46029,1,0,0:0:0:0:
64,192,46029,1,0,0:0:0:0:
192,192,46249,1,0,0:0:0:0:
448,192,46249,1,0,0:0:0:0:
320,192,46359,1,0,0:0:0:0:
448,192,46359,1,0,0:0:0:0:
320,192,46469,1,0,0:0:0:0:
448,192,46469,1,0,0:0:0:0:
192,192,46469,1,0,0:0:0:0:
192,192,46689,1,0,0:0:0:0:
64,192,46689,1,0,0:0:0:0:
64,192,46909,1,0,0:0:0:0:
192,192,46909,1,0,0:0:0:0:
320,192,46909,1,0,0:0:0:0:
192,192,47128,1,0,0:0:0:0:
448,192,47128,1,0,0:0:0:0:
320,192,47348,1,0,0:0:0:0:
448,192,47348,1,0,0:0:0:0:
64,192,47348,1,0,0:0:0:0:
64,192,47568,1,0,0:0:0:0:
192,192,47568,1,0,0:0:0:0:
192,192,47788,1,0,0:0:0:0:
320,192,47788,1,0,0:0:0:0:
448,192,47788,1,0,0:0:0:0:
64,192,48007,1,0,0:0:0:0:
448,192,48007,1,0,0:0:0:0:
320,192,48117,1,0,0:0:0:0:
448,192,48117,1,0,0:0:0:0:
64,192,48227,1,0,0:0:0:0:
192,192,48227,1,0,0:0:0:0:
320,192,48227,1,0,0:0:0:0:
192,192,48337,1,0,0:0:0:0:
192,192,48447,1,0,0:0:0:0:
320,192,48447,1,0,0:0:0:0:
448,192,48447,1,0,0:0:0:0:
448,192,48557,1,0,0:0:0:0:
320,192,48667,1,0,0:0:0:0:
448,192,48667,1,0,0:0:0:0:
64,192,48667,1,0,0:0:0:0:
192,192,49106,1,0,0:0:0:0:
64,192,49106,1,0,0:0:0:0:
320,192,49106,1,0,0:0:0:0:
192,192,49326,1,0,0:0:0:0:
448,192,49326,1,0,0:0:0:0:
320,192,49546,1,0,0:0:0:0:
448,192,49546,1,0,0:0:0:0:
64,192,49546,1,0,0:0:0:0:
192,192,49876,1,0,0:0:0:0:
320,192,49985,1,0,0:0:0:0:
448,192,49985,1,0,0:0:0:0:
448,192,50205,1,0,0:0:0:0:
64,192,50205,1,0,0:0:0:0:
320,192,50425,1,0,0:0:0:0:
448,192,50425,1,0,0:0:0:0:
64,192,50425,1,0,0:0:0:0:
64,192,50865,1,0,0:0:0:0:
192,192,50865,1,0,0:0:0:0:
320,192,50865,1,0,0:0:0:0:
320,192,51084,1,0,0:0:0:0:
448,192,51084,1,0,0:0:0:0:
192,192,51304,1,0,0:0:0:0:
64,192,51304,1,0,0:0:0:0:
448,192,51304,1,0,0:0:0:0:
320,192,51524,1,0,0:0:0:0:
448,192,51524,1,0,0:0:0:0:
192,192,51524,1,0,0:0:0:0:
192,192,51854,1,0,0:0:0:0:
64,192,51854,1,0,0:0:0:0:
320,192,51854,1,0,0:0:0:0:
448,192,52183,1,0,0:0:0:0:
320,192,52623,1,0,0:0:0:0:
448,192,52623,1,0,0:0:0:0:
64,192,52623,1,0,0:0:0:0:
64,192,52733,1,0,0:0:0:0:
64,192,52843,1,0,0:0:0:0:
320,192,52843,1,0,0:0:0:0:
192,192,52843,1,0,0:0:0:0:
448,192,53062,1,0,0:0:0:0:
320,192,53062,1,0,0:0:0:0:
192,192,53062,1,0,0:0:0:0:
448,192,53172,1,0,0:0:0:0:
320,192,53282,1,0,0:0:0:0:
192,192,53282,1,0,0:0:0:0:
192,192,53502,1,0,0:0:0:0:
64,192,53502,1,0,0:0:0:0:
320,192,53502,1,0,0:0:0:0:
448,192,53502,1,0,0:0:0:0:
320,192,53832,1,0,0:0:0:0:
448,192,53942,1,0,0:0:0:0:
192,192,53942,1,0,0:0:0:0:
320,192,54051,1,0,0:0:0:0:
448,192,54161,1,0,0:0:0:0:
320,192,54198,1,0,0:0:0:0:
192,192,54271,1,0,0:0:0:0:
64,192,54308,1,0,0:0:0:0:
448,192,54344,1,0,0:0:0:0:
320,192,54381,1,0,0:0:0:0:
192,192,54381,1,0,0:0:0:0:
320,192,54491,1,0,0:0:0:0:
448,192,54601,1,0,0:0:0:0:
192,192,54601,1,0,0:0:0:0:
320,192,54711,1,0,0:0:0:0:
320,192,54821,1,0,0:0:0:0:
448,192,54821,1,0,0:0:0:0:
64,192,54821,1,0,0:0:0:0:
192,192,55040,1,0,0:0:0:0:
64,192,55040,1,0,0:0:0:0:
320,192,55150,1,0,0:0:0:0:
448,192,55260,1,0,0:0:0:0:
192,192,55260,1,0,0:0:0:0:
320,192,55260,1,0,0:0:0:0:
320,192,55480,1,0,0:0:0:0:
448,192,55480,1,0,0:0:0:0:
192,192,55480,1,0,0:0:0:0:
64,192,55480,1,0,0:0:0:0:
192,192,55700,1,0,0:0:0:0:
64,192,55700,1,0,0:0:0:0:
448,192,55700,1,0,0:0:0:0:
320,192,55920,1,0,0:0:0:0:
448,192,55920,1,0,0:0:0:0:
192,192,56139,1,0,0:0:0:0:
64,192,56139,1,0,0:0:0:0:
320,192,56139,1,0,0:0:0:0:
448,192,56139,1,0,0:0:0:0:
64,192,56249,1,0,0:0:0:0:
64,192,56359,1,0,0:0:0:0:
320,192,56359,1,0,0:0:0:0:
448,192,56359,1,0,0:0:0:0:
320,192,56579,1,0,0:0:0:0:
448,192,56579,1,0,0:0:0:0:
192,192,56579,1,0,0:0:0:0:
64,192,56689,1,0,0:0:0:0:
320,192,56689,1,0,0:0:0:0:
192,192,56799,1,0,0:0:0:0:
320,192,56854,1,0,0:0:0:0:
192,192,56909,1,0,0:0:0:0:
320,192,56963,1,0,0:0:0:0:
192,192,57018,1,0,0:0:0:0:
64,192,57018,1,0,0:0:0:0:
448,192,57018,1,0,0:0:0:0:
320,192,57238,1,0,0:0:0:0:
448,192,57238,1,0,0:0:0:0:
448,192,57348,1,0,0:0:0:0:
64,192,57458,1,0,0:0:0:0:
320,192,57458,1,0,0:0:0:0:
448,192,57458,1,0,0:0:0:0:
192,192,57495,1,0,0:0:0:0:
320,192,57531,1,0,0:0:0:0:
448,192,57568,1,0,0:0:0:0:
192,192,57605,1,0,0:0:0:0:
64,192,57641,1,0,0:0:0:0:
448,192,57678,1,0,0:0:0:0:
320,192,57714,1,0,0:0:0:0:
192,192,57751,1,0,0:0:0:0:
64,192,57788,1,0,0:0:0:0:
320,192,57824,1,0,0:0:0:0:
448,192,57861,1,0,0:0:0:0:
64,192,57898,1,0,0:0:0:0:
192,192,57934,1,0,0:0:0:0:
320,192,57971,1,0,0:0:0:0:
448,192,58007,1,0,0:0:0:0:
64,192,58044,1,0,0:0:0:0:
192,192,58081,1,0,0:0:0:0:
320,192,58117,1,0,0:0:0:0:
448,192,58154,1,0,0:0:0:0:
192,192,58191,1,0,0:0:0:0:
64,192,58227,1,0,0:0:0:0:
448,192,58264,1,0,0:0:0:0:
320,192,58300,1,0,0:0:0:0:
192,192,58337,1,0,0:0:0:0:
64,192,58337,1,0,0:0:0:0:
448,192,58374,1,0,0:0:0:0:
320,192,58410,1,0,0:0:0:0:
192,192,58447,1,0,0:0:0:0:
64,192,58484,1,0,0:0:0:0:
448,192,58520,1,0,0:0:0:0:
320,192,58557,1,0,0:0:0:0:
192,192,58557,1,0,0:0:0:0:
64,192,58594,1,0,0:0:0:0:
192,192,58630,1,0,0:0:0:0:
320,192,58667,1,0,0:0:0:0:
448,192,58703,1,0,0:0:0:0:
64,192,58740,1,0,0:0:0:0:
192,192,58777,1,0,0:0:0:0:
320,192,58777,1,0,0:0:0:0:
448,192,58813,1,0,0:0:0:0:
320,192,58850,1,0,0:0:0:0:
192,192,58887,1,0,0:0:0:0:
64,192,58923,1,0,0:0:0:0:
448,192,58960,1,0,0:0:0:0:
320,192,58996,1,0,0:0:0:0:
192,192,58996,1,0,0:0:0:0:
64,192,59051,1,0,0:0:0:0:
448,192,59051,1,0,0:0:0:0:
192,192,59106,1,0,0:0:0:0:
320,192,59106,1,0,0:0:0:0:
64,192,59161,1,0,0:0:0:0:
192,192,59216,1,0,0:0:0:0:
320,192,59216,1,0,0:0:0:0:
448,192,59216,1,0,0:0:0:0:
64,192,59326,1,0,0:0:0:0:
192,192,59436,1,0,0:0:0:0:
448,192,59436,1,0,0:0:0:0:
320,192,59546,1,0,0:0:0:0:
192,192,59656,1,0,0:0:0:0:
64,192,59656,1,0,0:0:0:0:
64,192,59766,1,0,0:0:0:0:
448,192,59766,1,0,0:0:0:0:
320,192,59876,1,0,0:0:0:0:
448,192,59876,1,0,0:0:0:0:
192,192,59931,1,0,0:0:0:0:
64,192,59985,1,0,0:0:0:0:
320,192,59985,1,0,0:0:0:0:
192,192,60095,1,0,0:0:0:0:
64,192,60095,1,0,0:0:0:0:
64,192,60205,1,0,0:0:0:0:
448,192,60205,1,0,0:0:0:0:
320,192,60315,1,0,0:0:0:0:
448,192,60315,1,0,0:0:0:0:
192,192,60425,1,0,0:0:0:0:
64,192,60535,1,0,0:0:0:0:
320,192,60535,1,0,0:0:0:0:
192,192,60590,1,0,0:0:0:0:
320,192,60645,1,0,0:0:0:0:
448,192,60645,1,0,0:0:0:0:
192,192,60755,1,0,0:0:0:0:
64,192,60755,1,0,0:0:0:0:
320,192,60810,1,0,0:0:0:0:
448,192,60810,1,0,0:0:0:0:
192,192,60865,1,0,0:0:0:0:
64,192,60865,1,0,0:0:0:0:
448,192,60920,1,0,0:0:0:0:
320,192,60920,1,0,0:0:0:0:
192,192,60974,1,0,0:0:0:0:
64,192,60974,1,0,0:0:0:0:
320,192,61084,1,0,0:0:0:0:
448,192,61084,1,0,0:0:0:0:
64,192,61194,1,0,0:0:0:0:
64,192,61304,1,0,0:0:0:0:
320,192,61304,1,0,0:0:0:0:
192,192,61414,1,0,0:0:0:0:
448,192,61414,1,0,0:0:0:0:
320,192,61524,1,0,0:0:0:0:
448,192,61524,1,0,0:0:0:0:
320,192,61634,1,0,0:0:0:0:
64,192,61634,1,0,0:0:0:0:
192,192,61689,1,0,0:0:0:0:
64,192,61744,1,0,0:0:0:0:
448,192,61744,1,0,0:0:0:0:
320,192,61854,1,0,0:0:0:0:
448,192,61854,1,0,0:0:0:0:
64,192,61963,1,0,0:0:0:0:
64,192,62073,1,0,0:0:0:0:
192,192,62073,1,0,0:0:0:0:
192,192,62183,1,0,0:0:0:0:
448,192,62293,1,0,0:0:0:0:
64,192,62293,1,0,0:0:0:0:
320,192,62330,1,0,0:0:0:0:
192,192,62366,1,0,0:0:0:0:
64,192,62403,1,0,0:0:0:0:
448,192,62403,1,0,0:0:0:0:
64,192,62513,1,0,0:0:0:0:
448,192,62513,1,0,0:0:0:0:
192,192,62550,1,0,0:0:0:0:
320,192,62586,1,0,0:0:0:0:
448,192,62623,1,0,0:0:0:0:
64,192,62623,1,0,0:0:0:0:
320,192,62733,1,0,0:0:0:0:
448,192,62733,1,0,0:0:0:0:
192,192,62733,1,0,0:0:0:0:
64,192,62733,1,0,0:0:0:0:
192,192,62843,1,0,0:0:0:0:
320,192,62953,1,0,0:0:0:0:
192,192,63062,1,0,0:0:0:0:
64,192,63062,1,0,0:0:0:0:
192,192,63172,1,0,0:0:0:0:
448,192,63172,1,0,0:0:0:0:
320,192,63282,1,0,0:0:0:0:
448,192,63282,1,0,0:0:0:0:
64,192,63337,1,0,0:0:0:0:
192,192,63392,1,0,0:0:0:0:
448,192,63392,1,0,0:0:0:0:
320,192,63502,1,0,0:0:0:0:
192,192,63502,1,0,0:0:0:0:
64,192,63502,1,0,0:0:0:0:
64,192,63832,1,0,0:0:0:0:
320,192,63832,1,0,0:0:0:0:
192,192,63942,1,0,0:0:0:0:
320,192,64051,1,0,0:0:0:0:
448,192,64051,1,0,0:0:0:0:
192,192,64161,1,0,0:0:0:0:
448,192,64161,1,0,0:0:0:0:
320,192,64271,1,0,0:0:0:0:
448,192,64271,1,0,0:0:0:0:
192,192,64326,1,0,0:0:0:0:
64,192,64326,1,0,0:0:0:0:
320,192,64381,1,0,0:0:0:0:
448,192,64381,1,0,0:0:0:0:
192,192,64436,1,0,0:0:0:0:
64,192,64436,1,0,0:0:0:0:
320,192,64491,1,0,0:0:0:0:
448,192,64491,1,0,0:0:0:0:
64,192,64491,1,0,0:0:0:0:
192,192,64601,1,0,0:0:0:0:
320,192,64711,1,0,0:0:0:0:
448,192,64711,1,0,0:0:0:0:
192,192,64821,1,0,0:0:0:0:
448,192,64821,1,0,0:0:0:0:
320,192,64931,1,0,0:0:0:0:
64,192,64931,1,0,0:0:0:0:
192,192,64931,1,0,0:0:0:0:
64,192,65040,1,0,0:0:0:0:
192,192,65150,1,0,0:0:0:0:
320,192,65150,1,0,0:0:0:0:
64,192,65260,1,0,0:0:0:0:
320,192,65260,1,0,0:0:0:0:
448,192,65260,1,0,0:0:0:0:
192,192,65480,1,0,0:0:0:0:
64,192,65480,1,0,0:0:0:0:
448,192,65480,1,0,0:0:0:0:
320,192,65590,1,0,0:0:0:0:
448,192,65590,1,0,0:0:0:0:
192,192,65700,1,0,0:0:0:0:
320,192,65810,1,0,0:0:0:0:
448,192,65810,1,0,0:0:0:0:
192,192,65865,1,0,0:0:0:0:
64,192,65920,1,0,0:0:0:0:
448,192,65974,1,0,0:0:0:0:
320,192,66029,1,0,0:0:0:0:
192,192,66029,1,0,0:0:0:0:
64,192,66084,1,0,0:0:0:0:
448,192,66084,1,0,0:0:0:0:
192,192,66139,1,0,0:0:0:0:
320,192,66139,1,0,0:0:0:0:
64,192,66194,1,0,0:0:0:0:
448,192,66194,1,0,0:0:0:0:
192,192,66249,1,0,0:0:0:0:
320,192,66359,1,0,0:0:0:0:
448,192,66359,1,0,0:0:0:0:
64,192,66469,1,0,0:0:0:0:
448,192,66469,1,0,0:0:0:0:
64,192,66579,1,0,0:0:0:0:
320,192,66579,1,0,0:0:0:0:
192,192,66689,1,0,0:0:0:0:
448,192,66689,1,0,0:0:0:0:
320,192,66799,1,0,0:0:0:0:
448,192,66799,1,0,0:0:0:0:
320,192,66909,1,0,0:0:0:0:
64,192,66909,1,0,0:0:0:0:
64,192,67018,1,0,0:0:0:0:
192,192,67018,1,0,0:0:0:0:
192,192,67128,1,0,0:0:0:0:
320,192,67128,1,0,0:0:0:0:
64,192,67238,1,0,0:0:0:0:
320,192,67238,1,0,0:0:0:0:
192,192,67293,1,0,0:0:0:0:
448,192,67348,1,0,0:0:0:0:
64,192,67348,1,0,0:0:0:0:
192,192,67403,1,0,0:0:0:0:
64,192,67458,1,0,0:0:0:0:
320,192,67458,1,0,0:0:0:0:
192,192,67513,1,0,0:0:0:0:
448,192,67568,1,0,0:0:0:0:
64,192,67568,1,0,0:0:0:0:
320,192,67678,1,0,0:0:0:0:
448,192,67678,1,0,0:0:0:0:
320,192,67788,1,0,0:0:0:0:
64,192,67788,1,0,0:0:0:0:
448,192,67843,1,0,0:0:0:0:
192,192,67898,1,0,0:0:0:0:
64,192,67898,1,0,0:0:0:0:
320,192,67953,1,0,0:0:0:0:
448,192,68007,1,0,0:0:0:0:
64,192,68007,1,0,0:0:0:0:
192,192,68007,1,0,0:0:0:0:
64,192,68227,1,0,0:0:0:0:
192,192,68227,1,0,0:0:0:0:
320,192,68447,1,0,0:0:0:0:
448,192,68447,1,0,0:0:0:0:
448,192,68557,1,0,0:0:0:0:
64,192,68557,1,0,0:0:0:0:
192,192,68667,1,0,0:0:0:0:
320,192,68667,1,0,0:0:0:0:
64,192,68722,1,0,0:0:0:0:
320,192,68777,1,0,0:0:0:0:
448,192,68777,1,0,0:0:0:0:
192,192,68832,1,0,0:0:0:0:
320,192,68887,1,0,0:0:0:0:
448,192,68887,1,0,0:0:0:0:
64,192,68887,1,0,0:0:0:0:
192,192,68996,1,0,0:0:0:0:
320,192,69051,1,0,0:0:0:0:
448,192,69106,1,0,0:0:0:0:
320,192,69161,1,0,0:0:0:0:
448,192,69216,1,0,0:0:0:0:
320,192,69271,1,0,0:0:0:0:
448,192,69326,1,0,0:0:0:0:
320,192,69381,1,0,0:0:0:0:
448,192,69436,1,0,0:0:0:0:
320,192,69491,1,0,0:0:0:0:
448,192,69546,1,0,0:0:0:0:
64,192,69546,1,0,0:0:0:0:
320,192,69601,1,0,0:0:0:0:
448,192,69656,1,0,0:0:0:0:
320,192,69711,1,0,0:0:0:0:
448,192,69766,1,0,0:0:0:0:
64,192,69766,1,0,0:0:0:0:
192,192,69766,1,0,0:0:0:0:
64,192,69876,1,0,0:0:0:0:
192,192,69876,1,0,0:0:0:0:
320,192,69876,1,0,0:0:0:0:
320,192,70095,1,0,0:0:0:0:
448,192,70095,1,0,0:0:0:0:
448,192,70205,1,0,0:0:0:0:
320,192,70205,1,0,0:0:0:0:
64,192,70205,1,0,0:0:0:0:
192,192,70205,1,0,0:0:0:0:
64,192,70425,1,0,0:0:0:0:
192,192,70425,1,0,0:0:0:0:
64,192,70535,1,0,0:0:0:0:
192,192,70535,1,0,0:0:0:0:
448,192,70865,1,0,0:0:0:0:
320,192,70865,1,0,0:0:0:0:
192,192,70865,1,0,0:0:0:0:
192,192,71084,1,0,0:0:0:0:
64,192,71084,1,0,0:0:0:0:
320,192,71084,1,0,0:0:0:0:
448,192,71084,1,0,0:0:0:0:
192,192,71194,1,0,0:0:0:0:
64,192,71194,1,0,0:0:0:0:
320,192,71304,1,0,0:0:0:0:
448,192,71304,1,0,0:0:0:0:
448,192,71524,1,0,0:0:0:0:
320,192,71524,1,0,0:0:0:0:
64,192,71524,1,0,0:0:0:0:
192,192,71524,1,0,0:0:0:0:
64,192,71744,1,0,0:0:0:0:
192,192,71799,1,0,0:0:0:0:
320,192,71854,1,0,0:0:0:0:
448,192,71854,1,0,0:0:0:0:
448,192,72403,1,0,0:0:0:0:
320,192,72403,1,0,0:0:0:0:
320,192,72623,1,0,0:0:0:0:
448,192,72623,1,0,0:0:0:0:
320,192,72843,1,0,0:0:0:0:
448,192,72843,1,0,0:0:0:0:
320,192,73062,1,0,0:0:0:0:
448,192,73062,1,0,0:0:0:0:
64,192,73117,1,0,0:0:0:0:
192,192,73117,1,0,0:0:0:0:
320,192,73172,1,0,0:0:0:0:
448,192,73172,1,0,0:0:0:0:
64,192,73227,1,0,0:0:0:0:
448,192,73282,1,0,0:0:0:0:
192,192,73282,1,0,0:0:0:0:
320,192,73282,1,0,0:0:0:0:
64,192,73337,1,0,0:0:0:0:
192,192,73392,1,0,0:0:0:0:
320,192,73447,1,0,0:0:0:0:
192,192,73502,1,0,0:0:0:0:
448,192,73502,1,0,0:0:0:0:
64,192,73502,1,0,0:0:0:0:
320,192,73557,1,0,0:0:0:0:
64,192,73612,1,0,0:0:0:0:
192,192,73667,1,0,0:0:0:0:
320,192,73722,1,0,0:0:0:0:
448,192,73722,1,0,0:0:0:0:
192,192,73777,1,0,0:0:0:0:
320,192,73832,1,0,0:0:0:0:
448,192,73832,1,0,0:0:0:0:
192,192,73887,1,0,0:0:0:0:
64,192,73942,1,0,0:0:0:0:
320,192,73942,1,0,0:0:0:0:
448,192,73942,1,0,0:0:0:0:
192,192,73996,1,0,0:0:0:0:
448,192,74051,1,0,0:0:0:0:
320,192,74106,1,0,0:0:0:0:
192,192,74161,1,0,0:0:0:0:
64,192,74161,1,0,0:0:0:0:
448,192,74161,1,0,0:0:0:0:
320,192,74216,1,0,0:0:0:0:
64,192,74271,1,0,0:0:0:0:
192,192,74326,1,0,0:0:0:0:
320,192,74381,1,0,0:0:0:0:
448,192,74381,1,0,0:0:0:0:
64,192,74381,1,0,0:0:0:0:
192,192,74436,1,0,0:0:0:0:
320,192,74491,1,0,0:0:0:0:
448,192,74546,1,0,0:0:0:0:
64,192,74601,1,0,0:0:0:0:
192,192,74601,1,0,0:0:0:0:
320,192,74601,1,0,0:0:0:0:
448,192,74656,1,0,0:0:0:0:
192,192,74711,1,0,0:0:0:0:
64,192,74711,1,0,0:0:0:0:
320,192,74766,1,0,0:0:0:0:
448,192,74766,1,0,0:0:0:0:
192,192,74821,1,0,0:0:0:0:
64,192,74821,1,0,0:0:0:0:
320,192,74876,1,0,0:0:0:0:
448,192,74876,1,0,0:0:0:0:
192,192,74931,1,0,0:0:0:0:
64,192,74985,1,0,0:0:0:0:
448,192,74985,1,0,0:0:0:0:
320,192,75040,1,0,0:0:0:0:
192,192,75040,1,0,0:0:0:0:
64,192,75095,1,0,0:0:0:0:
192,192,75150,1,0,0:0:0:0:
320,192,75205,1,0,0:0:0:0:
448,192,75260,1,0,0:0:0:0:
192,192,75260,1,0,0:0:0:0:
64,192,75260,1,0,0:0:0:0:
320,192,75315,1,0,0:0:0:0:
192,192,75370,1,0,0:0:0:0:
64,192,75370,1,0,0:0:0:0:
448,192,75425,1,0,0:0:0:0:
320,192,75480,1,0,0:0:0:0:
192,192,75480,1,0,0:0:0:0:
64,192,75535,1,0,0:0:0:0:
192,192,75590,1,0,0:0:0:0:
448,192,75590,1,0,0:0:0:0:
320,192,75645,1,0,0:0:0:0:
192,192,75700,1,0,0:0:0:0:
64,192,75700,1,0,0:0:0:0:
448,192,75755,1,0,0:0:0:0:
320,192,75810,1,0,0:0:0:0:
64,192,75810,1,0,0:0:0:0:
192,192,75865,1,0,0:0:0:0:
64,192,75920,1,0,0:0:0:0:
320,192,75920,1,0,0:0:0:0:
448,192,75920,1,0,0:0:0:0:
320,192,76029,1,0,0:0:0:0:
448,192,76029,1,0,0:0:0:0:
192,192,76029,1,0,0:0:0:0:
64,192,76139,1,0,0:0:0:0:
192,192,76139,1,0,0:0:0:0:
320,192,76139,1,0,0:0:0:0:
448,192,76194,1,0,0:0:0:0:
320,192,76249,1,0,0:0:0:0:
192,192,76304,1,0,0:0:0:0:
64,192,76359,1,0,0:0:0:0:
448,192,76359,1,0,0:0:0:0:
448,192,76469,1,0,0:0:0:0:
320,192,76506,1,0,0:0:0:0:
192,192,76542,1,0,0:0:0:0:
64,192,76579,1,0,0:0:0:0:
448,192,76579,1,0,0:0:0:0:
320,192,76634,1,0,0:0:0:0:
192,192,76689,1,0,0:0:0:0:
64,192,76689,1,0,0:0:0:0:
320,192,76744,1,0,0:0:0:0:
448,192,76744,1,0,0:0:0:0:
192,192,76799,1,0,0:0:0:0:
64,192,76799,1,0,0:0:0:0:
448,192,76799,1,0,0:0:0:0:
320,192,76854,1,0,0:0:0:0:
192,192,76909,1,0,0:0:0:0:
64,192,76963,1,0,0:0:0:0:
192,192,77018,1,0,0:0:0:0:
320,192,77018,1,0,0:0:0:0:
448,192,77018,1,0,0:0:0:0:
64,192,77073,1,0,0:0:0:0:
448,192,77128,1,0,0:0:0:0:
320,192,77183,1,0,0:0:0:0:
192,192,77238,1,0,0:0:0:0:
64,192,77238,1,0,0:0:0:0:
448,192,77238,1,0,0:0:0:0:
320,192,77293,1,0,0:0:0:0:
192,192,77348,1,0,0:0:0:0:
448,192,77348,1,0,0:0:0:0:
64,192,77403,1,0,0:0:0:0:
192,192,77458,1,0,0:0:0:0:
320,192,77458,1,0,0:0:0:0:
448,192,77458,1,0,0:0:0:0:
64,192,77513,1,0,0:0:0:0:
448,192,77568,1,0,0:0:0:0:
320,192,77568,1,0,0:0:0:0:
192,192,77623,1,0,0:0:0:0:
64,192,77678,1,0,0:0:0:0:
320,192,77678,1,0,0:0:0:0:
448,192,77678,1,0,0:0:0:0:
192,192,77733,1,0,0:0:0:0:
320,192,77788,1,0,0:0:0:0:
64,192,77788,1,0,0:0:0:0:
448,192,77843,1,0,0:0:0:0:
192,192,77898,1,0,0:0:0:0:
64,192,77898,1,0,0:0:0:0:
320,192,77953,1,0,0:0:0:0:
448,192,78007,1,0,0:0:0:0:
192,192,78062,1,0,0:0:0:0:
320,192,78117,1,0,0:0:0:0:
448,192,78117,1,0,0:0:0:0:
64,192,78117,1,0,0:0:0:0:
192,192,78172,1,0,0:0:0:0:
320,192,78227,1,0,0:0:0:0:
448,192,78227,1,0,0:0:0:0:
192,192,78282,1,0,0:0:0:0:
64,192,78337,1,0,0:0:0:0:
448,192,78337,1,0,0:0:0:0:
320,192,78392,1,0,0:0:0:0:
192,192,78447,1,0,0:0:0:0:
64,192,78447,1,0,0:0:0:0:
320,192,78502,1,0,0:0:0:0:
448,192,78502,1,0,0:0:0:0:
192,192,78557,1,0,0:0:0:0:
64,192,78557,1,0,0:0:0:0:
320,192,78612,1,0,0:0:0:0:
448,192,78667,1,0,0:0:0:0:
64,192,78667,1,0,0:0:0:0:
192,192,78722,1,0,0:0:0:0:
320,192,78777,1,0,0:0:0:0:
448,192,78777,1,0,0:0:0:0:
64,192,78777,1,0,0:0:0:0:
192,192,78832,1,0,0:0:0:0:
448,192,78887,1,0,0:0:0:0:
64,192,78942,1,0,0:0:0:0:
192,192,78996,1,0,0:0:0:0:
448,192,78996,1,0,0:0:0:0:
320,192,78996,1,0,0:0:0:0:
64,192,79051,1,0,0:0:0:0:
192,192,79106,1,0,0:0:0:0:
448,192,79106,1,0,0:0:0:0:
320,192,79161,1,0,0:0:0:0:
192,192,79216,1,0,0:0:0:0:
64,192,79216,1,0,0:0:0:0:
448,192,79271,1,0,0:0:0:0:
192,192,79326,1,0,0:0:0:0:
320,192,79326,1,0,0:0:0:0:
64,192,79381,1,0,0:0:0:0:
320,192,79436,1,0,0:0:0:0:
448,192,79436,1,0,0:0:0:0:
192,192,79436,1,0,0:0:0:0:
64,192,79491,1,0,0:0:0:0:
192,192,79546,1,0,0:0:0:0:
448,192,79546,1,0,0:0:0:0:
320,192,79601,1,0,0:0:0:0:
448,192,79656,1,0,0:0:0:0:
192,192,79656,1,0,0:0:0:0:
64,192,79656,1,0,0:0:0:0:
320,192,79766,1,0,0:0:0:0:
448,192,79766,1,0,0:0:0:0:
192,192,79876,1,0,0:0:0:0:
64,192,79876,1,0,0:0:0:0:
448,192,79985,1,0,0:0:0:0:
320,192,79985,1,0,0:0:0:0:
192,192,80040,1,0,0:0:0:0:
64,192,80040,1,0,0:0:0:0:
320,192,80095,1,0,0:0:0:0:
448,192,80095,1,0,0:0:0:0:
64,192,80150,1,0,0:0:0:0:
192,192,80205,1,0,0:0:0:0:
448,192,80205,1,0,0:0:0:0:
320,192,80260,1,0,0:0:0:0:
192,192,80315,1,0,0:0:0:0:
64,192,80315,1,0,0:0:0:0:
448,192,80315,1,0,0:0:0:0:
320,192,80370,1,0,0:0:0:0:
192,192,80425,1,0,0:0:0:0:
64,192,80480,1,0,0:0:0:0:
192,192,80535,1,0,0:0:0:0:
320,192,80535,1,0,0:0:0:0:
448,192,80535,1,0,0:0:0:0:
64,192,80590,1,0,0:0:0:0:
320,192,80645,1,0,0:0:0:0:
448,192,80645,1,0,0:0:0:0:
192,192,80700,1,0,0:0:0:0:
64,192,80755,1,0,0:0:0:0:
448,192,80755,1,0,0:0:0:0:
192,192,80810,1,0,0:0:0:0:
320,192,80865,1,0,0:0:0:0:
448,192,80865,1,0,0:0:0:0:
64,192,80920,1,0,0:0:0:0:
192,192,80974,1,0,0:0:0:0:
320,192,80974,1,0,0:0:0:0:
448,192,81029,1,0,0:0:0:0:
64,192,81084,1,0,0:0:0:0:
320,192,81084,1,0,0:0:0:0:
192,192,81139,1,0,0:0:0:0:
320,192,81194,1,0,0:0:0:0:
448,192,81194,1,0,0:0:0:0:
64,192,81194,1,0,0:0:0:0:
192,192,81249,1,0,0:0:0:0:
320,192,81304,1,0,0:0:0:0:
448,192,81359,1,0,0:0:0:0:
320,192,81414,1,0,0:0:0:0:
192,192,81414,1,0,0:0:0:0:
64,192,81414,1,0,0:0:0:0:
448,192,81469,1,0,0:0:0:0:
64,192,81524,1,0,0:0:0:0:
192,192,81579,1,0,0:0:0:0:
320,192,81634,1,0,0:0:0:0:
448,192,81634,1,0,0:0:0:0:
64,192,81634,1,0,0:0:0:0:
192,192,81689,1,0,0:0:0:0:
320,192,81744,1,0,0:0:0:0:
448,192,81744,1,0,0:0:0:0:
192,192,81799,1,0,0:0:0:0:
64,192,81854,1,0,0:0:0:0:
448,192,81854,1,0,0:0:0:0:
320,192,81909,1,0,0:0:0:0:
192,192,81909,1,0,0:0:0:0:
64,192,81963,1,0,0:0:0:0:
448,192,81963,1,0,0:0:0:0:
192,192,82018,1,0,0:0:0:0:
320,192,82018,1,0,0:0:0:0:
64,192,82073,1,0,0:0:0:0:
448,192,82073,1,0,0:0:0:0:
320,192,82128,1,0,0:0:0:0:
192,192,82183,1,0,0:0:0:0:
64,192,82238,1,0,0:0:0:0:
192,192,82293,1,0,0:0:0:0:
320,192,82293,1,0,0:0:0:0:
448,192,82293,1,0,0:0:0:0:
64,192,82348,1,0,0:0:0:0:
448,192,82403,1,0,0:0:0:0:
320,192,82458,1,0,0:0:0:0:
192,192,82513,1,0,0:0:0:0:
64,192,82513,1,0,0:0:0:0:
448,192,82513,1,0,0:0:0:0:
320,192,82568,1,0,0:0:0:0:
64,192,82623,1,0,0:0:0:0:
448,192,82623,1,0,0:0:0:0:
192,192,82678,1,0,0:0:0:0:
320,192,82733,1,0,0:0:0:0:
448,192,82733,1,0,0:0:0:0:
192,192,82788,1,0,0:0:0:0:
64,192,82843,1,0,0:0:0:0:
320,192,82843,1,0,0:0:0:0:
448,192,82898,1,0,0:0:0:0:
192,192,82953,1,0,0:0:0:0:
64,192,82953,1,0,0:0:0:0:
320,192,83007,1,0,0:0:0:0:
448,192,83062,1,0,0:0:0:0:
64,192,83062,1,0,0:0:0:0:
192,192,83117,1,0,0:0:0:0:
320,192,83172,1,0,0:0:0:0:
448,192,83172,1,0,0:0:0:0:
64,192,83172,1,0,0:0:0:0:
192,192,83227,1,0,0:0:0:0:
320,192,83282,1,0,0:0:0:0:
448,192,83337,1,0,0:0:0:0:
64,192,83392,1,0,0:0:0:0:
192,192,83392,1,0,0:0:0:0:
448,192,83447,1,0,0:0:0:0:
320,192,83502,1,0,0:0:0:0:
64,192,83502,1,0,0:0:0:0:
192,192,83557,1,0,0:0:0:0:
64,192,83612,1,0,0:0:0:0:
320,192,83612,1,0,0:0:0:0:
448,192,83612,1,0,0:0:0:0:
192,192,83722,1,0,0:0:0:0:
448,192,83722,1,0,0:0:0:0:
320,192,83832,1,0,0:0:0:0:
448,192,83832,1,0,0:0:0:0:
64,192,83942,1,0,0:0:0:0:
192,192,83942,1,0,0:0:0:0:
320,192,83942,1,0,0:0:0:0:
64,192,84161,1,0,0:0:0:0:
320,192,84161,1,0,0:0:0:0:
192,192,84271,1,0,0:0:0:0:
448,192,84271,1,0,0:0:0:0:
64,192,84271,1,0,0:0:0:0:
320,192,84491,1,0,0:0:0:0:
448,192,84491,1,0,0:0:0:0:
448,192,84601,1,0,0:0:0:0:
320,192,84601,1,0,0:0:0:0:
192,192,84821,1,0,0:0:0:0:
64,192,84821,1,0,0:0:0:0:
192,192,84931,1,0,0:0:0:0:
64,192,84931,1,0,0:0:0:0:
320,192,84931,1,0,0:0:0:0:
192,192,85150,1,0,0:0:0:0:
320,192,85150,1,0,0:0:0:0:
448,192,85150,1,0,0:0:0:0:
320,192,85260,1,0,0:0:0:0:
448,192,85260,1,0,0:0:0:0:
320,192,85370,1,0,0:0:0:0:
448,192,85370,1,0,0:0:0:0:
64,192,85370,1,0,0:0:0:0:
64,192,85480,1,0,0:0:0:0:
192,192,85480,1,0,0:0:0:0:
64,192,85590,1,0,0:0:0:0:
192,192,85590,1,0,0:0:0:0:
320,192,85590,1,0,0:0:0:0:
448,192,85920,1,0,0:0:0:0:
320,192,85974,1,0,0:0:0:0:
192,192,86029,1,0,0:0:0:0:
64,192,86029,1,0,0:0:0:0:
64,192,86249,1,0,0:0:0:0:
320,192,86469,1,0,0:0:0:0:
448,192,86469,1,0,0:0:0:0:
192,192,86689,1,0,0:0:0:0:
64,192,86689,1,0,0:0:0:0:
192,192,86909,1,0,0:0:0:0:
320,192,86909,1,0,0:0:0:0:
448,192,86909,1,0,0:0:0:0:
64,192,86963,1,0,0:0:0:0:
320,192,87018,1,0,0:0:0:0:
448,192,87018,1,0,0:0:0:0:
192,192,87073,1,0,0:0:0:0:
64,192,87128,1,0,0:0:0:0:
448,192,87128,1,0,0:0:0:0:
320,192,87183,1,0,0:0:0:0:
192,192,87238,1,0,0:0:0:0:
64,192,87238,1,0,0:0:0:0:
448,192,87293,1,0,0:0:0:0:
320,192,87348,1,0,0:0:0:0:
192,192,87348,1,0,0:0:0:0:
64,192,87348,1,0,0:0:0:0:
448,192,87568,1,0,0:0:0:0:
64,192,87788,1,0,0:0:0:0:
192,192,87788,1,0,0:0:0:0:
320,192,88007,1,0,0:0:0:0:
320,192,88117,1,0,0:0:0:0:
192,192,88227,1,0,0:0:0:0:
64,192,88227,1,0,0:0:0:0:
320,192,88337,1,0,0:0:0:0:
64,192,88447,1,0,0:0:0:0:
192,192,88667,1,0,0:0:0:0:
320,192,88667,1,0,0:0:0:0:
320,192,88777,1,0,0:0:0:0:
448,192,88887,1,0,0:0:0:0:
192,192,88887,1,0,0:0:0:0:
320,192,88996,1,0,0:0:0:0:
192,192,89106,1,0,0:0:0:0:
64,192,89106,1,0,0:0:0:0:
448,192,89326,1,0,0:0:0:0:
320,192,89326,1,0,0:0:0:0:
192,192,89546,1,0,0:0:0:0:
64,192,89546,1,0,0:0:0:0:
64,192,89656,1,0,0:0:0:0:
192,192,89766,1,0,0:0:0:0:
448,192,89766,1,0,0:0:0:0:
320,192,89876,1,0,0:0:0:0:
320,192,89985,1,0,0:0:0:0:
448,192,89985,1,0,0:0:0:0:
192,192,90095,1,0,0:0:0:0:
448,192,90095,1,0,0:0:0:0:
320,192,90205,1,0,0:0:0:0:
448,192,90205,1,0,0:0:0:0:
192,192,90425,1,0,0:0:0:0:
320,192,90425,1,0,0:0:0:0:
320,192,90535,1,0,0:0:0:0:
64,192,90535,1,0,0:0:0:0:
64,192,90645,1,0,0:0:0:0:
192,192,90645,1,0,0:0:0:0:
320,192,90865,1,0,0:0:0:0:
448,192,90865,1,0,0:0:0:0:
192,192,90865,1,0,0:0:0:0:
192,192,91084,1,0,0:0:0:0:
320,192,91304,1,0,0:0:0:0:
448,192,91304,1,0,0:0:0:0:
192,192,91524,1,0,0:0:0:0:
64,192,91524,1,0,0:0:0:0:
320,192,91634,1,0,0:0:0:0:
448,192,91744,1,0,0:0:0:0:
320,192,91854,1,0,0:0:0:0:
64,192,91854,1,0,0:0:0:0:
192,192,91909,1,0,0:0:0:0:
320,192,92623,1,0,0:0:0:0:
192,192,92678,1,0,0:0:0:0:
64,192,92733,1,0,0:0:0:0:
448,192,92733,1,0,0:0:0:0:
320,192,92788,1,0,0:0:0:0:
192,192,92843,1,0,0:0:0:0:
64,192,93502,1,0,0:0:0:0:
192,192,93502,1,0,0:0:0:0:
64,192,93722,1,0,0:0:0:0:
192,192,93722,1,0,0:0:0:0:
64,192,93942,1,0,0:0:0:0:
192,192,93942,1,0,0:0:0:0:
448,192,94051,1,0,0:0:0:0:
320,192,94088,1,0,0:0:0:0:
192,192,94125,1,0,0:0:0:0:
64,192,94161,1,0,0:0:0:0:
448,192,94161,1,0,0:0:0:0:
320,192,94216,1,0,0:0:0:0:
192,192,94216,1,0,0:0:0:0:
64,192,94271,1,0,0:0:0:0:
448,192,94271,1,0,0:0:0:0:
192,192,94326,1,0,0:0:0:0:
320,192,94326,1,0,0:0:0:0:
64,192,94381,1,0,0:0:0:0:
448,192,94381,1,0,0:0:0:0:
192,192,94436,1,0,0:0:0:0:
320,192,94491,1,0,0:0:0:0:
448,192,94546,1,0,0:0:0:0:
320,192,94601,1,0,0:0:0:0:
192,192,94601,1,0,0:0:0:0:
64,192,94601,1,0,0:0:0:0:
448,192,94656,1,0,0:0:0:0:
64,192,94711,1,0,0:0:0:0:
192,192,94766,1,0,0:0:0:0:
320,192,94821,1,0,0:0:0:0:
448,192,94821,1,0,0:0:0:0:
64,192,94821,1,0,0:0:0:0:
192,192,94876,1,0,0:0:0:0:
320,192,94931,1,0,0:0:0:0:
448,192,94931,1,0,0:0:0:0:
192,192,94985,1,0,0:0:0:0:
64,192,95040,1,0,0:0:0:0:
448,192,95040,1,0,0:0:0:0:
320,192,95095,1,0,0:0:0:0:
192,192,95150,1,0,0:0:0:0:
448,192,95150,1,0,0:0:0:0:
64,192,95205,1,0,0:0:0:0:
192,192,95260,1,0,0:0:0:0:
320,192,95260,1,0,0:0:0:0:
448,192,95260,1,0,0:0:0:0:
64,192,95315,1,0,0:0:0:0:
192,192,95370,1,0,0:0:0:0:
320,192,95425,1,0,0:0:0:0:
448,192,95480,1,0,0:0:0:0:
64,192,95480,1,0,0:0:0:0:
192,192,95480,1,0,0:0:0:0:
320,192,95535,1,0,0:0:0:0:
448,192,95535,1,0,0:0:0:0:
192,192,95590,1,0,0:0:0:0:
64,192,95590,1,0,0:0:0:0:
448,192,95645,1,0,0:0:0:0:
64,192,95700,1,0,0:0:0:0:
192,192,95700,1,0,0:0:0:0:
320,192,95755,1,0,0:0:0:0:
448,192,95755,1,0,0:0:0:0:
64,192,95865,1,0,0:0:0:0:
448,192,95865,1,0,0:0:0:0:
192,192,95920,1,0,0:0:0:0:
320,192,95920,1,0,0:0:0:0:
64,192,95974,1,0,0:0:0:0:
448,192,95974,1,0,0:0:0:0:
192,192,96029,1,0,0:0:0:0:
320,192,96029,1,0,0:0:0:0:
64,192,96084,1,0,0:0:0:0:
448,192,96084,1,0,0:0:0:0:
192,192,96139,1,0,0:0:0:0:
320,192,96139,1,0,0:0:0:0:
64,192,96139,1,0,0:0:0:0:
448,192,96194,1,0,0:0:0:0:
320,192,96249,1,0,0:0:0:0:
192,192,96304,1,0,0:0:0:0:
64,192,96359,1,0,0:0:0:0:
320,192,96359,1,0,0:0:0:0:
448,192,96359,1,0,0:0:0:0:
192,192,96414,1,0,0:0:0:0:
448,192,96469,1,0,0:0:0:0:
320,192,96524,1,0,0:0:0:0:
192,192,96579,1,0,0:0:0:0:
64,192,96579,1,0,0:0:0:0:
448,192,96579,1,0,0:0:0:0:
320,192,96634,1,0,0:0:0:0:
192,192,96689,1,0,0:0:0:0:
448,192,96689,1,0,0:0:0:0:
64,192,96744,1,0,0:0:0:0:
320,192,96799,1,0,0:0:0:0:
192,192,96799,1,0,0:0:0:0:
448,192,96799,1,0,0:0:0:0:
64,192,96854,1,0,0:0:0:0:
192,192,96909,1,0,0:0:0:0:
320,192,96909,1,0,0:0:0:0:
448,192,96963,1,0,0:0:0:0:
320,192,97018,1,0,0:0:0:0:
64,192,97018,1,0,0:0:0:0:
192,192,97073,1,0,0:0:0:0:
320,192,97128,1,0,0:0:0:0:
448,192,97128,1,0,0:0:0:0:
192,192,97183,1,0,0:0:0:0:
64,192,97183,1,0,0:0:0:0:
320,192,97238,1,0,0:0:0:0:
448,192,97238,1,0,0:0:0:0:
64,192,97293,1,0,0:0:0:0:
320,192,97348,1,0,0:0:0:0:
448,192,97348,1,0,0:0:0:0:
192,192,97403,1,0,0:0:0:0:
64,192,97458,1,0,0:0:0:0:
320,192,97458,1,0,0:0:0:0:
448,192,97458,1,0,0:0:0:0:
192,192,97495,1,0,0:0:0:0:
320,192,97531,1,0,0:0:0:0:
448,192,97568,1,0,0:0:0:0:
64,192,97605,1,0,0:0:0:0:
192,192,97641,1,0,0:0:0:0:
320,192,97678,1,0,0:0:0:0:
448,192,97678,1,0,0:0:0:0:
192,192,97733,1,0,0:0:0:0:
64,192,97733,1,0,0:0:0:0:
320,192,97788,1,0,0:0:0:0:
448,192,97788,1,0,0:0:0:0:
64,192,97843,1,0,0:0:0:0:
192,192,97843,1,0,0:0:0:0:
320,192,97898,1,0,0:0:0:0:
448,192,97898,1,0,0:0:0:0:
64,192,97898,1,0,0:0:0:0:
192,192,97953,1,0,0:0:0:0:
320,192,98007,1,0,0:0:0:0:
448,192,98062,1,0,0:0:0:0:
320,192,98117,1,0,0:0:0:0:
192,192,98117,1,0,0:0:0:0:
64,192,98117,1,0,0:0:0:0:
448,192,98172,1,0,0:0:0:0:
64,192,98227,1,0,0:0:0:0:
192,192,98282,1,0,0:0:0:0:
448,192,98337,1,0,0:0:0:0:
320,192,98337,1,0,0:0:0:0:
64,192,98337,1,0,0:0:0:0:
192,192,98392,1,0,0:0:0:0:
320,192,98447,1,0,0:0:0:0:
448,192,98447,1,0,0:0:0:0:
192,192,98502,1,0,0:0:0:0:
64,192,98557,1,0,0:0:0:0:
320,192,98557,1,0,0:0:0:0:
448,192,98612,1,0,0:0:0:0:
64,192,98667,1,0,0:0:0:0:
192,192,98667,1,0,0:0:0:0:
320,192,98722,1,0,0:0:0:0:
448,192,98777,1,0,0:0:0:0:
192,192,98777,1,0,0:0:0:0:
64,192,98777,1,0,0:0:0:0:
320,192,98887,1,0,0:0:0:0:
448,192,98887,1,0,0:0:0:0:
192,192,98996,1,0,0:0:0:0:
64,192,98996,1,0,0:0:0:0:
320,192,99051,1,0,0:0:0:0:
448,192,99051,1,0,0:0:0:0:
192,192,99106,1,0,0:0:0:0:
64,192,99106,1,0,0:0:0:0:
320,192,99216,1,0,0:0:0:0:
448,192,99216,1,0,0:0:0:0:
448,192,99326,1,0,0:0:0:0:
320,192,99363,1,0,0:0:0:0:
192,192,99399,1,0,0:0:0:0:
64,192,99436,1,0,0:0:0:0:
448,192,99436,1,0,0:0:0:0:
320,192,99491,1,0,0:0:0:0:
192,192,99491,1,0,0:0:0:0:
64,192,99546,1,0,0:0:0:0:
448,192,99546,1,0,0:0:0:0:
192,192,99601,1,0,0:0:0:0:
320,192,99601,1,0,0:0:0:0:
64,192,99656,1,0,0:0:0:0:
192,192,99711,1,0,0:0:0:0:
320,192,99766,1,0,0:0:0:0:
64,192,99766,1,0,0:0:0:0:
448,192,99821,1,0,0:0:0:0:
192,192,99876,1,0,0:0:0:0:
320,192,99876,1,0,0:0:0:0:
64,192,99876,1,0,0:0:0:0:
448,192,99931,1,0,0:0:0:0:
320,192,99985,1,0,0:0:0:0:
192,192,100040,1,0,0:0:0:0:
64,192,100095,1,0,0:0:0:0:
320,192,100095,1,0,0:0:0:0:
448,192,100095,1,0,0:0:0:0:
192,192,100150,1,0,0:0:0:0:
320,192,100205,1,0,0:0:0:0:
448,192,100205,1,0,0:0:0:0:
64,192,100260,1,0,0:0:0:0:
192,192,100315,1,0,0:0:0:0:
320,192,100315,1,0,0:0:0:0:
448,192,100315,1,0,0:0:0:0:
64,192,100370,1,0,0:0:0:0:
192,192,100425,1,0,0:0:0:0:
448,192,100425,1,0,0:0:0:0:
320,192,100480,1,0,0:0:0:0:
192,192,100535,1,0,0:0:0:0:
64,192,100535,1,0,0:0:0:0:
448,192,100535,1,0,0:0:0:0:
320,192,100590,1,0,0:0:0:0:
192,192,100645,1,0,0:0:0:0:
64,192,100645,1,0,0:0:0:0:
448,192,100700,1,0,0:0:0:0:
320,192,100755,1,0,0:0:0:0:
192,192,100755,1,0,0:0:0:0:
64,192,100755,1,0,0:0:0:0:
320,192,100865,1,0,0:0:0:0:
448,192,100865,1,0,0:0:0:0:
64,192,100974,1,0,0:0:0:0:
192,192,101011,1,0,0:0:0:0:
448,192,101048,1,0,0:0:0:0:
320,192,101084,1,0,0:0:0:0:
64,192,101121,1,0,0:0:0:0:
192,192,101158,1,0,0:0:0:0:
448,192,101194,1,0,0:0:0:0:
320,192,101231,1,0,0:0:0:0:
64,192,101268,1,0,0:0:0:0:
192,192,101304,1,0,0:0:0:0:
448,192,101341,1,0,0:0:0:0:
320,192,101377,1,0,0:0:0:0:
64,192,101414,1,0,0:0:0:0:
192,192,101414,1,0,0:0:0:0:
448,192,101469,1,0,0:0:0:0:
320,192,101524,1,0,0:0:0:0:
192,192,101524,1,0,0:0:0:0:
64,192,101579,1,0,0:0:0:0:
320,192,101634,1,0,0:0:0:0:
448,192,101634,1,0,0:0:0:0:
192,192,101689,1,0,0:0:0:0:
64,192,101744,1,0,0:0:0:0:
448,192,101744,1,0,0:0:0:0:
320,192,101799,1,0,0:0:0:0:
192,192,101854,1,0,0:0:0:0:
64,192,101854,1,0,0:0:0:0:
320,192,101909,1,0,0:0:0:0:
448,192,101909,1,0,0:0:0:0:
192,192,101963,1,0,0:0:0:0:
64,192,101963,1,0,0:0:0:0:
448,192,102018,1,0,0:0:0:0:
320,192,102018,1,0,0:0:0:0:
192,192,102073,1,0,0:0:0:0:
64,192,102073,1,0,0:0:0:0:
320,192,102128,1,0,0:0:0:0:
448,192,102128,1,0,0:0:0:0:
192,192,102183,1,0,0:0:0:0:
64,192,102183,1,0,0:0:0:0:
320,192,102403,1,0,0:0:0:0:
448,192,102403,1,0,0:0:0:0:
64,192,102403,1,0,0:0:0:0:
192,192,102458,1,0,0:0:0:0:
64,192,102513,1,0,0:0:0:0:
448,192,102513,1,0,0:0:0:0:
320,192,102568,1,0,0:0:0:0:
192,192,102623,1,0,0:0:0:0:
64,192,102623,1,0,0:0:0:0:
448,192,102678,1,0,0:0:0:0:
320,192,102678,1,0,0:0:0:0:
192,192,102733,1,0,0:0:0:0:
64,192,102733,1,0,0:0:0:0:
448,192,102843,1,0,0:0:0:0:
320,192,102879,1,0,0:0:0:0:
192,192,102916,1,0,0:0:0:0:
64,192,102953,1,0,0:0:0:0:
320,192,102953,1,0,0:0:0:0:
448,192,102953,1,0,0:0:0:0:
192,192,103007,1,0,0:0:0:0:
64,192,103062,1,0,0:0:0:0:
192,192,103117,1,0,0:0:0:0:
320,192,103172,1,0,0:0:0:0:
448,192,103172,1,0,0:0:0:0:
64,192,103172,1,0,0:0:0:0:
192,192,103227,1,0,0:0:0:0:
320,192,103282,1,0,0:0:0:0:
448,192,103282,1,0,0:0:0:0:
192,192,103337,1,0,0:0:0:0:
64,192,103392,1,0,0:0:0:0:
448,192,103392,1,0,0:0:0:0:
320,192,103447,1,0,0:0:0:0:
192,192,103502,1,0,0:0:0:0:
64,192,103502,1,0,0:0:0:0:
448,192,103502,1,0,0:0:0:0:
320,192,103557,1,0,0:0:0:0:
192,192,103612,1,0,0:0:0:0:
64,192,103667,1,0,0:0:0:0:
192,192,103722,1,0,0:0:0:0:
448,192,103722,1,0,0:0:0:0:
320,192,103777,1,0,0:0:0:0:
192,192,103832,1,0,0:0:0:0:
64,192,103832,1,0,0:0:0:0:
448,192,103832,1,0,0:0:0:0:
320,192,103887,1,0,0:0:0:0:
64,192,103942,1,0,0:0:0:0:
192,192,103996,1,0,0:0:0:0:
448,192,104051,1,0,0:0:0:0:
320,192,104051,1,0,0:0:0:0:
64,192,104051,1,0,0:0:0:0:
192,192,104161,1,0,0:0:0:0:
64,192,104161,1,0,0:0:0:0:
320,192,104216,1,0,0:0:0:0:
448,192,104216,1,0,0:0:0:0:
192,192,104271,1,0,0:0:0:0:
64,192,104271,1,0,0:0:0:0:
320,192,104326,1,0,0:0:0:0:
448,192,104381,1,0,0:0:0:0:
192,192,104381,1,0,0:0:0:0:
64,192,104381,1,0,0:0:0:0:
448,192,104491,1,0,0:0:0:0:
448,192,104601,1,0,0:0:0:0:
320,192,104711,1,0,0:0:0:0:
192,192,104711,1,0,0:0:0:0:
64,192,104711,1,0,0:0:0:0:
64,192,104931,1,0,0:0:0:0:
192,192,104931,1,0,0:0:0:0:
320,192,105150,1,0,0:0:0:0:
448,192,105150,1,0,0:0:0:0:
192,192,105370,1,0,0:0:0:0:
448,192,105370,1,0,0:0:0:0:
320,192,105480,1,0,0:0:0:0:
64,192,105480,1,0,0:0:0:0:
192,192,105590,1,0,0:0:0:0:
64,192,105590,1,0,0:0:0:0:
192,192,105700,1,0,0:0:0:0:
448,192,105700,1,0,0:0:0:0:
320,192,105810,1,0,0:0:0:0:
448,192,105810,1,0,0:0:0:0:
64,192,105865,1,0,0:0:0:0:
192,192,105920,1,0,0:0:0:0:
320,192,105920,1,0,0:0:0:0:
448,192,105974,1,0,0:0:0:0:
64,192,106029,1,0,0:0:0:0:
192,192,106029,1,0,0:0:0:0:
320,192,106139,1,0,0:0:0:0:
448,192,106139,1,0,0:0:0:0:
192,192,106249,1,0,0:0:0:0:
448,192,106249,1,0,0:0:0:0:
320,192,106359,1,0,0:0:0:0:
64,192,106359,1,0,0:0:0:0:
64,192,106469,1,0,0:0:0:0:
192,192,106469,1,0,0:0:0:0:
448,192,106469,1,0,0:0:0:0:
320,192,106579,1,0,0:0:0:0:
320,192,106689,1,0,0:0:0:0:
448,192,106689,1,0,0:0:0:0:
192,192,106689,1,0,0:0:0:0:
64,192,106689,1,0,0:0:0:0:
192,192,106909,1,0,0:0:0:0:
448,192,107128,1,0,0:0:0:0:
320,192,107128,1,0,0:0:0:0:
64,192,107128,1,0,0:0:0:0:
192,192,107128,1,0,0:0:0:0:
320,192,107348,1,0,0:0:0:0:
448,192,107348,1,0,0:0:0:0:
192,192,107348,1,0,0:0:0:0:
64,192,107458,1,0,0:0:0:0:
192,192,107458,1,0,0:0:0:0:
320,192,107458,1,0,0:0:0:0:
448,192,107458,1,0,0:0:0:0:
64,192,107788,1,0,0:0:0:0:
192,192,107788,1,0,0:0:0:0:
448,192,107788,1,0,0:0:0:0:
448,192,108007,1,0,0:0:0:0:
320,192,108035,1,0,0:0:0:0:
64,192,108062,1,0,0:0:0:0:
192,192,108090,1,0,0:0:0:0:
448,192,108117,1,0,0:0:0:0:
320,192,108145,1,0,0:0:0:0:
64,192,108172,1,0,0:0:0:0:
192,192,108172,1,0,0:0:0:0:
320,192,108227,1,0,0:0:0:0:
448,192,108227,1,0,0:0:0:0:
192,192,108282,1,0,0:0:0:0:
64,192,108282,1,0,0:0:0:0:
320,192,108337,1,0,0:0:0:0:
448,192,108337,1,0,0:0:0:0:
192,192,108392,1,0,0:0:0:0:
64,192,108392,1,0,0:0:0:0:
64,192,108447,1,0,0:0:0:0:
320,192,108447,1,0,0:0:0:0:
448,192,108447,1,0,0:0:0:0:
192,192,108667,1,0,0:0:0:0:
320,192,108722,1,0,0:0:0:0:
448,192,108777,1,0,0:0:0:0:
192,192,108832,1,0,0:0:0:0:
320,192,108887,1,0,0:0:0:0:
448,192,108887,1,0,0:0:0:0:
64,192,108887,1,0,0:0:0:0:
64,192,108996,1,0,0:0:0:0:
192,192,108996,1,0,0:0:0:0:
448,192,109106,1,0,0:0:0:0:
192,192,109106,1,0,0:0:0:0:
320,192,109216,1,0,0:0:0:0:
448,192,109216,1,0,0:0:0:0:
192,192,109436,1,0,0:0:0:0:
64,192,109436,1,0,0:0:0:0:
320,192,109491,1,0,0:0:0:0:
448,192,109491,1,0,0:0:0:0:
192,192,109546,1,0,0:0:0:0:
64,192,109546,1,0,0:0:0:0:
320,192,109656,1,0,0:0:0:0:
448,192,109656,1,0,0:0:0:0:
192,192,109766,1,0,0:0:0:0:
64,192,109766,1,0,0:0:0:0:
320,192,109821,1,0,0:0:0:0:
192,192,109876,1,0,0:0:0:0:
320,192,109931,1,0,0:0:0:0:
448,192,109985,1,0,0:0:0:0:
320,192,109985,1,0,0:0:0:0:
64,192,109985,1,0,0:0:0:0:
192,192,109985,1,0,0:0:0:0:
