osu file format v14

[General]
AudioFilename: Milky Factory.mp3
AudioLeadIn: 0
PreviewTime: 16796
Countdown: 1
SampleSet: Normal
StackLeniency: 0.7
Mode: 3
LetterboxInBreaks: 0
SpecialStyle: 0
WidescreenStoryboard: 0

[Editor]
DistanceSpacing: 1
BeatDivisor: 4
GridSize: 8
TimelineZoom: 1.9

[Metadata]
Title:Kobaryo Pack
TitleUnicode:Kobaryo Pack
Artist:tprtm
ArtistUnicode:tprtm
Creator:_Sizuka_
Version:Kobaryo - Milky Factory
Source:
Tags:
BeatmapID:1045240
BeatmapSetID:490375

[Difficulty]
HPDrainRate:8
CircleSize:4
OverallDifficulty:8
ApproachRate:5
SliderMultiplier:1.4
SliderTickRate:1

[Events]
//Background and Video events
0,0,"BG4.jpg",0,0
//Break Periods
//Storyboard Layer 0 (Background)
//Storyboard Layer 1 (Fail)
//Storyboard Layer 2 (Pass)
//Storyboard Layer 3 (Foreground)
//Storyboard Sound Samples

[TimingPoints]
960,209.059233449477,4,1,0,30,1,0

[HitObjects]
448,192,2893,5,0,0:0:0:0:
64,192,2893,1,0,0:0:0:0:
320,192,2946,1,0,0:0:0:0:
192,192,2946,1,0,0:0:0:0:
320,192,3155,1,0,0:0:0:0:
448,192,3155,1,0,0:0:0:0:
320,192,3468,5,0,0:0:0:0:
448,192,3468,1,0,0:0:0:0:
64,192,3468,1,0,0:0:0:0:
192,192,3677,1,0,0:0:0:0:
64,192,3677,1,0,0:0:0:0:
320,192,3886,1,0,0:0:0:0:
448,192,3886,1,0,0:0:0:0:
64,192,3886,1,0,0:0:0:0:
64,192,4095,1,0,0:0:0:0:
448,192,4095,1,0,0:0:0:0:
320,192,4304,1,0,0:0:0:0:
448,192,4304,1,0,0:0:0:0:
192,192,4304,1,0,0:0:0:0:
64,192,4514,1,0,0:0:0:0:
320,192,4514,1,0,0:0:0:0:
320,192,4723,1,0,0:0:0:0:
192,192,4723,1,0,0:0:0:0:
448,192,4723,1,0,0:0:0:0:
64,192,4932,1,0,0:0:0:0:
192,192,4932,1,0,0:0:0:0:
64,192,5141,1,0,0:0:0:0:
320,192,5141,1,0,0:0:0:0:
448,192,5141,1,0,0:0:0:0:
192,192,5350,1,0,0:0:0:0:
448,192,5350,1,0,0:0:0:0:
64,192,5454,1,0,0:0:0:0:
320,192,5454,1,0,0:0:0:0:
320,192,5559,1,0,0:0:0:0:
448,192,5559,1,0,0:0:0:0:
192,192,5559,1,0,0:0:0:0:
64,192,5768,1,0,0:0:0:0:
320,192,5768,1,0,0:0:0:0:
448,192,5768,1,0,0:0:0:0:
448,192,5872,1,0,0:0:0:0:
192,192,5977,1,0,0:0:0:0:
64,192,5977,1,0,0:0:0:0:
64,192,6081,1,0,0:0:0:0:
320,192,6186,1,0,0:0:0:0:
448,192,6186,1,0,0:0:0:0:
192,192,6186,1,0,0:0:0:0:
448,192,6291,1,0,0:0:0:0:
64,192,6395,1,0,0:0:0:0:
192,192,6395,1,0,0:0:0:0:
320,192,6395,1,0,0:0:0:0:
320,192,6500,1,0,0:0:0:0:
192,192,6552,1,0,0:0:0:0:
64,192,6604,1,0,0:0:0:0:
448,192,6604,1,0,0:0:0:0:
320,192,6813,1,0,0:0:0:0:
448,192,6813,1,0,0:0:0:0:
192,192,6813,1,0,0:0:0:0:
320,192,7022,1,0,0:0:0:0:
192,192,7022,1,0,0:0:0:0:
64,192,7022,1,0,0:0:0:0:
64,192,7231,1,0,0:0:0:0:
448,192,7231,1,0,0:0:0:0:
320,192,7440,1,0,0:0:0:0:
448,192,7440,1,0,0:0:0:0:
64,192,7440,1,0,0:0:0:0:
192,192,7649,1,0,0:0:0:0:
320,192,7649,1,0,0:0:0:0:
448,192,7649,1,0,0:0:0:0:
64,192,7858,1,0,0:0:0:0:
320,192,7858,1,0,0:0:0:0:
64,192,8068,1,0,0:0:0:0:
320,192,8068,1,0,0:0:0:0:
448,192,8068,1,0,0:0:0:0:
320,192,8277,1,0,0:0:0:0:
192,192,8277,1,0,0:0:0:0:
448,192,8277,1,0,0:0:0:0:
192,192,8486,1,0,0:0:0:0:
64,192,8486,1,0,0:0:0:0:
448,192,8486,1,0,0:0:0:0:
320,192,8695,1,0,0:0:0:0:
448,192,8695,1,0,0:0:0:0:
64,192,8695,1,0,0:0:0:0:
192,192,8799,1,0,0:0:0:0:
320,192,8799,1,0,0:0:0:0:
64,192,8904,1,0,0:0:0:0:
192,192,8904,1,0,0:0:0:0:
448,192,8904,1,0,0:0:0:0:
320,192,9113,1,0,0:0:0:0:
448,192,9113,1,0,0:0:0:0:
192,192,9217,1,0,0:0:0:0:
64,192,9322,1,0,0:0:0:0:
320,192,9322,1,0,0:0:0:0:
448,192,9322,1,0,0:0:0:0:
192,192,9426,1,0,0:0:0:0:
320,192,9531,1,0,0:0:0:0:
64,192,9531,1,0,0:0:0:0:
448,192,9635,1,0,0:0:0:0:
192,192,9740,1,0,0:0:0:0:
64,192,9740,1,0,0:0:0:0:
320,192,9740,1,0,0:0:0:0:
64,192,9845,1,0,0:0:0:0:
192,192,9949,1,0,0:0:0:0:
320,192,10054,1,0,0:0:0:0:
192,192,10158,1,0,0:0:0:0:
64,192,10158,1,0,0:0:0:0:
320,192,10158,1,0,0:0:0:0:
448,192,10158,1,0,0:0:0:0:
64,192,10367,1,0,0:0:0:0:
448,192,10367,1,0,0:0:0:0:
64,192,10472,1,0,0:0:0:0:
192,192,10576,1,0,0:0:0:0:
320,192,10576,1,0,0:0:0:0:
448,192,10576,1,0,0:0:0:0:
320,192,10785,1,0,0:0:0:0:
448,192,10785,1,0,0:0:0:0:
64,192,10785,1,0,0:0:0:0:
64,192,10994,1,0,0:0:0:0:
192,192,10994,1,0,0:0:0:0:
320,192,11099,1,0,0:0:0:0:
192,192,11203,1,0,0:0:0:0:
448,192,11203,1,0,0:0:0:0:
320,192,11412,1,0,0:0:0:0:
448,192,11412,1,0,0:0:0:0:
64,192,11412,1,0,0:0:0:0:
64,192,11622,1,0,0:0:0:0:
320,192,11622,1,0,0:0:0:0:
192,192,11831,1,0,0:0:0:0:
320,192,11831,1,0,0:0:0:0:
448,192,11831,1,0,0:0:0:0:
64,192,12040,1,0,0:0:0:0:
448,192,12040,1,0,0:0:0:0:
192,192,12249,1,0,0:0:0:0:
64,192,12249,1,0,0:0:0:0:
320,192,12249,1,0,0:0:0:0:
320,192,12458,1,0,0:0:0:0:
448,192,12458,1,0,0:0:0:0:
64,192,12458,1,0,0:0:0:0:
192,192,12667,1,0,0:0:0:0:
320,192,12667,1,0,0:0:0:0:
64,192,12771,1,0,0:0:0:0:
448,192,12771,1,0,0:0:0:0:
320,192,12771,1,0,0:0:0:0:
192,192,12876,1,0,0:0:0:0:
448,192,12876,1,0,0:0:0:0:
64,192,12980,1,0,0:0:0:0:
192,192,12980,1,0,0:0:0:0:
320,192,12980,1,0,0:0:0:0:
320,192,13085,1,0,0:0:0:0:
448,192,13085,1,0,0:0:0:0:
64,192,13085,1,0,0:0:0:0:
192,192,13294,1,0,0:0:0:0:
320,192,13294,1,0,0:0:0:0:
448,192,13294,1,0,0:0:0:0:
192,192,13503,1,0,0:0:0:0:
64,192,13503,1,0,0:0:0:0:
320,192,13503,1,0,0:0:0:0:
448,192,13503,1,0,0:0:0:0:
64,192,13712,1,0,0:0:0:0:
448,192,13712,1,0,0:0:0:0:
320,192,13921,1,0,0:0:0:0:
192,192,13921,1,0,0:0:0:0:
64,192,13921,1,0,0:0:0:0:
192,192,14130,1,0,0:0:0:0:
320,192,14130,1,0,0:0:0:0:
448,192,14130,1,0,0:0:0:0:
448,192,14339,1,0,0:0:0:0:
320,192,14339,1,0,0:0:0:0:
64,192,14339,1,0,0:0:0:0:
192,192,14339,1,0,0:0:0:0:
192,192,14548,1,0,0:0:0:0:
64,192,14548,1,0,0:0:0:0:
448,192,14548,1,0,0:0:0:0:
320,192,14757,1,0,0:0:0:0:
448,192,14757,1,0,0:0:0:0:
64,192,14757,1,0,0:0:0:0:
320,192,14966,1,0,0:0:0:0:
192,192,14966,1,0,0:0:0:0:
192,192,15176,1,0,0:0:0:0:
64,192,15176,1,0,0:0:0:0:
320,192,15280,1,0,0:0:0:0:
192,192,15437,1,0,0:0:0:0:
320,192,15489,1,0,0:0:0:0:
64,192,15646,1,0,0:0:0:0:
192,192,15750,1,0,0:0:0:0:
320,192,15750,1,0,0:0:0:0:
64,192,16012,1,0,0:0:0:0:
192,192,16064,1,0,0:0:0:0:
448,192,16482,1,0,0:0:0:0:
320,192,16534,1,0,0:0:0:0:
192,192,16587,1,0,0:0:0:0:
64,192,16639,1,0,0:0:0:0:
320,192,16848,1,0,0:0:0:0:
448,192,16848,1,0,0:0:0:0:
64,192,16848,1,0,0:0:0:0:
192,192,16900,1,0,0:0:0:0:
320,192,16953,1,0,0:0:0:0:
448,192,17005,1,0,0:0:0:0:
64,192,17057,1,0,0:0:0:0:
192,192,17057,1,0,0:0:0:0:
320,192,17109,1,0,0:0:0:0:
448,192,17162,1,0,0:0:0:0:
64,192,17214,1,0,0:0:0:0:
192,192,17266,1,0,0:0:0:0:
320,192,17266,1,0,0:0:0:0:
448,192,17266,1,0,0:0:0:0:
64,192,17318,1,0,0:0:0:0:
192,192,17371,1,0,0:0:0:0:
448,192,17423,1,0,0:0:0:0:
320,192,17475,1,0,0:0:0:0:
64,192,17475,1,0,0:0:0:0:
192,192,17527,1,0,0:0:0:0:
448,192,17580,1,0,0:0:0:0:
320,192,17632,1,0,0:0:0:0:
192,192,17684,1,0,0:0:0:0:
64,192,17684,1,0,0:0:0:0:
448,192,17684,1,0,0:0:0:0:
320,192,17737,1,0,0:0:0:0:
64,192,17789,1,0,0:0:0:0:
192,192,17841,1,0,0:0:0:0:
320,192,17893,1,0,0:0:0:0:
448,192,17893,1,0,0:0:0:0:
64,192,17946,1,0,0:0:0:0:
448,192,17998,1,0,0:0:0:0:
320,192,18050,1,0,0:0:0:0:
192,192,18102,1,0,0:0:0:0:
64,192,18102,1,0,0:0:0:0:
448,192,18102,1,0,0:0:0:0:
320,192,18155,1,0,0:0:0:0:
192,192,18207,1,0,0:0:0:0:
64,192,18207,1,0,0:0:0:0:
320,192,18259,1,0,0:0:0:0:
448,192,18259,1,0,0:0:0:0:
192,192,18311,1,0,0:0:0:0:
64,192,18311,1,0,0:0:0:0:
320,192,18364,1,0,0:0:0:0:
448,192,18364,1,0,0:0:0:0:
192,192,18416,1,0,0:0:0:0:
64,192,18416,1,0,0:0:0:0:
320,192,18468,1,0,0:0:0:0:
448,192,18468,1,0,0:0:0:0:
64,192,18520,1,0,0:0:0:0:
192,192,18520,1,0,0:0:0:0:
320,192,18573,1,0,0:0:0:0:
448,192,18625,1,0,0:0:0:0:
64,192,18677,1,0,0:0:0:0:
192,192,18730,1,0,0:0:0:0:
320,192,18730,1,0,0:0:0:0:
448,192,18730,1,0,0:0:0:0:
64,192,18782,1,0,0:0:0:0:
320,192,18834,1,0,0:0:0:0:
192,192,18886,1,0,0:0:0:0:
64,192,18939,1,0,0:0:0:0:
448,192,18939,1,0,0:0:0:0:
320,192,18991,1,0,0:0:0:0:
64,192,19043,1,0,0:0:0:0:
192,192,19095,1,0,0:0:0:0:
320,192,19148,1,0,0:0:0:0:
448,192,19148,1,0,0:0:0:0:
64,192,19148,1,0,0:0:0:0:
192,192,19200,1,0,0:0:0:0:
448,192,19252,1,0,0:0:0:0:
320,192,19304,1,0,0:0:0:0:
192,192,19357,1,0,0:0:0:0:
64,192,19357,1,0,0:0:0:0:
448,192,19409,1,0,0:0:0:0:
64,192,19461,1,0,0:0:0:0:
320,192,19461,1,0,0:0:0:0:
192,192,19514,1,0,0:0:0:0:
448,192,19566,1,0,0:0:0:0:
320,192,19566,1,0,0:0:0:0:
64,192,19566,1,0,0:0:0:0:
192,192,19618,1,0,0:0:0:0:
320,192,19670,1,0,0:0:0:0:
448,192,19670,1,0,0:0:0:0:
64,192,19723,1,0,0:0:0:0:
192,192,19775,1,0,0:0:0:0:
320,192,19775,1,0,0:0:0:0:
448,192,19775,1,0,0:0:0:0:
64,192,19827,1,0,0:0:0:0:
192,192,19879,1,0,0:0:0:0:
320,192,19932,1,0,0:0:0:0:
192,192,19984,1,0,0:0:0:0:
64,192,19984,1,0,0:0:0:0:
320,192,20036,1,0,0:0:0:0:
448,192,20036,1,0,0:0:0:0:
192,192,20088,1,0,0:0:0:0:
64,192,20088,1,0,0:0:0:0:
320,192,20141,1,0,0:0:0:0:
448,192,20141,1,0,0:0:0:0:
64,192,20193,1,0,0:0:0:0:
192,192,20193,1,0,0:0:0:0:
320,192,20245,1,0,0:0:0:0:
448,192,20297,1,0,0:0:0:0:
192,192,20350,1,0,0:0:0:0:
64,192,20402,1,0,0:0:0:0:
320,192,20402,1,0,0:0:0:0:
448,192,20454,1,0,0:0:0:0:
64,192,20507,1,0,0:0:0:0:
192,192,20559,1,0,0:0:0:0:
320,192,20611,1,0,0:0:0:0:
448,192,20611,1,0,0:0:0:0:
64,192,20611,1,0,0:0:0:0:
192,192,20663,1,0,0:0:0:0:
448,192,20716,1,0,0:0:0:0:
320,192,20768,1,0,0:0:0:0:
192,192,20820,1,0,0:0:0:0:
64,192,20820,1,0,0:0:0:0:
320,192,20872,1,0,0:0:0:0:
448,192,20925,1,0,0:0:0:0:
64,192,20977,1,0,0:0:0:0:
192,192,21029,1,0,0:0:0:0:
320,192,21029,1,0,0:0:0:0:
448,192,21029,1,0,0:0:0:0:
64,192,21081,1,0,0:0:0:0:
192,192,21134,1,0,0:0:0:0:
448,192,21186,1,0,0:0:0:0:
320,192,21238,1,0,0:0:0:0:
64,192,21238,1,0,0:0:0:0:
192,192,21291,1,0,0:0:0:0:
448,192,21343,1,0,0:0:0:0:
320,192,21395,1,0,0:0:0:0:
192,192,21447,1,0,0:0:0:0:
64,192,21447,1,0,0:0:0:0:
448,192,21447,1,0,0:0:0:0:
320,192,21500,1,0,0:0:0:0:
192,192,21552,1,0,0:0:0:0:
64,192,21552,1,0,0:0:0:0:
320,192,21604,1,0,0:0:0:0:
448,192,21604,1,0,0:0:0:0:
192,192,21656,1,0,0:0:0:0:
64,192,21656,1,0,0:0:0:0:
320,192,21709,1,0,0:0:0:0:
448,192,21761,1,0,0:0:0:0:
192,192,21761,1,0,0:0:0:0:
64,192,21813,1,0,0:0:0:0:
192,192,21865,1,0,0:0:0:0:
320,192,21865,1,0,0:0:0:0:
448,192,21865,1,0,0:0:0:0:
64,192,21918,1,0,0:0:0:0:
448,192,21970,1,0,0:0:0:0:
320,192,22022,1,0,0:0:0:0:
192,192,22074,1,0,0:0:0:0:
64,192,22074,1,0,0:0:0:0:
448,192,22127,1,0,0:0:0:0:
64,192,22179,1,0,0:0:0:0:
192,192,22231,1,0,0:0:0:0:
448,192,22284,1,0,0:0:0:0:
320,192,22284,1,0,0:0:0:0:
192,192,22336,1,0,0:0:0:0:
64,192,22388,1,0,0:0:0:0:
448,192,22440,1,0,0:0:0:0:
320,192,22493,1,0,0:0:0:0:
192,192,22493,1,0,0:0:0:0:
64,192,22493,1,0,0:0:0:0:
448,192,22545,1,0,0:0:0:0:
64,192,22597,1,0,0:0:0:0:
192,192,22649,1,0,0:0:0:0:
320,192,22702,1,0,0:0:0:0:
448,192,22702,1,0,0:0:0:0:
64,192,22754,1,0,0:0:0:0:
192,192,22806,1,0,0:0:0:0:
320,192,22858,1,0,0:0:0:0:
448,192,22911,1,0,0:0:0:0:
64,192,22911,1,0,0:0:0:0:
192,192,22963,1,0,0:0:0:0:
320,192,23015,1,0,0:0:0:0:
448,192,23068,1,0,0:0:0:0:
64,192,23068,1,0,0:0:0:0:
192,192,23120,1,0,0:0:0:0:
320,192,23120,1,0,0:0:0:0:
320,192,23224,1,0,0:0:0:0:
192,192,23329,1,0,0:0:0:0:
64,192,23329,1,0,0:0:0:0:
64,192,23433,1,0,0:0:0:0:
192,192,23538,1,0,0:0:0:0:
320,192,23538,1,0,0:0:0:0:
448,192,23538,1,0,0:0:0:0:
64,192,23590,1,0,0:0:0:0:
448,192,23642,1,0,0:0:0:0:
320,192,23695,1,0,0:0:0:0:
192,192,23747,1,0,0:0:0:0:
64,192,23747,1,0,0:0:0:0:
448,192,23799,1,0,0:0:0:0:
64,192,23851,1,0,0:0:0:0:
192,192,23904,1,0,0:0:0:0:
320,192,23956,1,0,0:0:0:0:
448,192,23956,1,0,0:0:0:0:
64,192,23956,1,0,0:0:0:0:
192,192,24008,1,0,0:0:0:0:
448,192,24061,1,0,0:0:0:0:
64,192,24113,1,0,0:0:0:0:
192,192,24165,1,0,0:0:0:0:
320,192,24165,1,0,0:0:0:0:
448,192,24217,1,0,0:0:0:0:
64,192,24270,1,0,0:0:0:0:
192,192,24322,1,0,0:0:0:0:
320,192,24374,1,0,0:0:0:0:
448,192,24374,1,0,0:0:0:0:
64,192,24374,1,0,0:0:0:0:
192,192,24426,1,0,0:0:0:0:
448,192,24479,1,0,0:0:0:0:
320,192,24531,1,0,0:0:0:0:
192,192,24583,1,0,0:0:0:0:
64,192,24583,1,0,0:0:0:0:
448,192,24635,1,0,0:0:0:0:
192,192,24688,1,0,0:0:0:0:
320,192,24740,1,0,0:0:0:0:
448,192,24792,1,0,0:0:0:0:
192,192,24792,1,0,0:0:0:0:
64,192,24792,1,0,0:0:0:0:
320,192,24845,1,0,0:0:0:0:
192,192,24897,1,0,0:0:0:0:
64,192,24897,1,0,0:0:0:0:
448,192,24949,1,0,0:0:0:0:
320,192,25001,1,0,0:0:0:0:
192,192,25001,1,0,0:0:0:0:
64,192,25001,1,0,0:0:0:0:
448,192,25054,1,0,0:0:0:0:
192,192,25106,1,0,0:0:0:0:
64,192,25106,1,0,0:0:0:0:
320,192,25158,1,0,0:0:0:0:
448,192,25210,1,0,0:0:0:0:
64,192,25210,1,0,0:0:0:0:
192,192,25263,1,0,0:0:0:0:
320,192,25315,1,0,0:0:0:0:
448,192,25367,1,0,0:0:0:0:
64,192,25419,1,0,0:0:0:0:
192,192,25419,1,0,0:0:0:0:
320,192,25419,1,0,0:0:0:0:
448,192,25472,1,0,0:0:0:0:
64,192,25524,1,0,0:0:0:0:
192,192,25576,1,0,0:0:0:0:
320,192,25628,1,0,0:0:0:0:
448,192,25628,1,0,0:0:0:0:
64,192,25681,1,0,0:0:0:0:
448,192,25733,1,0,0:0:0:0:
320,192,25785,1,0,0:0:0:0:
192,192,25838,1,0,0:0:0:0:
64,192,25838,1,0,0:0:0:0:
448,192,25838,1,0,0:0:0:0:
320,192,25890,1,0,0:0:0:0:
64,192,25942,1,0,0:0:0:0:
192,192,25994,1,0,0:0:0:0:
320,192,26047,1,0,0:0:0:0:
448,192,26047,1,0,0:0:0:0:
64,192,26099,1,0,0:0:0:0:
320,192,26151,1,0,0:0:0:0:
448,192,26151,1,0,0:0:0:0:
192,192,26203,1,0,0:0:0:0:
64,192,26256,1,0,0:0:0:0:
448,192,26256,1,0,0:0:0:0:
320,192,26308,1,0,0:0:0:0:
192,192,26360,1,0,0:0:0:0:
64,192,26412,1,0,0:0:0:0:
192,192,26465,1,0,0:0:0:0:
448,192,26465,1,0,0:0:0:0:
320,192,26465,1,0,0:0:0:0:
64,192,26517,1,0,0:0:0:0:
320,192,26569,1,0,0:0:0:0:
448,192,26569,1,0,0:0:0:0:
64,192,26622,1,0,0:0:0:0:
192,192,26622,1,0,0:0:0:0:
320,192,26674,1,0,0:0:0:0:
448,192,26674,1,0,0:0:0:0:
192,192,26726,1,0,0:0:0:0:
64,192,26726,1,0,0:0:0:0:
320,192,26778,1,0,0:0:0:0:
448,192,26778,1,0,0:0:0:0:
192,192,26831,1,0,0:0:0:0:
64,192,26831,1,0,0:0:0:0:
448,192,26883,1,0,0:0:0:0:
320,192,26883,1,0,0:0:0:0:
192,192,26935,1,0,0:0:0:0:
64,192,26987,1,0,0:0:0:0:
448,192,27040,1,0,0:0:0:0:
320,192,27092,1,0,0:0:0:0:
192,192,27092,1,0,0:0:0:0:
64,192,27092,1,0,0:0:0:0:
448,192,27144,1,0,0:0:0:0:
64,192,27196,1,0,0:0:0:0:
192,192,27249,1,0,0:0:0:0:
320,192,27301,1,0,0:0:0:0:
448,192,27301,1,0,0:0:0:0:
64,192,27353,1,0,0:0:0:0:
320,192,27405,1,0,0:0:0:0:
192,192,27458,1,0,0:0:0:0:
64,192,27510,1,0,0:0:0:0:
320,192,27510,1,0,0:0:0:0:
448,192,27510,1,0,0:0:0:0:
192,192,27562,1,0,0:0:0:0:
448,192,27615,1,0,0:0:0:0:
320,192,27667,1,0,0:0:0:0:
192,192,27719,1,0,0:0:0:0:
64,192,27719,1,0,0:0:0:0:
448,192,27771,1,0,0:0:0:0:
64,192,27824,1,0,0:0:0:0:
192,192,27876,1,0,0:0:0:0:
320,192,27928,1,0,0:0:0:0:
448,192,27928,1,0,0:0:0:0:
64,192,27928,1,0,0:0:0:0:
192,192,27980,1,0,0:0:0:0:
320,192,28033,1,0,0:0:0:0:
448,192,28085,1,0,0:0:0:0:
64,192,28137,1,0,0:0:0:0:
192,192,28137,1,0,0:0:0:0:
320,192,28189,1,0,0:0:0:0:
448,192,28242,1,0,0:0:0:0:
64,192,28242,1,0,0:0:0:0:
192,192,28294,1,0,0:0:0:0:
320,192,28346,1,0,0:0:0:0:
448,192,28346,1,0,0:0:0:0:
64,192,28399,1,0,0:0:0:0:
192,192,28451,1,0,0:0:0:0:
448,192,28451,1,0,0:0:0:0:
320,192,28503,1,0,0:0:0:0:
192,192,28555,1,0,0:0:0:0:
64,192,28555,1,0,0:0:0:0:
448,192,28608,1,0,0:0:0:0:
64,192,28660,1,0,0:0:0:0:
192,192,28712,1,0,0:0:0:0:
320,192,28764,1,0,0:0:0:0:
448,192,28764,1,0,0:0:0:0:
64,192,28764,1,0,0:0:0:0:
192,192,28817,1,0,0:0:0:0:
320,192,28869,1,0,0:0:0:0:
448,192,28869,1,0,0:0:0:0:
192,192,28921,1,0,0:0:0:0:
64,192,28921,1,0,0:0:0:0:
320,192,28973,1,0,0:0:0:0:
448,192,28973,1,0,0:0:0:0:
64,192,29026,1,0,0:0:0:0:
192,192,29078,1,0,0:0:0:0:
448,192,29130,1,0,0:0:0:0:
320,192,29130,1,0,0:0:0:0:
64,192,29182,1,0,0:0:0:0:
192,192,29182,1,0,0:0:0:0:
320,192,29235,1,0,0:0:0:0:
448,192,29235,1,0,0:0:0:0:
192,192,29287,1,0,0:0:0:0:
64,192,29287,1,0,0:0:0:0:
448,192,29339,1,0,0:0:0:0:
320,192,29392,1,0,0:0:0:0:
192,192,29392,1,0,0:0:0:0:
64,192,29392,1,0,0:0:0:0:
448,192,29496,1,0,0:0:0:0:
320,192,29601,1,0,0:0:0:0:
64,192,29705,1,0,0:0:0:0:
192,192,29705,1,0,0:0:0:0:
320,192,29810,1,0,0:0:0:0:
448,192,29810,1,0,0:0:0:0:
192,192,29914,1,0,0:0:0:0:
64,192,30019,1,0,0:0:0:0:
320,192,30019,1,0,0:0:0:0:
192,192,30123,1,0,0:0:0:0:
64,192,30123,1,0,0:0:0:0:
192,192,30228,1,0,0:0:0:0:
64,192,30228,1,0,0:0:0:0:
320,192,30228,1,0,0:0:0:0:
320,192,30437,1,0,0:0:0:0:
448,192,30437,1,0,0:0:0:0:
64,192,30646,1,0,0:0:0:0:
448,192,30646,1,0,0:0:0:0:
320,192,30750,1,0,0:0:0:0:
64,192,30855,1,0,0:0:0:0:
192,192,30855,1,0,0:0:0:0:
320,192,31064,1,0,0:0:0:0:
448,192,31064,1,0,0:0:0:0:
64,192,31273,1,0,0:0:0:0:
320,192,31273,1,0,0:0:0:0:
192,192,31378,1,0,0:0:0:0:
64,192,31482,1,0,0:0:0:0:
320,192,31482,1,0,0:0:0:0:
320,192,31691,1,0,0:0:0:0:
448,192,31691,1,0,0:0:0:0:
64,192,31900,1,0,0:0:0:0:
192,192,31900,1,0,0:0:0:0:
448,192,31900,1,0,0:0:0:0:
320,192,32109,1,0,0:0:0:0:
448,192,32109,1,0,0:0:0:0:
320,192,32214,1,0,0:0:0:0:
448,192,32214,1,0,0:0:0:0:
448,192,32318,1,0,0:0:0:0:
320,192,32318,1,0,0:0:0:0:
64,192,32318,1,0,0:0:0:0:
64,192,32527,1,0,0:0:0:0:
192,192,32527,1,0,0:0:0:0:
320,192,32737,1,0,0:0:0:0:
448,192,32737,1,0,0:0:0:0:
64,192,32737,1,0,0:0:0:0:
64,192,32946,1,0,0:0:0:0:
448,192,32946,1,0,0:0:0:0:
320,192,33155,1,0,0:0:0:0:
192,192,33155,1,0,0:0:0:0:
448,192,33155,1,0,0:0:0:0:
64,192,33364,1,0,0:0:0:0:
320,192,33364,1,0,0:0:0:0:
64,192,33468,1,0,0:0:0:0:
192,192,33573,1,0,0:0:0:0:
320,192,33573,1,0,0:0:0:0:
320,192,33782,1,0,0:0:0:0:
448,192,33782,1,0,0:0:0:0:
64,192,33782,1,0,0:0:0:0:
192,192,33991,1,0,0:0:0:0:
448,192,33991,1,0,0:0:0:0:
448,192,34095,1,0,0:0:0:0:
64,192,34095,1,0,0:0:0:0:
448,192,34200,1,0,0:0:0:0:
192,192,34200,1,0,0:0:0:0:
448,192,34304,1,0,0:0:0:0:
64,192,34304,1,0,0:0:0:0:
448,192,34409,1,0,0:0:0:0:
192,192,34409,1,0,0:0:0:0:
320,192,34618,1,0,0:0:0:0:
448,192,34618,1,0,0:0:0:0:
192,192,34723,1,0,0:0:0:0:
64,192,34827,1,0,0:0:0:0:
320,192,34827,1,0,0:0:0:0:
448,192,34827,1,0,0:0:0:0:
64,192,35036,1,0,0:0:0:0:
192,192,35036,1,0,0:0:0:0:
320,192,35245,1,0,0:0:0:0:
448,192,35245,1,0,0:0:0:0:
192,192,35245,1,0,0:0:0:0:
320,192,35454,1,0,0:0:0:0:
448,192,35454,1,0,0:0:0:0:
64,192,35559,1,0,0:0:0:0:
192,192,35559,1,0,0:0:0:0:
64,192,35663,1,0,0:0:0:0:
192,192,35663,1,0,0:0:0:0:
448,192,35716,1,0,0:0:0:0:
320,192,35716,1,0,0:0:0:0:
192,192,35768,1,0,0:0:0:0:
64,192,35820,1,0,0:0:0:0:
448,192,35820,1,0,0:0:0:0:
320,192,35872,1,0,0:0:0:0:
192,192,35925,1,0,0:0:0:0:
64,192,35977,1,0,0:0:0:0:
448,192,36029,1,0,0:0:0:0:
320,192,36081,1,0,0:0:0:0:
192,192,36081,1,0,0:0:0:0:
64,192,36081,1,0,0:0:0:0:
448,192,36186,1,0,0:0:0:0:
320,192,36291,1,0,0:0:0:0:
192,192,36395,1,0,0:0:0:0:
320,192,36500,1,0,0:0:0:0:
64,192,36500,1,0,0:0:0:0:
192,192,36552,1,0,0:0:0:0:
320,192,36604,1,0,0:0:0:0:
448,192,36656,1,0,0:0:0:0:
64,192,36709,1,0,0:0:0:0:
192,192,36709,1,0,0:0:0:0:
320,192,36709,1,0,0:0:0:0:
64,192,36918,1,0,0:0:0:0:
192,192,36918,1,0,0:0:0:0:
448,192,36918,1,0,0:0:0:0:
320,192,37127,1,0,0:0:0:0:
320,192,37231,1,0,0:0:0:0:
192,192,37336,1,0,0:0:0:0:
64,192,37336,1,0,0:0:0:0:
320,192,37545,1,0,0:0:0:0:
448,192,37545,1,0,0:0:0:0:
448,192,37649,1,0,0:0:0:0:
320,192,37754,1,0,0:0:0:0:
64,192,37754,1,0,0:0:0:0:
64,192,37963,1,0,0:0:0:0:
192,192,37963,1,0,0:0:0:0:
320,192,38068,1,0,0:0:0:0:
448,192,38068,1,0,0:0:0:0:
192,192,38172,1,0,0:0:0:0:
64,192,38172,1,0,0:0:0:0:
448,192,38277,1,0,0:0:0:0:
320,192,38277,1,0,0:0:0:0:
192,192,38329,1,0,0:0:0:0:
64,192,38329,1,0,0:0:0:0:
320,192,38381,1,0,0:0:0:0:
448,192,38381,1,0,0:0:0:0:
64,192,38590,1,0,0:0:0:0:
192,192,38590,1,0,0:0:0:0:
64,192,38695,1,0,0:0:0:0:
448,192,38695,1,0,0:0:0:0:
192,192,38799,1,0,0:0:0:0:
448,192,38799,1,0,0:0:0:0:
320,192,38799,1,0,0:0:0:0:
192,192,39113,1,0,0:0:0:0:
64,192,39113,1,0,0:0:0:0:
320,192,39113,1,0,0:0:0:0:
448,192,39426,1,0,0:0:0:0:
320,192,39426,1,0,0:0:0:0:
64,192,39426,1,0,0:0:0:0:
320,192,39635,1,0,0:0:0:0:
448,192,39635,1,0,0:0:0:0:
320,192,39775,1,0,0:0:0:0:
448,192,39775,1,0,0:0:0:0:
320,192,39845,1,0,0:0:0:0:
448,192,39845,1,0,0:0:0:0:
64,192,39949,1,0,0:0:0:0:
64,192,40054,1,0,0:0:0:0:
192,192,40054,1,0,0:0:0:0:
320,192,40263,1,0,0:0:0:0:
448,192,40263,1,0,0:0:0:0:
192,192,40263,1,0,0:0:0:0:
64,192,40472,1,0,0:0:0:0:
448,192,40472,1,0,0:0:0:0:
192,192,40681,1,0,0:0:0:0:
320,192,40681,1,0,0:0:0:0:
448,192,40785,1,0,0:0:0:0:
320,192,40890,1,0,0:0:0:0:
448,192,40890,1,0,0:0:0:0:
448,192,40994,1,0,0:0:0:0:
64,192,40994,1,0,0:0:0:0:
320,192,41099,1,0,0:0:0:0:
448,192,41099,1,0,0:0:0:0:
192,192,41099,1,0,0:0:0:0:
64,192,41099,1,0,0:0:0:0:
320,192,41308,1,0,0:0:0:0:
448,192,41308,1,0,0:0:0:0:
192,192,41412,1,0,0:0:0:0:
64,192,41412,1,0,0:0:0:0:
320,192,41412,1,0,0:0:0:0:
64,192,41622,1,0,0:0:0:0:
192,192,41622,1,0,0:0:0:0:
448,192,41656,1,0,0:0:0:0:
320,192,41691,1,0,0:0:0:0:
192,192,41726,1,0,0:0:0:0:
64,192,41726,1,0,0:0:0:0:
320,192,41935,1,0,0:0:0:0:
448,192,41935,1,0,0:0:0:0:
320,192,42040,1,0,0:0:0:0:
448,192,42040,1,0,0:0:0:0:
192,192,42144,1,0,0:0:0:0:
64,192,42144,1,0,0:0:0:0:
320,192,42144,1,0,0:0:0:0:
448,192,42144,1,0,0:0:0:0:
64,192,42458,1,0,0:0:0:0:
192,192,42458,1,0,0:0:0:0:
320,192,42458,1,0,0:0:0:0:
320,192,42771,1,0,0:0:0:0:
448,192,42771,1,0,0:0:0:0:
64,192,42771,1,0,0:0:0:0:
192,192,42876,1,0,0:0:0:0:
64,192,42980,1,0,0:0:0:0:
320,192,42980,1,0,0:0:0:0:
448,192,42980,1,0,0:0:0:0:
192,192,43085,1,0,0:0:0:0:
64,192,43085,1,0,0:0:0:0:
320,192,43085,1,0,0:0:0:0:
448,192,43085,1,0,0:0:0:0:
192,192,43189,1,0,0:0:0:0:
320,192,43189,1,0,0:0:0:0:
448,192,43189,1,0,0:0:0:0:
320,192,43294,1,0,0:0:0:0:
448,192,43294,1,0,0:0:0:0:
64,192,43294,1,0,0:0:0:0:
64,192,43399,1,0,0:0:0:0:
192,192,43399,1,0,0:0:0:0:
448,192,43399,1,0,0:0:0:0:
320,192,43451,1,0,0:0:0:0:
192,192,43503,1,0,0:0:0:0:
64,192,43555,1,0,0:0:0:0:
320,192,43608,1,0,0:0:0:0:
448,192,43608,1,0,0:0:0:0:
192,192,43660,1,0,0:0:0:0:
64,192,43712,1,0,0:0:0:0:
320,192,43764,1,0,0:0:0:0:
448,192,43817,1,0,0:0:0:0:
64,192,43869,1,0,0:0:0:0:
192,192,43921,1,0,0:0:0:0:
320,192,43973,1,0,0:0:0:0:
64,192,44026,1,0,0:0:0:0:
192,192,44026,1,0,0:0:0:0:
448,192,44078,1,0,0:0:0:0:
320,192,44130,1,0,0:0:0:0:
64,192,44182,1,0,0:0:0:0:
192,192,44235,1,0,0:0:0:0:
448,192,44235,1,0,0:0:0:0:
320,192,44287,1,0,0:0:0:0:
64,192,44339,1,0,0:0:0:0:
192,192,44392,1,0,0:0:0:0:
320,192,44444,1,0,0:0:0:0:
448,192,44444,1,0,0:0:0:0:
64,192,44496,1,0,0:0:0:0:
448,192,44548,1,0,0:0:0:0:
320,192,44601,1,0,0:0:0:0:
192,192,44653,1,0,0:0:0:0:
64,192,44653,1,0,0:0:0:0:
448,192,44705,1,0,0:0:0:0:
320,192,44757,1,0,0:0:0:0:
192,192,44810,1,0,0:0:0:0:
64,192,44862,1,0,0:0:0:0:
448,192,44862,1,0,0:0:0:0:
320,192,44914,1,0,0:0:0:0:
64,192,44966,1,0,0:0:0:0:
448,192,44966,1,0,0:0:0:0:
192,192,45019,1,0,0:0:0:0:
320,192,45071,1,0,0:0:0:0:
448,192,45071,1,0,0:0:0:0:
64,192,45123,1,0,0:0:0:0:
192,192,45176,1,0,0:0:0:0:
320,192,45176,1,0,0:0:0:0:
448,192,45228,1,0,0:0:0:0:
64,192,45280,1,0,0:0:0:0:
192,192,45280,1,0,0:0:0:0:
320,192,45332,1,0,0:0:0:0:
448,192,45385,1,0,0:0:0:0:
64,192,45437,1,0,0:0:0:0:
192,192,45489,1,0,0:0:0:0:
320,192,45489,1,0,0:0:0:0:
448,192,45541,1,0,0:0:0:0:
64,192,45594,1,0,0:0:0:0:
320,192,45646,1,0,0:0:0:0:
192,192,45698,1,0,0:0:0:0:
448,192,45698,1,0,0:0:0:0:
64,192,45750,1,0,0:0:0:0:
320,192,45803,1,0,0:0:0:0:
192,192,45855,1,0,0:0:0:0:
64,192,45907,1,0,0:0:0:0:
448,192,45907,1,0,0:0:0:0:
320,192,45959,1,0,0:0:0:0:
64,192,46012,1,0,0:0:0:0:
192,192,46064,1,0,0:0:0:0:
320,192,46116,1,0,0:0:0:0:
448,192,46116,1,0,0:0:0:0:
64,192,46169,1,0,0:0:0:0:
192,192,46221,1,0,0:0:0:0:
448,192,46221,1,0,0:0:0:0:
320,192,46273,1,0,0:0:0:0:
192,192,46325,1,0,0:0:0:0:
64,192,46325,1,0,0:0:0:0:
448,192,46378,1,0,0:0:0:0:
320,192,46430,1,0,0:0:0:0:
192,192,46482,1,0,0:0:0:0:
320,192,46534,1,0,0:0:0:0:
448,192,46534,1,0,0:0:0:0:
64,192,46587,1,0,0:0:0:0:
192,192,46639,1,0,0:0:0:0:
448,192,46639,1,0,0:0:0:0:
320,192,46691,1,0,0:0:0:0:
448,192,46743,1,0,0:0:0:0:
64,192,46743,1,0,0:0:0:0:
192,192,46796,1,0,0:0:0:0:
320,192,46848,1,0,0:0:0:0:
448,192,46900,1,0,0:0:0:0:
64,192,46953,1,0,0:0:0:0:
192,192,46953,1,0,0:0:0:0:
320,192,47005,1,0,0:0:0:0:
448,192,47057,1,0,0:0:0:0:
64,192,47109,1,0,0:0:0:0:
192,192,47162,1,0,0:0:0:0:
320,192,47162,1,0,0:0:0:0:
448,192,47214,1,0,0:0:0:0:
192,192,47266,1,0,0:0:0:0:
64,192,47318,1,0,0:0:0:0:
320,192,47371,1,0,0:0:0:0:
448,192,47371,1,0,0:0:0:0:
192,192,47423,1,0,0:0:0:0:
64,192,47475,1,0,0:0:0:0:
448,192,47527,1,0,0:0:0:0:
320,192,47580,1,0,0:0:0:0:
192,192,47580,1,0,0:0:0:0:
64,192,47632,1,0,0:0:0:0:
448,192,47684,1,0,0:0:0:0:
320,192,47737,1,0,0:0:0:0:
192,192,47789,1,0,0:0:0:0:
64,192,47789,1,0,0:0:0:0:
448,192,47841,1,0,0:0:0:0:
64,192,47893,1,0,0:0:0:0:
192,192,47946,1,0,0:0:0:0:
320,192,47998,1,0,0:0:0:0:
448,192,47998,1,0,0:0:0:0:
64,192,48050,1,0,0:0:0:0:
448,192,48102,1,0,0:0:0:0:
320,192,48155,1,0,0:0:0:0:
192,192,48207,1,0,0:0:0:0:
64,192,48207,1,0,0:0:0:0:
448,192,48259,1,0,0:0:0:0:
192,192,48311,1,0,0:0:0:0:
64,192,48311,1,0,0:0:0:0:
320,192,48364,1,0,0:0:0:0:
192,192,48416,1,0,0:0:0:0:
64,192,48416,1,0,0:0:0:0:
448,192,48468,1,0,0:0:0:0:
64,192,48520,1,0,0:0:0:0:
192,192,48573,1,0,0:0:0:0:
320,192,48625,1,0,0:0:0:0:
448,192,48625,1,0,0:0:0:0:
64,192,48677,1,0,0:0:0:0:
192,192,48730,1,0,0:0:0:0:
320,192,48782,1,0,0:0:0:0:
448,192,48834,1,0,0:0:0:0:
64,192,48834,1,0,0:0:0:0:
192,192,48886,1,0,0:0:0:0:
448,192,48939,1,0,0:0:0:0:
64,192,48991,1,0,0:0:0:0:
192,192,49043,1,0,0:0:0:0:
320,192,49043,1,0,0:0:0:0:
448,192,49095,1,0,0:0:0:0:
64,192,49148,1,0,0:0:0:0:
320,192,49200,1,0,0:0:0:0:
192,192,49252,1,0,0:0:0:0:
448,192,49252,1,0,0:0:0:0:
64,192,49304,1,0,0:0:0:0:
320,192,49357,1,0,0:0:0:0:
192,192,49409,1,0,0:0:0:0:
64,192,49461,1,0,0:0:0:0:
448,192,49461,1,0,0:0:0:0:
320,192,49514,1,0,0:0:0:0:
192,192,49514,1,0,0:0:0:0:
64,192,49566,1,0,0:0:0:0:
448,192,49566,1,0,0:0:0:0:
192,192,49618,1,0,0:0:0:0:
320,192,49618,1,0,0:0:0:0:
64,192,49670,1,0,0:0:0:0:
448,192,49670,1,0,0:0:0:0:
192,192,49723,1,0,0:0:0:0:
320,192,49723,1,0,0:0:0:0:
64,192,49775,1,0,0:0:0:0:
448,192,49775,1,0,0:0:0:0:
192,192,49827,1,0,0:0:0:0:
320,192,49827,1,0,0:0:0:0:
64,192,49879,1,0,0:0:0:0:
448,192,49879,1,0,0:0:0:0:
448,192,50088,1,0,0:0:0:0:
192,192,50088,1,0,0:0:0:0:
448,192,50297,1,0,0:0:0:0:
320,192,50297,1,0,0:0:0:0:
192,192,50297,1,0,0:0:0:0:
448,192,50402,1,0,0:0:0:0:
64,192,50402,1,0,0:0:0:0:
64,192,50507,1,0,0:0:0:0:
192,192,50507,1,0,0:0:0:0:
448,192,50611,1,0,0:0:0:0:
64,192,50611,1,0,0:0:0:0:
320,192,50611,1,0,0:0:0:0:
64,192,50716,1,0,0:0:0:0:
192,192,50716,1,0,0:0:0:0:
448,192,50716,1,0,0:0:0:0:
320,192,50768,1,0,0:0:0:0:
448,192,50820,1,0,0:0:0:0:
64,192,50820,1,0,0:0:0:0:
192,192,50872,1,0,0:0:0:0:
448,192,50925,1,0,0:0:0:0:
320,192,50925,1,0,0:0:0:0:
64,192,51029,1,0,0:0:0:0:
320,192,51029,1,0,0:0:0:0:
64,192,51134,1,0,0:0:0:0:
448,192,51134,1,0,0:0:0:0:
192,192,51238,1,0,0:0:0:0:
448,192,51238,1,0,0:0:0:0:
320,192,51343,1,0,0:0:0:0:
192,192,51343,1,0,0:0:0:0:
64,192,51447,1,0,0:0:0:0:
448,192,51447,1,0,0:0:0:0:
64,192,51552,1,0,0:0:0:0:
320,192,51552,1,0,0:0:0:0:
192,192,51552,1,0,0:0:0:0:
192,192,51656,1,0,0:0:0:0:
448,192,51656,1,0,0:0:0:0:
320,192,51761,1,0,0:0:0:0:
448,192,51761,1,0,0:0:0:0:
192,192,51813,1,0,0:0:0:0:
64,192,51865,1,0,0:0:0:0:
448,192,51865,1,0,0:0:0:0:
320,192,51918,1,0,0:0:0:0:
192,192,51970,1,0,0:0:0:0:
64,192,51970,1,0,0:0:0:0:
192,192,52074,1,0,0:0:0:0:
448,192,52074,1,0,0:0:0:0:
320,192,52179,1,0,0:0:0:0:
448,192,52179,1,0,0:0:0:0:
64,192,52284,1,0,0:0:0:0:
320,192,52284,1,0,0:0:0:0:
64,192,52388,1,0,0:0:0:0:
192,192,52388,1,0,0:0:0:0:
448,192,52388,1,0,0:0:0:0:
320,192,52493,1,0,0:0:0:0:
448,192,52493,1,0,0:0:0:0:
64,192,52597,1,0,0:0:0:0:
192,192,52597,1,0,0:0:0:0:
320,192,52649,1,0,0:0:0:0:
448,192,52702,1,0,0:0:0:0:
64,192,52702,1,0,0:0:0:0:
192,192,52754,1,0,0:0:0:0:
320,192,52806,1,0,0:0:0:0:
448,192,52806,1,0,0:0:0:0:
64,192,52858,1,0,0:0:0:0:
192,192,52858,1,0,0:0:0:0:
320,192,52911,1,0,0:0:0:0:
448,192,52911,1,0,0:0:0:0:
64,192,52963,1,0,0:0:0:0:
192,192,52963,1,0,0:0:0:0:
320,192,53015,1,0,0:0:0:0:
448,192,53015,1,0,0:0:0:0:
64,192,53120,1,0,0:0:0:0:
448,192,53120,1,0,0:0:0:0:
64,192,53224,1,0,0:0:0:0:
192,192,53224,1,0,0:0:0:0:
320,192,53224,1,0,0:0:0:0:
320,192,53277,1,0,0:0:0:0:
448,192,53277,1,0,0:0:0:0:
64,192,53329,1,0,0:0:0:0:
192,192,53329,1,0,0:0:0:0:
320,192,53381,1,0,0:0:0:0:
448,192,53381,1,0,0:0:0:0:
192,192,53433,1,0,0:0:0:0:
64,192,53433,1,0,0:0:0:0:
448,192,53538,1,0,0:0:0:0:
320,192,53642,1,0,0:0:0:0:
64,192,53642,1,0,0:0:0:0:
64,192,53747,1,0,0:0:0:0:
192,192,53747,1,0,0:0:0:0:
448,192,53851,1,0,0:0:0:0:
320,192,53851,1,0,0:0:0:0:
64,192,53956,1,0,0:0:0:0:
448,192,53956,1,0,0:0:0:0:
64,192,54061,1,0,0:0:0:0:
192,192,54061,1,0,0:0:0:0:
320,192,54061,1,0,0:0:0:0:
192,192,54165,1,0,0:0:0:0:
448,192,54165,1,0,0:0:0:0:
320,192,54270,1,0,0:0:0:0:
448,192,54270,1,0,0:0:0:0:
192,192,54322,1,0,0:0:0:0:
64,192,54374,1,0,0:0:0:0:
448,192,54374,1,0,0:0:0:0:
320,192,54426,1,0,0:0:0:0:
192,192,54479,1,0,0:0:0:0:
64,192,54479,1,0,0:0:0:0:
192,192,54583,1,0,0:0:0:0:
448,192,54583,1,0,0:0:0:0:
64,192,54688,1,0,0:0:0:0:
448,192,54688,1,0,0:0:0:0:
64,192,54792,1,0,0:0:0:0:
192,192,54792,1,0,0:0:0:0:
192,192,54897,1,0,0:0:0:0:
320,192,54897,1,0,0:0:0:0:
448,192,54897,1,0,0:0:0:0:
64,192,55001,1,0,0:0:0:0:
448,192,55001,1,0,0:0:0:0:
64,192,55106,1,0,0:0:0:0:
192,192,55106,1,0,0:0:0:0:
320,192,55158,1,0,0:0:0:0:
448,192,55210,1,0,0:0:0:0:
64,192,55210,1,0,0:0:0:0:
192,192,55263,1,0,0:0:0:0:
320,192,55315,1,0,0:0:0:0:
448,192,55315,1,0,0:0:0:0:
64,192,55419,1,0,0:0:0:0:
320,192,55419,1,0,0:0:0:0:
64,192,55524,1,0,0:0:0:0:
448,192,55524,1,0,0:0:0:0:
448,192,55628,1,0,0:0:0:0:
192,192,55628,1,0,0:0:0:0:
320,192,55733,1,0,0:0:0:0:
192,192,55733,1,0,0:0:0:0:
64,192,55733,1,0,0:0:0:0:
64,192,55838,1,0,0:0:0:0:
448,192,55838,1,0,0:0:0:0:
320,192,55942,1,0,0:0:0:0:
448,192,55942,1,0,0:0:0:0:
192,192,55994,1,0,0:0:0:0:
64,192,56047,1,0,0:0:0:0:
448,192,56047,1,0,0:0:0:0:
320,192,56099,1,0,0:0:0:0:
192,192,56151,1,0,0:0:0:0:
64,192,56151,1,0,0:0:0:0:
448,192,56256,1,0,0:0:0:0:
192,192,56360,1,0,0:0:0:0:
64,192,56360,1,0,0:0:0:0:
192,192,56465,1,0,0:0:0:0:
320,192,56465,1,0,0:0:0:0:
320,192,56569,1,0,0:0:0:0:
448,192,56569,1,0,0:0:0:0:
192,192,56622,1,0,0:0:0:0:
64,192,56674,1,0,0:0:0:0:
448,192,56674,1,0,0:0:0:0:
320,192,56726,1,0,0:0:0:0:
192,192,56778,1,0,0:0:0:0:
64,192,56831,1,0,0:0:0:0:
448,192,56831,1,0,0:0:0:0:
320,192,56883,1,0,0:0:0:0:
192,192,56935,1,0,0:0:0:0:
64,192,56987,1,0,0:0:0:0:
320,192,56987,1,0,0:0:0:0:
448,192,56987,1,0,0:0:0:0:
192,192,57196,1,0,0:0:0:0:
448,192,57301,1,0,0:0:0:0:
192,192,57405,1,0,0:0:0:0:
320,192,57405,1,0,0:0:0:0:
64,192,57615,1,0,0:0:0:0:
192,192,57615,1,0,0:0:0:0:
320,192,57824,1,0,0:0:0:0:
448,192,57824,1,0,0:0:0:0:
192,192,58033,1,0,0:0:0:0:
448,192,58033,1,0,0:0:0:0:
64,192,58137,1,0,0:0:0:0:
192,192,58242,1,0,0:0:0:0:
320,192,58242,1,0,0:0:0:0:
320,192,58451,1,0,0:0:0:0:
448,192,58451,1,0,0:0:0:0:
64,192,58660,1,0,0:0:0:0:
192,192,58660,1,0,0:0:0:0:
64,192,58869,1,0,0:0:0:0:
320,192,58973,1,0,0:0:0:0:
448,192,58973,1,0,0:0:0:0:
64,192,59078,1,0,0:0:0:0:
448,192,59078,1,0,0:0:0:0:
320,192,59287,1,0,0:0:0:0:
64,192,59287,1,0,0:0:0:0:
192,192,59392,1,0,0:0:0:0:
320,192,59496,1,0,0:0:0:0:
448,192,59496,1,0,0:0:0:0:
192,192,59705,1,0,0:0:0:0:
64,192,59705,1,0,0:0:0:0:
448,192,59914,1,0,0:0:0:0:
192,192,59914,1,0,0:0:0:0:
320,192,60019,1,0,0:0:0:0:
192,192,60123,1,0,0:0:0:0:
64,192,60123,1,0,0:0:0:0:
320,192,60332,1,0,0:0:0:0:
448,192,60332,1,0,0:0:0:0:
64,192,60541,1,0,0:0:0:0:
192,192,60646,1,0,0:0:0:0:
320,192,60646,1,0,0:0:0:0:
448,192,60750,1,0,0:0:0:0:
64,192,60750,1,0,0:0:0:0:
192,192,60959,1,0,0:0:0:0:
448,192,60959,1,0,0:0:0:0:
192,192,61169,1,0,0:0:0:0:
64,192,61169,1,0,0:0:0:0:
320,192,61273,1,0,0:0:0:0:
448,192,61378,1,0,0:0:0:0:
64,192,61378,1,0,0:0:0:0:
320,192,61587,1,0,0:0:0:0:
448,192,61587,1,0,0:0:0:0:
192,192,61796,1,0,0:0:0:0:
320,192,61796,1,0,0:0:0:0:
64,192,62005,1,0,0:0:0:0:
448,192,62005,1,0,0:0:0:0:
192,192,62214,1,0,0:0:0:0:
320,192,62318,1,0,0:0:0:0:
448,192,62318,1,0,0:0:0:0:
64,192,62423,1,0,0:0:0:0:
192,192,62423,1,0,0:0:0:0:
320,192,62632,1,0,0:0:0:0:
448,192,62632,1,0,0:0:0:0:
64,192,62841,1,0,0:0:0:0:
192,192,62841,1,0,0:0:0:0:
320,192,62841,1,0,0:0:0:0:
192,192,63050,1,0,0:0:0:0:
448,192,63050,1,0,0:0:0:0:
320,192,63259,1,0,0:0:0:0:
448,192,63259,1,0,0:0:0:0:
64,192,63259,1,0,0:0:0:0:
320,192,63677,1,0,0:0:0:0:
448,192,63677,1,0,0:0:0:0:
192,192,63677,1,0,0:0:0:0:
64,192,63677,1,0,0:0:0:0:
64,192,63782,1,0,0:0:0:0:
448,192,63782,1,0,0:0:0:0:
192,192,63886,1,0,0:0:0:0:
320,192,63886,1,0,0:0:0:0:
64,192,63991,1,0,0:0:0:0:
320,192,63991,1,0,0:0:0:0:
64,192,64095,1,0,0:0:0:0:
192,192,64095,1,0,0:0:0:0:
448,192,64095,1,0,0:0:0:0:
320,192,64200,1,0,0:0:0:0:
448,192,64200,1,0,0:0:0:0:
192,192,64252,1,0,0:0:0:0:
320,192,64304,1,0,0:0:0:0:
64,192,64304,1,0,0:0:0:0:
64,192,64409,1,0,0:0:0:0:
192,192,64409,1,0,0:0:0:0:
192,192,64514,1,0,0:0:0:0:
320,192,64514,1,0,0:0:0:0:
448,192,64514,1,0,0:0:0:0:
320,192,64618,1,0,0:0:0:0:
448,192,64618,1,0,0:0:0:0:
64,192,64618,1,0,0:0:0:0:
320,192,64723,1,0,0:0:0:0:
448,192,64723,1,0,0:0:0:0:
192,192,64723,1,0,0:0:0:0:
320,192,64827,1,0,0:0:0:0:
448,192,64827,1,0,0:0:0:0:
64,192,64827,1,0,0:0:0:0:
320,192,64932,1,0,0:0:0:0:
448,192,64932,1,0,0:0:0:0:
64,192,64932,1,0,0:0:0:0:
64,192,65036,1,0,0:0:0:0:
192,192,65036,1,0,0:0:0:0:
192,192,65141,1,0,0:0:0:0:
448,192,65141,1,0,0:0:0:0:
320,192,65245,1,0,0:0:0:0:
448,192,65245,1,0,0:0:0:0:
64,192,65350,1,0,0:0:0:0:
320,192,65350,1,0,0:0:0:0:
192,192,65350,1,0,0:0:0:0:
64,192,65454,1,0,0:0:0:0:
448,192,65454,1,0,0:0:0:0:
192,192,65559,1,0,0:0:0:0:
448,192,65559,1,0,0:0:0:0:
64,192,65663,1,0,0:0:0:0:
320,192,65663,1,0,0:0:0:0:
64,192,65768,1,0,0:0:0:0:
192,192,65768,1,0,0:0:0:0:
448,192,65768,1,0,0:0:0:0:
320,192,65872,1,0,0:0:0:0:
448,192,65872,1,0,0:0:0:0:
320,192,65977,1,0,0:0:0:0:
64,192,65977,1,0,0:0:0:0:
448,192,66029,1,0,0:0:0:0:
64,192,66081,1,0,0:0:0:0:
192,192,66081,1,0,0:0:0:0:
320,192,66186,1,0,0:0:0:0:
448,192,66186,1,0,0:0:0:0:
192,192,66186,1,0,0:0:0:0:
64,192,66291,1,0,0:0:0:0:
448,192,66291,1,0,0:0:0:0:
192,192,66395,1,0,0:0:0:0:
448,192,66395,1,0,0:0:0:0:
320,192,66500,1,0,0:0:0:0:
64,192,66500,1,0,0:0:0:0:
64,192,66604,1,0,0:0:0:0:
448,192,66604,1,0,0:0:0:0:
192,192,66604,1,0,0:0:0:0:
64,192,66709,1,0,0:0:0:0:
320,192,66709,1,0,0:0:0:0:
448,192,66813,1,0,0:0:0:0:
192,192,66813,1,0,0:0:0:0:
64,192,66918,1,0,0:0:0:0:
448,192,66918,1,0,0:0:0:0:
64,192,67022,1,0,0:0:0:0:
192,192,67022,1,0,0:0:0:0:
320,192,67022,1,0,0:0:0:0:
192,192,67127,1,0,0:0:0:0:
448,192,67127,1,0,0:0:0:0:
320,192,67231,1,0,0:0:0:0:
448,192,67231,1,0,0:0:0:0:
64,192,67336,1,0,0:0:0:0:
320,192,67336,1,0,0:0:0:0:
64,192,67440,1,0,0:0:0:0:
192,192,67440,1,0,0:0:0:0:
448,192,67440,1,0,0:0:0:0:
448,192,67545,1,0,0:0:0:0:
320,192,67545,1,0,0:0:0:0:
64,192,67649,1,0,0:0:0:0:
448,192,67649,1,0,0:0:0:0:
192,192,67702,1,0,0:0:0:0:
320,192,67754,1,0,0:0:0:0:
448,192,67754,1,0,0:0:0:0:
192,192,67858,1,0,0:0:0:0:
64,192,67858,1,0,0:0:0:0:
320,192,67858,1,0,0:0:0:0:
64,192,67963,1,0,0:0:0:0:
192,192,67963,1,0,0:0:0:0:
448,192,67963,1,0,0:0:0:0:
64,192,68068,1,0,0:0:0:0:
192,192,68068,1,0,0:0:0:0:
320,192,68068,1,0,0:0:0:0:
64,192,68172,1,0,0:0:0:0:
192,192,68172,1,0,0:0:0:0:
448,192,68172,1,0,0:0:0:0:
64,192,68277,1,0,0:0:0:0:
192,192,68277,1,0,0:0:0:0:
320,192,68277,1,0,0:0:0:0:
64,192,68381,1,0,0:0:0:0:
448,192,68381,1,0,0:0:0:0:
448,192,68486,1,0,0:0:0:0:
192,192,68486,1,0,0:0:0:0:
64,192,68590,1,0,0:0:0:0:
192,192,68590,1,0,0:0:0:0:
448,192,68695,1,0,0:0:0:0:
64,192,68695,1,0,0:0:0:0:
320,192,68695,1,0,0:0:0:0:
64,192,68799,1,0,0:0:0:0:
192,192,68799,1,0,0:0:0:0:
192,192,68904,1,0,0:0:0:0:
448,192,68904,1,0,0:0:0:0:
320,192,69008,1,0,0:0:0:0:
448,192,69008,1,0,0:0:0:0:
320,192,69113,1,0,0:0:0:0:
192,192,69113,1,0,0:0:0:0:
64,192,69113,1,0,0:0:0:0:
64,192,69217,1,0,0:0:0:0:
448,192,69217,1,0,0:0:0:0:
320,192,69322,1,0,0:0:0:0:
448,192,69322,1,0,0:0:0:0:
192,192,69374,1,0,0:0:0:0:
64,192,69426,1,0,0:0:0:0:
320,192,69426,1,0,0:0:0:0:
64,192,69531,1,0,0:0:0:0:
192,192,69531,1,0,0:0:0:0:
448,192,69531,1,0,0:0:0:0:
320,192,69635,1,0,0:0:0:0:
448,192,69635,1,0,0:0:0:0:
64,192,69635,1,0,0:0:0:0:
320,192,69740,1,0,0:0:0:0:
448,192,69740,1,0,0:0:0:0:
192,192,69740,1,0,0:0:0:0:
320,192,69845,1,0,0:0:0:0:
448,192,69845,1,0,0:0:0:0:
192,192,69845,1,0,0:0:0:0:
320,192,69949,1,0,0:0:0:0:
448,192,69949,1,0,0:0:0:0:
64,192,69949,1,0,0:0:0:0:
320,192,70054,1,0,0:0:0:0:
448,192,70054,1,0,0:0:0:0:
64,192,70054,1,0,0:0:0:0:
192,192,70158,1,0,0:0:0:0:
320,192,70158,1,0,0:0:0:0:
448,192,70158,1,0,0:0:0:0:
64,192,70263,1,0,0:0:0:0:
320,192,70263,1,0,0:0:0:0:
192,192,70367,1,0,0:0:0:0:
64,192,70367,1,0,0:0:0:0:
448,192,70367,1,0,0:0:0:0:
320,192,70367,1,0,0:0:0:0:
192,192,70472,1,0,0:0:0:0:
448,192,70472,1,0,0:0:0:0:
320,192,70576,1,0,0:0:0:0:
448,192,70576,1,0,0:0:0:0:
64,192,70681,1,0,0:0:0:0:
320,192,70681,1,0,0:0:0:0:
64,192,70785,1,0,0:0:0:0:
192,192,70785,1,0,0:0:0:0:
448,192,70785,1,0,0:0:0:0:
192,192,70890,1,0,0:0:0:0:
320,192,70890,1,0,0:0:0:0:
64,192,70994,1,0,0:0:0:0:
320,192,70994,1,0,0:0:0:0:
192,192,71047,1,0,0:0:0:0:
320,192,71099,1,0,0:0:0:0:
448,192,71099,1,0,0:0:0:0:
192,192,71203,1,0,0:0:0:0:
64,192,71203,1,0,0:0:0:0:
448,192,71203,1,0,0:0:0:0:
64,192,71308,1,0,0:0:0:0:
192,192,71308,1,0,0:0:0:0:
320,192,71308,1,0,0:0:0:0:
64,192,71412,1,0,0:0:0:0:
192,192,71412,1,0,0:0:0:0:
448,192,71412,1,0,0:0:0:0:
64,192,71517,1,0,0:0:0:0:
192,192,71517,1,0,0:0:0:0:
320,192,71517,1,0,0:0:0:0:
64,192,71622,1,0,0:0:0:0:
192,192,71622,1,0,0:0:0:0:
448,192,71622,1,0,0:0:0:0:
64,192,71726,1,0,0:0:0:0:
192,192,71726,1,0,0:0:0:0:
320,192,71831,1,0,0:0:0:0:
448,192,71831,1,0,0:0:0:0:
192,192,71935,1,0,0:0:0:0:
448,192,71935,1,0,0:0:0:0:
320,192,72040,1,0,0:0:0:0:
448,192,72040,1,0,0:0:0:0:
64,192,72040,1,0,0:0:0:0:
64,192,72144,1,0,0:0:0:0:
192,192,72144,1,0,0:0:0:0:
192,192,72249,1,0,0:0:0:0:
448,192,72249,1,0,0:0:0:0:
448,192,72353,1,0,0:0:0:0:
320,192,72353,1,0,0:0:0:0:
64,192,72458,1,0,0:0:0:0:
320,192,72458,1,0,0:0:0:0:
448,192,72458,1,0,0:0:0:0:
192,192,72562,1,0,0:0:0:0:
64,192,72562,1,0,0:0:0:0:
192,192,72667,1,0,0:0:0:0:
448,192,72667,1,0,0:0:0:0:
320,192,72771,1,0,0:0:0:0:
64,192,72771,1,0,0:0:0:0:
192,192,72824,1,0,0:0:0:0:
64,192,72876,1,0,0:0:0:0:
448,192,72876,1,0,0:0:0:0:
320,192,72876,1,0,0:0:0:0:
448,192,72980,1,0,0:0:0:0:
320,192,72980,1,0,0:0:0:0:
192,192,72980,1,0,0:0:0:0:
320,192,73085,1,0,0:0:0:0:
448,192,73085,1,0,0:0:0:0:
64,192,73085,1,0,0:0:0:0:
320,192,73189,1,0,0:0:0:0:
448,192,73189,1,0,0:0:0:0:
192,192,73189,1,0,0:0:0:0:
320,192,73294,1,0,0:0:0:0:
448,192,73294,1,0,0:0:0:0:
64,192,73294,1,0,0:0:0:0:
320,192,73399,1,0,0:0:0:0:
448,192,73399,1,0,0:0:0:0:
64,192,73399,1,0,0:0:0:0:
320,192,73503,1,0,0:0:0:0:
448,192,73503,1,0,0:0:0:0:
192,192,73503,1,0,0:0:0:0:
64,192,73608,1,0,0:0:0:0:
192,192,73608,1,0,0:0:0:0:
64,192,73712,1,0,0:0:0:0:
320,192,73712,1,0,0:0:0:0:
448,192,73712,1,0,0:0:0:0:
192,192,73817,1,0,0:0:0:0:
448,192,73817,1,0,0:0:0:0:
320,192,73921,1,0,0:0:0:0:
64,192,73921,1,0,0:0:0:0:
192,192,74026,1,0,0:0:0:0:
64,192,74026,1,0,0:0:0:0:
192,192,74130,1,0,0:0:0:0:
448,192,74130,1,0,0:0:0:0:
320,192,74130,1,0,0:0:0:0:
64,192,74235,1,0,0:0:0:0:
448,192,74235,1,0,0:0:0:0:
64,192,74339,1,0,0:0:0:0:
192,192,74339,1,0,0:0:0:0:
320,192,74444,1,0,0:0:0:0:
192,192,74496,1,0,0:0:0:0:
64,192,74548,1,0,0:0:0:0:
320,192,74548,1,0,0:0:0:0:
448,192,74548,1,0,0:0:0:0:
64,192,74653,1,0,0:0:0:0:
192,192,74653,1,0,0:0:0:0:
320,192,74653,1,0,0:0:0:0:
64,192,74757,1,0,0:0:0:0:
192,192,74757,1,0,0:0:0:0:
448,192,74757,1,0,0:0:0:0:
192,192,74862,1,0,0:0:0:0:
64,192,74862,1,0,0:0:0:0:
448,192,74862,1,0,0:0:0:0:
64,192,74966,1,0,0:0:0:0:
192,192,74966,1,0,0:0:0:0:
320,192,74966,1,0,0:0:0:0:
64,192,75071,1,0,0:0:0:0:
192,192,75071,1,0,0:0:0:0:
320,192,75071,1,0,0:0:0:0:
64,192,75176,1,0,0:0:0:0:
192,192,75176,1,0,0:0:0:0:
448,192,75176,1,0,0:0:0:0:
320,192,75280,1,0,0:0:0:0:
448,192,75385,1,0,0:0:0:0:
192,192,75385,1,0,0:0:0:0:
64,192,75385,1,0,0:0:0:0:
64,192,75489,1,0,0:0:0:0:
448,192,75489,1,0,0:0:0:0:
192,192,75489,1,0,0:0:0:0:
64,192,75594,1,0,0:0:0:0:
320,192,75594,1,0,0:0:0:0:
448,192,75594,1,0,0:0:0:0:
64,192,75698,1,0,0:0:0:0:
192,192,75698,1,0,0:0:0:0:
320,192,75698,1,0,0:0:0:0:
192,192,75803,1,0,0:0:0:0:
320,192,75803,1,0,0:0:0:0:
448,192,75803,1,0,0:0:0:0:
448,192,75907,5,0,0:0:0:0:
64,192,75907,1,0,0:0:0:0:
320,192,75907,1,0,0:0:0:0:
192,192,76012,1,0,0:0:0:0:
64,192,76012,1,0,0:0:0:0:
448,192,76012,1,0,0:0:0:0:
320,192,76064,1,0,0:0:0:0:
192,192,76116,1,0,0:0:0:0:
64,192,76116,1,0,0:0:0:0:
448,192,76116,1,0,0:0:0:0:
192,192,76221,1,0,0:0:0:0:
448,192,76221,1,0,0:0:0:0:
320,192,76221,1,0,0:0:0:0:
64,192,76325,1,0,0:0:0:0:
192,192,76325,1,0,0:0:0:0:
64,192,76430,1,0,0:0:0:0:
192,192,76430,1,0,0:0:0:0:
320,192,76430,1,0,0:0:0:0:
64,192,76534,1,0,0:0:0:0:
192,192,76534,1,0,0:0:0:0:
64,192,76639,1,0,0:0:0:0:
192,192,76639,1,0,0:0:0:0:
448,192,76639,1,0,0:0:0:0:
64,192,76743,1,0,0:0:0:0:
192,192,76743,1,0,0:0:0:0:
64,192,76848,1,0,0:0:0:0:
192,192,76848,1,0,0:0:0:0:
320,192,76848,1,0,0:0:0:0:
64,192,76953,1,0,0:0:0:0:
192,192,76953,1,0,0:0:0:0:
320,192,77057,5,0,0:0:0:0:
448,192,77057,1,0,0:0:0:0:
64,192,77057,1,0,0:0:0:0:
192,192,77057,1,0,0:0:0:0:
448,192,77371,1,0,0:0:0:0:
64,192,77475,1,0,0:0:0:0:
192,192,77684,1,0,0:0:0:0:
448,192,77684,1,0,0:0:0:0:
64,192,77893,1,0,0:0:0:0:
320,192,77893,1,0,0:0:0:0:
192,192,78102,1,0,0:0:0:0:
448,192,78207,1,0,0:0:0:0:
64,192,78311,1,0,0:0:0:0:
192,192,78520,1,0,0:0:0:0:
448,192,78520,1,0,0:0:0:0:
64,192,78730,1,0,0:0:0:0:
192,192,78939,1,0,0:0:0:0:
320,192,78939,1,0,0:0:0:0:
64,192,79148,1,0,0:0:0:0:
320,192,79252,1,0,0:0:0:0:
192,192,79357,1,0,0:0:0:0:
64,192,79566,1,0,0:0:0:0:
448,192,79566,1,0,0:0:0:0:
192,192,79775,1,0,0:0:0:0:
320,192,79879,1,0,0:0:0:0:
64,192,79984,1,0,0:0:0:0:
192,192,80193,1,0,0:0:0:0:
448,192,80193,1,0,0:0:0:0:
64,192,80402,1,0,0:0:0:0:
448,192,80402,1,0,0:0:0:0:
320,192,80402,1,0,0:0:0:0:
192,192,80611,1,0,0:0:0:0:
448,192,80716,1,0,0:0:0:0:
64,192,80820,1,0,0:0:0:0:
192,192,81029,1,0,0:0:0:0:
320,192,81029,1,0,0:0:0:0:
64,192,81238,1,0,0:0:0:0:
448,192,81238,1,0,0:0:0:0:
192,192,81447,1,0,0:0:0:0:
320,192,81552,1,0,0:0:0:0:
64,192,81656,1,0,0:0:0:0:
192,192,81865,1,0,0:0:0:0:
448,192,81865,1,0,0:0:0:0:
64,192,82074,1,0,0:0:0:0:
192,192,82284,1,0,0:0:0:0:
448,192,82284,1,0,0:0:0:0:
64,192,82493,1,0,0:0:0:0:
320,192,82597,1,0,0:0:0:0:
192,192,82702,1,0,0:0:0:0:
64,192,82911,1,0,0:0:0:0:
320,192,82911,1,0,0:0:0:0:
192,192,83120,1,0,0:0:0:0:
448,192,83224,1,0,0:0:0:0:
64,192,83329,1,0,0:0:0:0:
192,192,83538,1,0,0:0:0:0:
320,192,83538,1,0,0:0:0:0:
64,192,83747,1,0,0:0:0:0:
448,192,83747,1,0,0:0:0:0:
320,192,83747,1,0,0:0:0:0:
192,192,83956,1,0,0:0:0:0:
448,192,83956,1,0,0:0:0:0:
320,192,84061,1,0,0:0:0:0:
64,192,84061,1,0,0:0:0:0:
192,192,84165,1,0,0:0:0:0:
64,192,84165,1,0,0:0:0:0:
448,192,84165,1,0,0:0:0:0:
320,192,84374,1,0,0:0:0:0:
448,192,84374,1,0,0:0:0:0:
192,192,84583,1,0,0:0:0:0:
64,192,84583,1,0,0:0:0:0:
64,192,84688,1,0,0:0:0:0:
448,192,84688,1,0,0:0:0:0:
192,192,84792,1,0,0:0:0:0:
320,192,84792,1,0,0:0:0:0:
448,192,84792,1,0,0:0:0:0:
192,192,84897,1,0,0:0:0:0:
64,192,84897,1,0,0:0:0:0:
320,192,85001,1,0,0:0:0:0:
64,192,85001,1,0,0:0:0:0:
448,192,85001,1,0,0:0:0:0:
192,192,85210,1,0,0:0:0:0:
64,192,85210,1,0,0:0:0:0:
320,192,85419,1,0,0:0:0:0:
448,192,85419,1,0,0:0:0:0:
64,192,85628,1,0,0:0:0:0:
320,192,85628,1,0,0:0:0:0:
64,192,85838,1,0,0:0:0:0:
192,192,85838,1,0,0:0:0:0:
448,192,85838,1,0,0:0:0:0:
320,192,85942,1,0,0:0:0:0:
448,192,85942,1,0,0:0:0:0:
64,192,86047,1,0,0:0:0:0:
192,192,86047,1,0,0:0:0:0:
192,192,86151,1,0,0:0:0:0:
64,192,86151,1,0,0:0:0:0:
64,192,86256,1,0,0:0:0:0:
320,192,86256,1,0,0:0:0:0:
448,192,86256,1,0,0:0:0:0:
320,192,86465,1,0,0:0:0:0:
448,192,86465,1,0,0:0:0:0:
64,192,86569,1,0,0:0:0:0:
192,192,86569,1,0,0:0:0:0:
320,192,86674,1,0,0:0:0:0:
448,192,86674,1,0,0:0:0:0:
192,192,86883,1,0,0:0:0:0:
64,192,86883,1,0,0:0:0:0:
448,192,86883,1,0,0:0:0:0:
320,192,87092,1,0,0:0:0:0:
448,192,87092,1,0,0:0:0:0:
64,192,87092,1,0,0:0:0:0:
192,192,87301,1,0,0:0:0:0:
64,192,87301,1,0,0:0:0:0:
448,192,87405,1,0,0:0:0:0:
320,192,87510,1,0,0:0:0:0:
448,192,87510,1,0,0:0:0:0:
192,192,87510,1,0,0:0:0:0:
192,192,87719,1,0,0:0:0:0:
64,192,87719,1,0,0:0:0:0:
320,192,87928,1,0,0:0:0:0:
448,192,87928,1,0,0:0:0:0:
64,192,87928,1,0,0:0:0:0:
192,192,88033,1,0,0:0:0:0:
448,192,88033,1,0,0:0:0:0:
320,192,88137,1,0,0:0:0:0:
192,192,88137,1,0,0:0:0:0:
64,192,88137,1,0,0:0:0:0:
64,192,88242,1,0,0:0:0:0:
320,192,88346,1,0,0:0:0:0:
448,192,88346,1,0,0:0:0:0:
192,192,88346,1,0,0:0:0:0:
64,192,88555,1,0,0:0:0:0:
320,192,88555,1,0,0:0:0:0:
192,192,88764,1,0,0:0:0:0:
64,192,88764,1,0,0:0:0:0:
448,192,88764,1,0,0:0:0:0:
320,192,88973,1,0,0:0:0:0:
448,192,88973,1,0,0:0:0:0:
320,192,89182,1,0,0:0:0:0:
448,192,89182,1,0,0:0:0:0:
192,192,89287,1,0,0:0:0:0:
64,192,89287,1,0,0:0:0:0:
320,192,89392,1,0,0:0:0:0:
448,192,89392,1,0,0:0:0:0:
64,192,89496,1,0,0:0:0:0:
192,192,89601,1,0,0:0:0:0:
64,192,89601,1,0,0:0:0:0:
320,192,89601,1,0,0:0:0:0:
448,192,89810,1,0,0:0:0:0:
320,192,89810,1,0,0:0:0:0:
64,192,89914,1,0,0:0:0:0:
192,192,89914,1,0,0:0:0:0:
320,192,90019,1,0,0:0:0:0:
448,192,90019,1,0,0:0:0:0:
192,192,90071,1,0,0:0:0:0:
64,192,90071,1,0,0:0:0:0:
320,192,90123,1,0,0:0:0:0:
448,192,90123,1,0,0:0:0:0:
192,192,90176,1,0,0:0:0:0:
64,192,90176,1,0,0:0:0:0:
448,192,90228,1,0,0:0:0:0:
320,192,90228,1,0,0:0:0:0:
192,192,90280,1,0,0:0:0:0:
64,192,90280,1,0,0:0:0:0:
320,192,90332,1,0,0:0:0:0:
448,192,90332,1,0,0:0:0:0:
192,192,90385,1,0,0:0:0:0:
64,192,90385,1,0,0:0:0:0:
320,192,90437,1,0,0:0:0:0:
448,192,90437,1,0,0:0:0:0:
192,192,90489,1,0,0:0:0:0:
64,192,90541,1,0,0:0:0:0:
448,192,90541,1,0,0:0:0:0:
320,192,90594,1,0,0:0:0:0:
192,192,90646,1,0,0:0:0:0:
64,192,90646,1,0,0:0:0:0:
320,192,90698,1,0,0:0:0:0:
448,192,90750,1,0,0:0:0:0:
64,192,90803,1,0,0:0:0:0:
192,192,90855,1,0,0:0:0:0:
320,192,90855,1,0,0:0:0:0:
448,192,90907,1,0,0:0:0:0:
64,192,90959,1,0,0:0:0:0:
192,192,91012,1,0,0:0:0:0:
320,192,91064,1,0,0:0:0:0:
448,192,91064,1,0,0:0:0:0:
64,192,91116,1,0,0:0:0:0:
448,192,91169,1,0,0:0:0:0:
320,192,91221,1,0,0:0:0:0:
192,192,91273,1,0,0:0:0:0:
64,192,91273,1,0,0:0:0:0:
448,192,91325,1,0,0:0:0:0:
192,192,91378,1,0,0:0:0:0:
320,192,91430,1,0,0:0:0:0:
448,192,91482,1,0,0:0:0:0:
64,192,91482,1,0,0:0:0:0:
192,192,91534,1,0,0:0:0:0:
448,192,91587,1,0,0:0:0:0:
320,192,91639,1,0,0:0:0:0:
192,192,91691,1,0,0:0:0:0:
64,192,91691,1,0,0:0:0:0:
448,192,91743,1,0,0:0:0:0:
320,192,91796,1,0,0:0:0:0:
192,192,91848,1,0,0:0:0:0:
64,192,91900,1,0,0:0:0:0:
448,192,91900,1,0,0:0:0:0:
320,192,91953,1,0,0:0:0:0:
192,192,92005,1,0,0:0:0:0:
64,192,92057,1,0,0:0:0:0:
320,192,92109,1,0,0:0:0:0:
448,192,92109,1,0,0:0:0:0:
192,192,92162,1,0,0:0:0:0:
64,192,92214,1,0,0:0:0:0:
320,192,92266,1,0,0:0:0:0:
448,192,92318,1,0,0:0:0:0:
64,192,92318,1,0,0:0:0:0:
192,192,92371,1,0,0:0:0:0:
320,192,92423,1,0,0:0:0:0:
64,192,92475,1,0,0:0:0:0:
192,192,92527,1,0,0:0:0:0:
448,192,92527,1,0,0:0:0:0:
320,192,92580,1,0,0:0:0:0:
192,192,92632,1,0,0:0:0:0:
64,192,92684,1,0,0:0:0:0:
320,192,92737,1,0,0:0:0:0:
448,192,92737,1,0,0:0:0:0:
192,192,92789,1,0,0:0:0:0:
64,192,92841,1,0,0:0:0:0:
448,192,92893,1,0,0:0:0:0:
320,192,92946,1,0,0:0:0:0:
192,192,92946,1,0,0:0:0:0:
64,192,92998,1,0,0:0:0:0:
320,192,93050,1,0,0:0:0:0:
448,192,93102,1,0,0:0:0:0:
192,192,93155,1,0,0:0:0:0:
64,192,93155,1,0,0:0:0:0:
320,192,93207,1,0,0:0:0:0:
448,192,93259,1,0,0:0:0:0:
64,192,93311,1,0,0:0:0:0:
320,192,93364,1,0,0:0:0:0:
448,192,93364,1,0,0:0:0:0:
192,192,93416,1,0,0:0:0:0:
64,192,93468,1,0,0:0:0:0:
448,192,93468,1,0,0:0:0:0:
320,192,93520,1,0,0:0:0:0:
192,192,93573,1,0,0:0:0:0:
64,192,93573,1,0,0:0:0:0:
64,192,93677,1,0,0:0:0:0:
192,192,93677,1,0,0:0:0:0:
64,192,93782,1,0,0:0:0:0:
192,192,93782,1,0,0:0:0:0:
448,192,93782,1,0,0:0:0:0:
320,192,93834,1,0,0:0:0:0:
192,192,93886,1,0,0:0:0:0:
64,192,93939,1,0,0:0:0:0:
320,192,93991,1,0,0:0:0:0:
448,192,93991,1,0,0:0:0:0:
192,192,94043,1,0,0:0:0:0:
64,192,94095,1,0,0:0:0:0:
448,192,94148,1,0,0:0:0:0:
320,192,94200,1,0,0:0:0:0:
192,192,94200,1,0,0:0:0:0:
64,192,94252,1,0,0:0:0:0:
320,192,94304,1,0,0:0:0:0:
448,192,94357,1,0,0:0:0:0:
64,192,94409,1,0,0:0:0:0:
192,192,94409,1,0,0:0:0:0:
320,192,94461,1,0,0:0:0:0:
448,192,94514,1,0,0:0:0:0:
64,192,94566,1,0,0:0:0:0:
192,192,94618,1,0,0:0:0:0:
320,192,94618,1,0,0:0:0:0:
448,192,94670,1,0,0:0:0:0:
192,192,94723,1,0,0:0:0:0:
64,192,94775,1,0,0:0:0:0:
320,192,94827,1,0,0:0:0:0:
448,192,94827,1,0,0:0:0:0:
192,192,94879,1,0,0:0:0:0:
64,192,94932,1,0,0:0:0:0:
448,192,94984,1,0,0:0:0:0:
320,192,95036,1,0,0:0:0:0:
64,192,95036,1,0,0:0:0:0:
192,192,95088,1,0,0:0:0:0:
320,192,95141,1,0,0:0:0:0:
448,192,95193,1,0,0:0:0:0:
64,192,95193,1,0,0:0:0:0:
192,192,95245,1,0,0:0:0:0:
320,192,95297,1,0,0:0:0:0:
448,192,95350,1,0,0:0:0:0:
64,192,95350,1,0,0:0:0:0:
192,192,95402,1,0,0:0:0:0:
320,192,95454,1,0,0:0:0:0:
448,192,95454,1,0,0:0:0:0:
64,192,95507,1,0,0:0:0:0:
192,192,95559,1,0,0:0:0:0:
320,192,95611,1,0,0:0:0:0:
64,192,95663,1,0,0:0:0:0:
192,192,95663,1,0,0:0:0:0:
448,192,95716,1,0,0:0:0:0:
320,192,95768,1,0,0:0:0:0:
192,192,95820,1,0,0:0:0:0:
320,192,95872,1,0,0:0:0:0:
448,192,95872,1,0,0:0:0:0:
64,192,95925,1,0,0:0:0:0:
448,192,95977,1,0,0:0:0:0:
320,192,96029,1,0,0:0:0:0:
192,192,96081,1,0,0:0:0:0:
64,192,96081,1,0,0:0:0:0:
448,192,96134,1,0,0:0:0:0:
64,192,96186,1,0,0:0:0:0:
192,192,96238,1,0,0:0:0:0:
320,192,96291,1,0,0:0:0:0:
448,192,96291,1,0,0:0:0:0:
64,192,96343,1,0,0:0:0:0:
448,192,96395,1,0,0:0:0:0:
192,192,96447,1,0,0:0:0:0:
320,192,96500,1,0,0:0:0:0:
64,192,96500,1,0,0:0:0:0:
448,192,96552,1,0,0:0:0:0:
192,192,96604,1,0,0:0:0:0:
64,192,96656,1,0,0:0:0:0:
320,192,96709,1,0,0:0:0:0:
448,192,96709,1,0,0:0:0:0:
192,192,96761,1,0,0:0:0:0:
64,192,96813,1,0,0:0:0:0:
448,192,96813,1,0,0:0:0:0:
320,192,96865,1,0,0:0:0:0:
192,192,96918,1,0,0:0:0:0:
64,192,96918,1,0,0:0:0:0:
448,192,97022,1,0,0:0:0:0:
64,192,97022,1,0,0:0:0:0:
192,192,97127,1,0,0:0:0:0:
448,192,97127,1,0,0:0:0:0:
320,192,97127,1,0,0:0:0:0:
64,192,97231,1,0,0:0:0:0:
320,192,97231,1,0,0:0:0:0:
192,192,97336,1,0,0:0:0:0:
64,192,97336,1,0,0:0:0:0:
448,192,97440,1,0,0:0:0:0:
192,192,97440,1,0,0:0:0:0:
320,192,97545,1,0,0:0:0:0:
448,192,97545,1,0,0:0:0:0:
64,192,97649,1,0,0:0:0:0:
320,192,97649,1,0,0:0:0:0:
64,192,97754,1,0,0:0:0:0:
192,192,97754,1,0,0:0:0:0:
192,192,97858,1,0,0:0:0:0:
448,192,97858,1,0,0:0:0:0:
320,192,97963,1,0,0:0:0:0:
448,192,97963,1,0,0:0:0:0:
320,192,98068,1,0,0:0:0:0:
448,192,98068,1,0,0:0:0:0:
64,192,98068,1,0,0:0:0:0:
64,192,98172,1,0,0:0:0:0:
192,192,98172,1,0,0:0:0:0:
192,192,98277,1,0,0:0:0:0:
448,192,98277,1,0,0:0:0:0:
320,192,98329,1,0,0:0:0:0:
448,192,98381,1,0,0:0:0:0:
64,192,98381,1,0,0:0:0:0:
192,192,98433,1,0,0:0:0:0:
320,192,98486,1,0,0:0:0:0:
448,192,98538,1,0,0:0:0:0:
64,192,98538,1,0,0:0:0:0:
192,192,98590,1,0,0:0:0:0:
320,192,98642,1,0,0:0:0:0:
448,192,98695,1,0,0:0:0:0:
64,192,98695,1,0,0:0:0:0:
192,192,98747,1,0,0:0:0:0:
320,192,98799,1,0,0:0:0:0:
448,192,98799,1,0,0:0:0:0:
64,192,98904,1,0,0:0:0:0:
320,192,98904,1,0,0:0:0:0:
64,192,99008,1,0,0:0:0:0:
448,192,99008,1,0,0:0:0:0:
192,192,99008,1,0,0:0:0:0:
192,192,99113,1,0,0:0:0:0:
448,192,99113,1,0,0:0:0:0:
320,192,99217,1,0,0:0:0:0:
448,192,99217,1,0,0:0:0:0:
320,192,99322,1,0,0:0:0:0:
64,192,99322,1,0,0:0:0:0:
64,192,99426,1,0,0:0:0:0:
192,192,99426,1,0,0:0:0:0:
192,192,99531,1,0,0:0:0:0:
448,192,99531,1,0,0:0:0:0:
320,192,99635,1,0,0:0:0:0:
448,192,99635,1,0,0:0:0:0:
192,192,99688,1,0,0:0:0:0:
320,192,99740,1,0,0:0:0:0:
64,192,99740,1,0,0:0:0:0:
64,192,99845,1,0,0:0:0:0:
192,192,99845,1,0,0:0:0:0:
320,192,99897,1,0,0:0:0:0:
448,192,99949,1,0,0:0:0:0:
192,192,99949,1,0,0:0:0:0:
320,192,100054,1,0,0:0:0:0:
448,192,100054,1,0,0:0:0:0:
192,192,100106,1,0,0:0:0:0:
64,192,100158,1,0,0:0:0:0:
448,192,100158,1,0,0:0:0:0:
320,192,100210,1,0,0:0:0:0:
192,192,100263,1,0,0:0:0:0:
64,192,100263,1,0,0:0:0:0:
448,192,100315,1,0,0:0:0:0:
64,192,100367,1,0,0:0:0:0:
320,192,100367,1,0,0:0:0:0:
192,192,100419,1,0,0:0:0:0:
320,192,100472,1,0,0:0:0:0:
448,192,100472,1,0,0:0:0:0:
64,192,100576,1,0,0:0:0:0:
448,192,100576,1,0,0:0:0:0:
192,192,100681,1,0,0:0:0:0:
320,192,100681,1,0,0:0:0:0:
320,192,100785,1,0,0:0:0:0:
448,192,100785,1,0,0:0:0:0:
64,192,100890,1,0,0:0:0:0:
320,192,100890,1,0,0:0:0:0:
192,192,100890,1,0,0:0:0:0:
192,192,100994,1,0,0:0:0:0:
448,192,100994,1,0,0:0:0:0:
320,192,101099,1,0,0:0:0:0:
448,192,101099,1,0,0:0:0:0:
320,192,101203,1,0,0:0:0:0:
64,192,101203,1,0,0:0:0:0:
64,192,101308,1,0,0:0:0:0:
192,192,101308,1,0,0:0:0:0:
192,192,101412,1,0,0:0:0:0:
64,192,101412,1,0,0:0:0:0:
448,192,101412,1,0,0:0:0:0:
320,192,101517,1,0,0:0:0:0:
448,192,101517,1,0,0:0:0:0:
192,192,101517,1,0,0:0:0:0:
320,192,101622,1,0,0:0:0:0:
64,192,101622,1,0,0:0:0:0:
64,192,101726,1,0,0:0:0:0:
192,192,101726,1,0,0:0:0:0:
320,192,101778,1,0,0:0:0:0:
448,192,101831,1,0,0:0:0:0:
64,192,101831,1,0,0:0:0:0:
192,192,101883,1,0,0:0:0:0:
320,192,101935,1,0,0:0:0:0:
448,192,101987,1,0,0:0:0:0:
64,192,101987,1,0,0:0:0:0:
192,192,102040,1,0,0:0:0:0:
320,192,102092,1,0,0:0:0:0:
448,192,102144,1,0,0:0:0:0:
64,192,102144,1,0,0:0:0:0:
192,192,102144,1,0,0:0:0:0:
320,192,102196,1,0,0:0:0:0:
192,192,102249,1,0,0:0:0:0:
64,192,102301,1,0,0:0:0:0:
448,192,102353,1,0,0:0:0:0:
320,192,102405,1,0,0:0:0:0:
192,192,102458,1,0,0:0:0:0:
64,192,102510,1,0,0:0:0:0:
320,192,102562,1,0,0:0:0:0:
448,192,102562,1,0,0:0:0:0:
192,192,102562,1,0,0:0:0:0:
64,192,102615,1,0,0:0:0:0:
448,192,102667,1,0,0:0:0:0:
320,192,102719,1,0,0:0:0:0:
192,192,102771,1,0,0:0:0:0:
64,192,102771,1,0,0:0:0:0:
448,192,102771,1,0,0:0:0:0:
320,192,102824,1,0,0:0:0:0:
192,192,102876,1,0,0:0:0:0:
64,192,102928,1,0,0:0:0:0:
448,192,102980,1,0,0:0:0:0:
320,192,102980,1,0,0:0:0:0:
64,192,103085,1,0,0:0:0:0:
448,192,103085,1,0,0:0:0:0:
448,192,103189,1,0,0:0:0:0:
192,192,103189,1,0,0:0:0:0:
320,192,103294,1,0,0:0:0:0:
448,192,103294,1,0,0:0:0:0:
64,192,103399,1,0,0:0:0:0:
192,192,103399,1,0,0:0:0:0:
320,192,103451,1,0,0:0:0:0:
448,192,103503,1,0,0:0:0:0:
64,192,103503,1,0,0:0:0:0:
192,192,103555,1,0,0:0:0:0:
320,192,103608,1,0,0:0:0:0:
448,192,103608,1,0,0:0:0:0:
64,192,103660,1,0,0:0:0:0:
192,192,103712,1,0,0:0:0:0:
320,192,103764,1,0,0:0:0:0:
448,192,103817,1,0,0:0:0:0:
192,192,103817,1,0,0:0:0:0:
64,192,103817,1,0,0:0:0:0:
64,192,107162,1,0,0:0:0:0:
64,192,107371,1,0,0:0:0:0:
64,192,107475,1,0,0:0:0:0:
64,192,107684,1,0,0:0:0:0:
64,192,107789,1,0,0:0:0:0:
448,192,108834,1,0,0:0:0:0:
448,192,109043,1,0,0:0:0:0:
448,192,109148,1,0,0:0:0:0:
448,192,109357,1,0,0:0:0:0:
448,192,109461,1,0,0:0:0:0:
64,192,110088,1,0,0:0:0:0:
192,192,110088,1,0,0:0:0:0:
320,192,110507,1,0,0:0:0:0:
448,192,110507,1,0,0:0:0:0:
64,192,110507,1,0,0:0:0:0:
320,192,110716,1,0,0:0:0:0:
448,192,110716,1,0,0:0:0:0:
192,192,110820,1,0,0:0:0:0:
320,192,110820,1,0,0:0:0:0:
64,192,111029,1,0,0:0:0:0:
192,192,111029,1,0,0:0:0:0:
64,192,111134,1,0,0:0:0:0:
320,192,111134,1,0,0:0:0:0:
320,192,111343,1,0,0:0:0:0:
448,192,111343,1,0,0:0:0:0:
192,192,111343,1,0,0:0:0:0:
320,192,111447,1,0,0:0:0:0:
448,192,111447,1,0,0:0:0:0:
64,192,111656,1,0,0:0:0:0:
192,192,111656,1,0,0:0:0:0:
192,192,111761,1,0,0:0:0:0:
64,192,111761,1,0,0:0:0:0:
320,192,111761,1,0,0:0:0:0:
448,192,111970,1,0,0:0:0:0:
320,192,111970,1,0,0:0:0:0:
64,192,111970,1,0,0:0:0:0:
64,192,112074,1,0,0:0:0:0:
192,192,112074,1,0,0:0:0:0:
192,192,112284,1,0,0:0:0:0:
448,192,112284,1,0,0:0:0:0:
320,192,112388,1,0,0:0:0:0:
448,192,112388,1,0,0:0:0:0:
64,192,112388,1,0,0:0:0:0:
64,192,112597,1,0,0:0:0:0:
192,192,112597,1,0,0:0:0:0:
320,192,112597,1,0,0:0:0:0:
320,192,112806,1,0,0:0:0:0:
448,192,112806,1,0,0:0:0:0:
64,192,112806,1,0,0:0:0:0:
192,192,112911,1,0,0:0:0:0:
64,192,112911,1,0,0:0:0:0:
64,192,113015,1,0,0:0:0:0:
320,192,113015,1,0,0:0:0:0:
448,192,113015,1,0,0:0:0:0:
192,192,113015,1,0,0:0:0:0:
320,192,113224,1,0,0:0:0:0:
448,192,113224,1,0,0:0:0:0:
192,192,113433,1,0,0:0:0:0:
64,192,113433,1,0,0:0:0:0:
448,192,113433,1,0,0:0:0:0:
64,192,113642,1,0,0:0:0:0:
192,192,113642,1,0,0:0:0:0:
64,192,113747,1,0,0:0:0:0:
320,192,113747,1,0,0:0:0:0:
448,192,113747,1,0,0:0:0:0:
320,192,113956,1,0,0:0:0:0:
448,192,113956,1,0,0:0:0:0:
320,192,114061,1,0,0:0:0:0:
64,192,114061,1,0,0:0:0:0:
448,192,114061,1,0,0:0:0:0:
192,192,114270,1,0,0:0:0:0:
64,192,114270,1,0,0:0:0:0:
320,192,114270,1,0,0:0:0:0:
64,192,114374,1,0,0:0:0:0:
192,192,114374,1,0,0:0:0:0:
320,192,114583,1,0,0:0:0:0:
448,192,114583,1,0,0:0:0:0:
448,192,114688,1,0,0:0:0:0:
320,192,114688,1,0,0:0:0:0:
64,192,114688,1,0,0:0:0:0:
192,192,114688,1,0,0:0:0:0:
192,192,114897,1,0,0:0:0:0:
64,192,114897,1,0,0:0:0:0:
448,192,114897,1,0,0:0:0:0:
320,192,115106,1,0,0:0:0:0:
448,192,115106,1,0,0:0:0:0:
192,192,115210,1,0,0:0:0:0:
64,192,115210,1,0,0:0:0:0:
448,192,115210,1,0,0:0:0:0:
64,192,115419,1,0,0:0:0:0:
320,192,115419,1,0,0:0:0:0:
64,192,115524,1,0,0:0:0:0:
192,192,115524,1,0,0:0:0:0:
448,192,115524,1,0,0:0:0:0:
320,192,115733,1,0,0:0:0:0:
448,192,115733,1,0,0:0:0:0:
320,192,115838,1,0,0:0:0:0:
448,192,115838,1,0,0:0:0:0:
192,192,115838,1,0,0:0:0:0:
64,192,116047,1,0,0:0:0:0:
448,192,116047,1,0,0:0:0:0:
64,192,116151,1,0,0:0:0:0:
192,192,116151,1,0,0:0:0:0:
320,192,116151,1,0,0:0:0:0:
320,192,116360,1,0,0:0:0:0:
448,192,116360,1,0,0:0:0:0:
192,192,116360,1,0,0:0:0:0:
64,192,116360,1,0,0:0:0:0:
320,192,116569,1,0,0:0:0:0:
448,192,116569,1,0,0:0:0:0:
192,192,116569,1,0,0:0:0:0:
320,192,116674,1,0,0:0:0:0:
448,192,116674,1,0,0:0:0:0:
448,192,116778,1,0,0:0:0:0:
192,192,116883,1,0,0:0:0:0:
64,192,116883,1,0,0:0:0:0:
64,192,116987,1,0,0:0:0:0:
192,192,116987,1,0,0:0:0:0:
320,192,116987,1,0,0:0:0:0:
64,192,117092,1,0,0:0:0:0:
192,192,117092,1,0,0:0:0:0:
320,192,117092,1,0,0:0:0:0:
320,192,117196,1,0,0:0:0:0:
448,192,117196,1,0,0:0:0:0:
64,192,117196,1,0,0:0:0:0:
448,192,117301,1,0,0:0:0:0:
192,192,117301,1,0,0:0:0:0:
64,192,117301,1,0,0:0:0:0:
448,192,117405,1,0,0:0:0:0:
448,192,117510,1,0,0:0:0:0:
64,192,117510,1,0,0:0:0:0:
448,192,117615,1,0,0:0:0:0:
192,192,117615,1,0,0:0:0:0:
64,192,117615,1,0,0:0:0:0:
448,192,117719,1,0,0:0:0:0:
448,192,117824,1,0,0:0:0:0:
192,192,117824,1,0,0:0:0:0:
448,192,117928,1,0,0:0:0:0:
320,192,117928,1,0,0:0:0:0:
448,192,118033,1,0,0:0:0:0:
64,192,118033,1,0,0:0:0:0:
192,192,118033,1,0,0:0:0:0:
64,192,118137,1,0,0:0:0:0:
64,192,118242,1,0,0:0:0:0:
192,192,118242,1,0,0:0:0:0:
64,192,118346,1,0,0:0:0:0:
64,192,118451,1,0,0:0:0:0:
320,192,118451,1,0,0:0:0:0:
448,192,118451,1,0,0:0:0:0:
320,192,118555,1,0,0:0:0:0:
192,192,118555,1,0,0:0:0:0:
320,192,118660,1,0,0:0:0:0:
320,192,118764,1,0,0:0:0:0:
64,192,118764,1,0,0:0:0:0:
320,192,118869,1,0,0:0:0:0:
64,192,118869,1,0,0:0:0:0:
448,192,118869,1,0,0:0:0:0:
320,192,118973,1,0,0:0:0:0:
320,192,119078,1,0,0:0:0:0:
448,192,119078,1,0,0:0:0:0:
64,192,119078,1,0,0:0:0:0:
448,192,119182,1,0,0:0:0:0:
448,192,119287,1,0,0:0:0:0:
192,192,119287,1,0,0:0:0:0:
64,192,119287,1,0,0:0:0:0:
448,192,119392,1,0,0:0:0:0:
192,192,119392,1,0,0:0:0:0:
448,192,119496,1,0,0:0:0:0:
448,192,119601,1,0,0:0:0:0:
320,192,119601,1,0,0:0:0:0:
448,192,119705,1,0,0:0:0:0:
192,192,119705,1,0,0:0:0:0:
64,192,119705,1,0,0:0:0:0:
64,192,119810,1,0,0:0:0:0:
64,192,119914,1,0,0:0:0:0:
320,192,119914,1,0,0:0:0:0:
64,192,120019,1,0,0:0:0:0:
64,192,120123,1,0,0:0:0:0:
192,192,120123,1,0,0:0:0:0:
448,192,120123,1,0,0:0:0:0:
192,192,120228,1,0,0:0:0:0:
320,192,120228,1,0,0:0:0:0:
192,192,120332,1,0,0:0:0:0:
192,192,120437,1,0,0:0:0:0:
448,192,120437,1,0,0:0:0:0:
192,192,120541,1,0,0:0:0:0:
64,192,120541,1,0,0:0:0:0:
448,192,120541,1,0,0:0:0:0:
64,192,120646,1,0,0:0:0:0:
64,192,120750,1,0,0:0:0:0:
320,192,120750,1,0,0:0:0:0:
64,192,120855,1,0,0:0:0:0:
448,192,120855,1,0,0:0:0:0:
64,192,120959,1,0,0:0:0:0:
192,192,120959,1,0,0:0:0:0:
320,192,120959,1,0,0:0:0:0:
320,192,121064,1,0,0:0:0:0:
448,192,121064,1,0,0:0:0:0:
320,192,121169,1,0,0:0:0:0:
64,192,121169,1,0,0:0:0:0:
320,192,121273,1,0,0:0:0:0:
320,192,121378,1,0,0:0:0:0:
448,192,121378,1,0,0:0:0:0:
192,192,121378,1,0,0:0:0:0:
448,192,121482,1,0,0:0:0:0:
448,192,121587,1,0,0:0:0:0:
64,192,121587,1,0,0:0:0:0:
448,192,121691,1,0,0:0:0:0:
192,192,121691,1,0,0:0:0:0:
448,192,121796,1,0,0:0:0:0:
320,192,121796,1,0,0:0:0:0:
64,192,121796,1,0,0:0:0:0:
64,192,121900,1,0,0:0:0:0:
192,192,121900,1,0,0:0:0:0:
64,192,122005,1,0,0:0:0:0:
64,192,122109,1,0,0:0:0:0:
320,192,122109,1,0,0:0:0:0:
64,192,122214,1,0,0:0:0:0:
448,192,122214,1,0,0:0:0:0:
192,192,122214,1,0,0:0:0:0:
448,192,122318,1,0,0:0:0:0:
320,192,122318,1,0,0:0:0:0:
448,192,122423,1,0,0:0:0:0:
448,192,122527,1,0,0:0:0:0:
192,192,122527,1,0,0:0:0:0:
448,192,122632,1,0,0:0:0:0:
320,192,122632,1,0,0:0:0:0:
64,192,122632,1,0,0:0:0:0:
320,192,122737,1,0,0:0:0:0:
320,192,122841,1,0,0:0:0:0:
192,192,122841,1,0,0:0:0:0:
64,192,122841,1,0,0:0:0:0:
64,192,122946,1,0,0:0:0:0:
320,192,122946,1,0,0:0:0:0:
320,192,123050,1,0,0:0:0:0:
192,192,123050,1,0,0:0:0:0:
448,192,123050,1,0,0:0:0:0:
192,192,123155,1,0,0:0:0:0:
448,192,123155,1,0,0:0:0:0:
320,192,123259,1,0,0:0:0:0:
64,192,123259,1,0,0:0:0:0:
192,192,123364,1,0,0:0:0:0:
64,192,123364,1,0,0:0:0:0:
320,192,123468,1,0,0:0:0:0:
448,192,123468,1,0,0:0:0:0:
192,192,123573,1,0,0:0:0:0:
448,192,123573,1,0,0:0:0:0:
320,192,123677,1,0,0:0:0:0:
192,192,123677,1,0,0:0:0:0:
64,192,123677,1,0,0:0:0:0:
64,192,123782,1,0,0:0:0:0:
320,192,123782,1,0,0:0:0:0:
448,192,123782,1,0,0:0:0:0:
192,192,123886,1,0,0:0:0:0:
64,192,123886,1,0,0:0:0:0:
320,192,123886,1,0,0:0:0:0:
448,192,123886,1,0,0:0:0:0:
192,192,124095,1,0,0:0:0:0:
320,192,124304,1,0,0:0:0:0:
192,192,124514,1,0,0:0:0:0:
448,192,124514,1,0,0:0:0:0:
192,192,124723,1,0,0:0:0:0:
64,192,124723,1,0,0:0:0:0:
320,192,124932,1,0,0:0:0:0:
192,192,125141,1,0,0:0:0:0:
448,192,125350,1,0,0:0:0:0:
320,192,125559,1,0,0:0:0:0:
448,192,125559,1,0,0:0:0:0:
192,192,125768,1,0,0:0:0:0:
64,192,125977,1,0,0:0:0:0:
192,192,126186,1,0,0:0:0:0:
64,192,126395,1,0,0:0:0:0:
192,192,126604,1,0,0:0:0:0:
320,192,126813,1,0,0:0:0:0:
448,192,127022,1,0,0:0:0:0:
320,192,127231,1,0,0:0:0:0:
192,192,127231,1,0,0:0:0:0:
64,192,127231,1,0,0:0:0:0:
64,192,127440,1,0,0:0:0:0:
320,192,127440,1,0,0:0:0:0:
192,192,127545,1,0,0:0:0:0:
448,192,127545,1,0,0:0:0:0:
320,192,127649,1,0,0:0:0:0:
448,192,127649,1,0,0:0:0:0:
192,192,127649,1,0,0:0:0:0:
320,192,127858,1,0,0:0:0:0:
448,192,127858,1,0,0:0:0:0:
64,192,127963,1,0,0:0:0:0:
192,192,128068,1,0,0:0:0:0:
64,192,128068,1,0,0:0:0:0:
320,192,128172,1,0,0:0:0:0:
320,192,128277,1,0,0:0:0:0:
448,192,128277,1,0,0:0:0:0:
192,192,128381,1,0,0:0:0:0:
192,192,128486,1,0,0:0:0:0:
448,192,128486,1,0,0:0:0:0:
320,192,128695,1,0,0:0:0:0:
448,192,128695,1,0,0:0:0:0:
64,192,128695,1,0,0:0:0:0:
320,192,128799,1,0,0:0:0:0:
192,192,128904,1,0,0:0:0:0:
64,192,128904,1,0,0:0:0:0:
448,192,128904,1,0,0:0:0:0:
320,192,129113,1,0,0:0:0:0:
448,192,129113,1,0,0:0:0:0:
192,192,129217,1,0,0:0:0:0:
320,192,129322,1,0,0:0:0:0:
64,192,129322,1,0,0:0:0:0:
192,192,129531,1,0,0:0:0:0:
64,192,129531,1,0,0:0:0:0:
448,192,129583,1,0,0:0:0:0:
320,192,129583,1,0,0:0:0:0:
192,192,129635,1,0,0:0:0:0:
64,192,129688,1,0,0:0:0:0:
320,192,129740,1,0,0:0:0:0:
448,192,129740,1,0,0:0:0:0:
192,192,129740,1,0,0:0:0:0:
64,192,129845,1,0,0:0:0:0:
192,192,129845,1,0,0:0:0:0:
320,192,129949,1,0,0:0:0:0:
448,192,129949,1,0,0:0:0:0:
64,192,129949,1,0,0:0:0:0:
448,192,130158,1,0,0:0:0:0:
320,192,130210,1,0,0:0:0:0:
192,192,130263,1,0,0:0:0:0:
64,192,130315,1,0,0:0:0:0:
448,192,130315,1,0,0:0:0:0:
320,192,130367,1,0,0:0:0:0:
192,192,130419,1,0,0:0:0:0:
64,192,130472,1,0,0:0:0:0:
448,192,130472,1,0,0:0:0:0:
320,192,130524,1,0,0:0:0:0:
192,192,130576,1,0,0:0:0:0:
64,192,130576,1,0,0:0:0:0:
448,192,130576,1,0,0:0:0:0:
320,192,130681,1,0,0:0:0:0:
192,192,130785,1,0,0:0:0:0:
64,192,130890,1,0,0:0:0:0:
192,192,130994,1,0,0:0:0:0:
320,192,131099,1,0,0:0:0:0:
448,192,131203,1,0,0:0:0:0:
320,192,131256,1,0,0:0:0:0:
192,192,131308,1,0,0:0:0:0:
64,192,131412,1,0,0:0:0:0:
192,192,131517,1,0,0:0:0:0:
448,192,131622,1,0,0:0:0:0:
320,192,131726,1,0,0:0:0:0:
192,192,131726,1,0,0:0:0:0:
64,192,131831,1,0,0:0:0:0:
192,192,131935,1,0,0:0:0:0:
448,192,131935,1,0,0:0:0:0:
320,192,132040,1,0,0:0:0:0:
64,192,132040,1,0,0:0:0:0:
192,192,132144,1,0,0:0:0:0:
64,192,132249,1,0,0:0:0:0:
192,192,132353,1,0,0:0:0:0:
320,192,132458,1,0,0:0:0:0:
64,192,132562,1,0,0:0:0:0:
448,192,132667,1,0,0:0:0:0:
320,192,132667,1,0,0:0:0:0:
192,192,132771,1,0,0:0:0:0:
320,192,132876,1,0,0:0:0:0:
64,192,132928,1,0,0:0:0:0:
448,192,132980,1,0,0:0:0:0:
192,192,133085,1,0,0:0:0:0:
320,192,133189,1,0,0:0:0:0:
448,192,133294,1,0,0:0:0:0:
192,192,133399,1,0,0:0:0:0:
64,192,133503,1,0,0:0:0:0:
320,192,133608,1,0,0:0:0:0:
192,192,133712,1,0,0:0:0:0:
320,192,133817,1,0,0:0:0:0:
448,192,133921,1,0,0:0:0:0:
64,192,134026,1,0,0:0:0:0:
320,192,134130,1,0,0:0:0:0:
192,192,134235,1,0,0:0:0:0:
64,192,134339,1,0,0:0:0:0:
320,192,134444,1,0,0:0:0:0:
448,192,134548,1,0,0:0:0:0:
192,192,134548,1,0,0:0:0:0:
64,192,134653,1,0,0:0:0:0:
320,192,134653,1,0,0:0:0:0:
192,192,134757,1,0,0:0:0:0:
448,192,134757,1,0,0:0:0:0:
320,192,134862,1,0,0:0:0:0:
448,192,134966,1,0,0:0:0:0:
64,192,134966,1,0,0:0:0:0:
192,192,135071,1,0,0:0:0:0:
320,192,135176,1,0,0:0:0:0:
64,192,135176,1,0,0:0:0:0:
448,192,135280,1,0,0:0:0:0:
320,192,135385,1,0,0:0:0:0:
192,192,135385,1,0,0:0:0:0:
64,192,135489,1,0,0:0:0:0:
320,192,135594,1,0,0:0:0:0:
448,192,135594,1,0,0:0:0:0:
192,192,135698,1,0,0:0:0:0:
64,192,135803,1,0,0:0:0:0:
320,192,135907,1,0,0:0:0:0:
448,192,136012,1,0,0:0:0:0:
320,192,136116,1,0,0:0:0:0:
64,192,136116,1,0,0:0:0:0:
448,192,136169,1,0,0:0:0:0:
192,192,136221,1,0,0:0:0:0:
448,192,136325,1,0,0:0:0:0:
320,192,136430,1,0,0:0:0:0:
192,192,136430,1,0,0:0:0:0:
64,192,136534,1,0,0:0:0:0:
192,192,136639,1,0,0:0:0:0:
320,192,136743,1,0,0:0:0:0:
448,192,136848,1,0,0:0:0:0:
320,192,136953,1,0,0:0:0:0:
192,192,137057,1,0,0:0:0:0:
64,192,137162,1,0,0:0:0:0:
320,192,137266,1,0,0:0:0:0:
448,192,137266,1,0,0:0:0:0:
320,192,137371,1,0,0:0:0:0:
448,192,137371,1,0,0:0:0:0:
320,192,137475,1,0,0:0:0:0:
448,192,137475,1,0,0:0:0:0:
320,192,137580,1,0,0:0:0:0:
448,192,137580,1,0,0:0:0:0:
320,192,137684,1,0,0:0:0:0:
448,192,137684,1,0,0:0:0:0:
320,192,137789,1,0,0:0:0:0:
448,192,137789,1,0,0:0:0:0:
320,192,137893,1,0,0:0:0:0:
448,192,137893,1,0,0:0:0:0:
320,192,137998,1,0,0:0:0:0:
448,192,137998,1,0,0:0:0:0:
320,192,138102,1,0,0:0:0:0:
448,192,138102,1,0,0:0:0:0:
320,192,138207,1,0,0:0:0:0:
448,192,138207,1,0,0:0:0:0:
320,192,138311,1,0,0:0:0:0:
448,192,138311,1,0,0:0:0:0:
320,192,138416,1,0,0:0:0:0:
448,192,138416,1,0,0:0:0:0:
320,192,138520,1,0,0:0:0:0:
448,192,138520,1,0,0:0:0:0:
320,192,138625,1,0,0:0:0:0:
448,192,138625,1,0,0:0:0:0:
320,192,138730,1,0,0:0:0:0:
448,192,138730,1,0,0:0:0:0:
320,192,138834,1,0,0:0:0:0:
448,192,138834,1,0,0:0:0:0:
448,192,138939,1,0,0:0:0:0:
320,192,138939,1,0,0:0:0:0:
320,192,139043,1,0,0:0:0:0:
448,192,139043,1,0,0:0:0:0:
320,192,139148,1,0,0:0:0:0:
448,192,139148,1,0,0:0:0:0:
320,192,139252,1,0,0:0:0:0:
448,192,139252,1,0,0:0:0:0:
320,192,139357,1,0,0:0:0:0:
448,192,139357,1,0,0:0:0:0:
448,192,139461,1,0,0:0:0:0:
320,192,139461,1,0,0:0:0:0:
448,192,139566,1,0,0:0:0:0:
320,192,139566,1,0,0:0:0:0:
192,192,139566,1,0,0:0:0:0:
192,192,139670,1,0,0:0:0:0:
320,192,139670,1,0,0:0:0:0:
448,192,139670,1,0,0:0:0:0:
448,192,139775,1,0,0:0:0:0:
320,192,139775,1,0,0:0:0:0:
192,192,139775,1,0,0:0:0:0:
448,192,139879,1,0,0:0:0:0:
320,192,139879,1,0,0:0:0:0:
192,192,139879,1,0,0:0:0:0:
448,192,139984,1,0,0:0:0:0:
320,192,139984,1,0,0:0:0:0:
192,192,139984,1,0,0:0:0:0:
192,192,140088,1,0,0:0:0:0:
320,192,140088,1,0,0:0:0:0:
448,192,140088,1,0,0:0:0:0:
448,192,140193,1,0,0:0:0:0:
320,192,140193,1,0,0:0:0:0:
192,192,140193,1,0,0:0:0:0:
64,192,140193,1,0,0:0:0:0:
64,192,140297,1,0,0:0:0:0:
192,192,140297,1,0,0:0:0:0:
320,192,140297,1,0,0:0:0:0:
448,192,140297,1,0,0:0:0:0:
448,192,140402,1,0,0:0:0:0:
320,192,140402,1,0,0:0:0:0:
192,192,140402,1,0,0:0:0:0:
64,192,140402,1,0,0:0:0:0:
64,192,140507,1,0,0:0:0:0:
192,192,140507,1,0,0:0:0:0:
320,192,140507,1,0,0:0:0:0:
448,192,140507,1,0,0:0:0:0:
64,192,140611,1,0,0:0:0:0:
192,192,140611,1,0,0:0:0:0:
320,192,140611,1,0,0:0:0:0:
448,192,140611,1,0,0:0:0:0:
64,192,140820,1,0,0:0:0:0:
192,192,140820,1,0,0:0:0:0:
320,192,140925,1,0,0:0:0:0:
192,192,141029,1,0,0:0:0:0:
448,192,141029,1,0,0:0:0:0:
320,192,141134,1,0,0:0:0:0:
192,192,141238,1,0,0:0:0:0:
64,192,141238,1,0,0:0:0:0:
192,192,141343,1,0,0:0:0:0:
448,192,141343,1,0,0:0:0:0:
320,192,141447,1,0,0:0:0:0:
192,192,141552,1,0,0:0:0:0:
320,192,141656,1,0,0:0:0:0:
448,192,141656,1,0,0:0:0:0:
64,192,141656,1,0,0:0:0:0:
64,192,141761,1,0,0:0:0:0:
320,192,141865,1,0,0:0:0:0:
448,192,141865,1,0,0:0:0:0:
192,192,141970,1,0,0:0:0:0:
320,192,142074,1,0,0:0:0:0:
448,192,142074,1,0,0:0:0:0:
192,192,142179,1,0,0:0:0:0:
64,192,142284,1,0,0:0:0:0:
448,192,142284,1,0,0:0:0:0:
320,192,142388,1,0,0:0:0:0:
192,192,142493,1,0,0:0:0:0:
64,192,142493,1,0,0:0:0:0:
192,192,142597,1,0,0:0:0:0:
320,192,142702,1,0,0:0:0:0:
448,192,142702,1,0,0:0:0:0:
64,192,142806,1,0,0:0:0:0:
192,192,142911,1,0,0:0:0:0:
320,192,142911,1,0,0:0:0:0:
448,192,143015,1,0,0:0:0:0:
320,192,143120,1,0,0:0:0:0:
192,192,143120,1,0,0:0:0:0:
64,192,143224,1,0,0:0:0:0:
448,192,143329,1,0,0:0:0:0:
64,192,143329,1,0,0:0:0:0:
320,192,143433,1,0,0:0:0:0:
192,192,143538,1,0,0:0:0:0:
64,192,143538,1,0,0:0:0:0:
192,192,143642,1,0,0:0:0:0:
448,192,143642,1,0,0:0:0:0:
320,192,143747,1,0,0:0:0:0:
448,192,143747,1,0,0:0:0:0:
192,192,143851,1,0,0:0:0:0:
320,192,143956,1,0,0:0:0:0:
64,192,143956,1,0,0:0:0:0:
192,192,144061,1,0,0:0:0:0:
320,192,144165,1,0,0:0:0:0:
448,192,144165,1,0,0:0:0:0:
64,192,144270,1,0,0:0:0:0:
448,192,144270,1,0,0:0:0:0:
320,192,144374,1,0,0:0:0:0:
192,192,144374,1,0,0:0:0:0:
64,192,144479,1,0,0:0:0:0:
192,192,144583,1,0,0:0:0:0:
320,192,144583,1,0,0:0:0:0:
320,192,144688,1,0,0:0:0:0:
64,192,144688,1,0,0:0:0:0:
448,192,144792,1,0,0:0:0:0:
64,192,144792,1,0,0:0:0:0:
192,192,144897,1,0,0:0:0:0:
448,192,145001,1,0,0:0:0:0:
320,192,145001,1,0,0:0:0:0:
192,192,145106,1,0,0:0:0:0:
64,192,145210,1,0,0:0:0:0:
448,192,145210,1,0,0:0:0:0:
320,192,145315,1,0,0:0:0:0:
192,192,145315,1,0,0:0:0:0:
192,192,145419,1,0,0:0:0:0:
64,192,145419,1,0,0:0:0:0:
64,192,145524,1,0,0:0:0:0:
448,192,145524,1,0,0:0:0:0:
320,192,145628,1,0,0:0:0:0:
448,192,145628,1,0,0:0:0:0:
192,192,145733,1,0,0:0:0:0:
64,192,145733,1,0,0:0:0:0:
64,192,145838,1,0,0:0:0:0:
448,192,145838,1,0,0:0:0:0:
192,192,145942,1,0,0:0:0:0:
320,192,146047,1,0,0:0:0:0:
448,192,146047,1,0,0:0:0:0:
192,192,146151,1,0,0:0:0:0:
448,192,146256,1,0,0:0:0:0:
64,192,146256,1,0,0:0:0:0:
320,192,146360,1,0,0:0:0:0:
192,192,146360,1,0,0:0:0:0:
64,192,146465,1,0,0:0:0:0:
320,192,146465,1,0,0:0:0:0:
192,192,146569,1,0,0:0:0:0:
320,192,146674,1,0,0:0:0:0:
448,192,146674,1,0,0:0:0:0:
64,192,146778,1,0,0:0:0:0:
448,192,146778,1,0,0:0:0:0:
320,192,146883,1,0,0:0:0:0:
192,192,146987,1,0,0:0:0:0:
448,192,146987,1,0,0:0:0:0:
64,192,147092,1,0,0:0:0:0:
320,192,147092,1,0,0:0:0:0:
64,192,147196,1,0,0:0:0:0:
448,192,147196,1,0,0:0:0:0:
320,192,147301,1,0,0:0:0:0:
448,192,147301,1,0,0:0:0:0:
192,192,147405,1,0,0:0:0:0:
192,192,147510,1,0,0:0:0:0:
320,192,147510,1,0,0:0:0:0:
64,192,147615,1,0,0:0:0:0:
448,192,147615,1,0,0:0:0:0:
320,192,147719,1,0,0:0:0:0:
448,192,147719,1,0,0:0:0:0:
192,192,147824,1,0,0:0:0:0:
64,192,147824,1,0,0:0:0:0:
64,192,147928,1,0,0:0:0:0:
320,192,147928,1,0,0:0:0:0:
192,192,148033,1,0,0:0:0:0:
448,192,148033,1,0,0:0:0:0:
320,192,148137,1,0,0:0:0:0:
448,192,148137,1,0,0:0:0:0:
64,192,148242,1,0,0:0:0:0:
192,192,148346,1,0,0:0:0:0:
320,192,148346,1,0,0:0:0:0:
320,192,148451,1,0,0:0:0:0:
448,192,148451,1,0,0:0:0:0:
64,192,148555,1,0,0:0:0:0:
448,192,148555,1,0,0:0:0:0:
320,192,148660,1,0,0:0:0:0:
192,192,148764,1,0,0:0:0:0:
64,192,148764,1,0,0:0:0:0:
64,192,148869,1,0,0:0:0:0:
448,192,148869,1,0,0:0:0:0:
320,192,148973,1,0,0:0:0:0:
448,192,148973,1,0,0:0:0:0:
192,192,149078,1,0,0:0:0:0:
64,192,149182,1,0,0:0:0:0:
448,192,149182,1,0,0:0:0:0:
320,192,149287,1,0,0:0:0:0:
192,192,149287,1,0,0:0:0:0:
64,192,149392,1,0,0:0:0:0:
320,192,149392,1,0,0:0:0:0:
192,192,149496,1,0,0:0:0:0:
448,192,149496,1,0,0:0:0:0:
320,192,149601,1,0,0:0:0:0:
448,192,149601,1,0,0:0:0:0:
64,192,149705,1,0,0:0:0:0:
448,192,149705,1,0,0:0:0:0:
320,192,149810,1,0,0:0:0:0:
192,192,149810,1,0,0:0:0:0:
64,192,149914,1,0,0:0:0:0:
192,192,150019,1,0,0:0:0:0:
448,192,150019,1,0,0:0:0:0:
320,192,150123,1,0,0:0:0:0:
64,192,150123,1,0,0:0:0:0:
64,192,150228,1,0,0:0:0:0:
192,192,150228,1,0,0:0:0:0:
320,192,150332,1,0,0:0:0:0:
448,192,150332,1,0,0:0:0:0:
192,192,150437,1,0,0:0:0:0:
64,192,150437,1,0,0:0:0:0:
320,192,150541,1,0,0:0:0:0:
448,192,150646,1,0,0:0:0:0:
64,192,150646,1,0,0:0:0:0:
320,192,150750,1,0,0:0:0:0:
192,192,150855,1,0,0:0:0:0:
64,192,150855,1,0,0:0:0:0:
64,192,150959,1,0,0:0:0:0:
448,192,150959,1,0,0:0:0:0:
320,192,151064,1,0,0:0:0:0:
192,192,151064,1,0,0:0:0:0:
192,192,151169,1,0,0:0:0:0:
448,192,151273,1,0,0:0:0:0:
320,192,151273,1,0,0:0:0:0:
192,192,151378,1,0,0:0:0:0:
64,192,151482,1,0,0:0:0:0:
320,192,151482,1,0,0:0:0:0:
64,192,151587,1,0,0:0:0:0:
192,192,151691,1,0,0:0:0:0:
448,192,151691,1,0,0:0:0:0:
320,192,151796,1,0,0:0:0:0:
448,192,151796,1,0,0:0:0:0:
192,192,151900,1,0,0:0:0:0:
64,192,151900,1,0,0:0:0:0:
192,192,152005,1,0,0:0:0:0:
320,192,152005,1,0,0:0:0:0:
448,192,152109,1,0,0:0:0:0:
64,192,152109,1,0,0:0:0:0:
320,192,152214,1,0,0:0:0:0:
192,192,152318,1,0,0:0:0:0:
64,192,152318,1,0,0:0:0:0:
320,192,152423,1,0,0:0:0:0:
448,192,152423,1,0,0:0:0:0:
64,192,152527,1,0,0:0:0:0:
448,192,152527,1,0,0:0:0:0:
192,192,152632,1,0,0:0:0:0:
448,192,152632,1,0,0:0:0:0:
320,192,152737,1,0,0:0:0:0:
64,192,152737,1,0,0:0:0:0:
448,192,152841,1,0,0:0:0:0:
192,192,152841,1,0,0:0:0:0:
320,192,152946,1,0,0:0:0:0:
448,192,152946,1,0,0:0:0:0:
192,192,153050,1,0,0:0:0:0:
64,192,153155,1,0,0:0:0:0:
320,192,153155,1,0,0:0:0:0:
448,192,153155,1,0,0:0:0:0:
192,192,153259,1,0,0:0:0:0:
320,192,153364,1,0,0:0:0:0:
448,192,153364,1,0,0:0:0:0:
64,192,153364,1,0,0:0:0:0:
192,192,153364,1,0,0:0:0:0:
320,192,153468,1,0,0:0:0:0:
192,192,153573,1,0,0:0:0:0:
64,192,153573,1,0,0:0:0:0:
320,192,153573,1,0,0:0:0:0:
448,192,153573,1,0,0:0:0:0:
192,192,153677,1,0,0:0:0:0:
64,192,153782,1,0,0:0:0:0:
192,192,153782,1,0,0:0:0:0:
320,192,153782,1,0,0:0:0:0:
448,192,153782,1,0,0:0:0:0:
320,192,153886,1,0,0:0:0:0:
448,192,153991,1,0,0:0:0:0:
192,192,153991,1,0,0:0:0:0:
64,192,153991,1,0,0:0:0:0:
320,192,153991,1,0,0:0:0:0:
64,192,154200,1,0,0:0:0:0:
192,192,154304,1,0,0:0:0:0:
448,192,154409,1,0,0:0:0:0:
320,192,154409,1,0,0:0:0:0:
192,192,154409,1,0,0:0:0:0:
64,192,154409,1,0,0:0:0:0:
320,192,154618,1,0,0:0:0:0:
448,192,154618,1,0,0:0:0:0:
192,192,154618,1,0,0:0:0:0:
192,192,154827,1,0,0:0:0:0:
64,192,154827,1,0,0:0:0:0:
320,192,154932,1,0,0:0:0:0:
448,192,154932,1,0,0:0:0:0:
192,192,155036,1,0,0:0:0:0:
448,192,155036,1,0,0:0:0:0:
320,192,155245,1,0,0:0:0:0:
448,192,155245,1,0,0:0:0:0:
192,192,155245,1,0,0:0:0:0:
64,192,155350,1,0,0:0:0:0:
64,192,155454,1,0,0:0:0:0:
192,192,155559,1,0,0:0:0:0:
320,192,155663,1,0,0:0:0:0:
448,192,155663,1,0,0:0:0:0:
192,192,155663,1,0,0:0:0:0:
64,192,155663,1,0,0:0:0:0:
320,192,155872,1,0,0:0:0:0:
448,192,155872,1,0,0:0:0:0:
192,192,155977,1,0,0:0:0:0:
448,192,155977,1,0,0:0:0:0:
320,192,156081,1,0,0:0:0:0:
192,192,156081,1,0,0:0:0:0:
64,192,156081,1,0,0:0:0:0:
64,192,156186,1,0,0:0:0:0:
192,192,156291,1,0,0:0:0:0:
448,192,156291,1,0,0:0:0:0:
320,192,156291,1,0,0:0:0:0:
192,192,156395,1,0,0:0:0:0:
64,192,156500,1,0,0:0:0:0:
448,192,156500,1,0,0:0:0:0:
192,192,156604,1,0,0:0:0:0:
448,192,156604,1,0,0:0:0:0:
320,192,156604,1,0,0:0:0:0:
64,192,156709,1,0,0:0:0:0:
192,192,156709,1,0,0:0:0:0:
320,192,156813,1,0,0:0:0:0:
64,192,156813,1,0,0:0:0:0:
448,192,156813,1,0,0:0:0:0:
448,192,156918,1,0,0:0:0:0:
192,192,156918,1,0,0:0:0:0:
320,192,156918,1,0,0:0:0:0:
64,192,157127,1,0,0:0:0:0:
448,192,157127,1,0,0:0:0:0:
320,192,157231,1,0,0:0:0:0:
448,192,157231,1,0,0:0:0:0:
320,192,157336,1,0,0:0:0:0:
192,192,157336,1,0,0:0:0:0:
64,192,157336,1,0,0:0:0:0:
448,192,157336,1,0,0:0:0:0:
64,192,157440,1,0,0:0:0:0:
192,192,157545,1,0,0:0:0:0:
448,192,157545,1,0,0:0:0:0:
320,192,157649,1,0,0:0:0:0:
192,192,157754,1,0,0:0:0:0:
64,192,157754,1,0,0:0:0:0:
448,192,157754,1,0,0:0:0:0:
320,192,157754,1,0,0:0:0:0:
64,192,157858,1,0,0:0:0:0:
64,192,157963,1,0,0:0:0:0:
320,192,157963,1,0,0:0:0:0:
448,192,157963,1,0,0:0:0:0:
192,192,158068,1,0,0:0:0:0:
320,192,158172,1,0,0:0:0:0:
448,192,158172,1,0,0:0:0:0:
192,192,158277,1,0,0:0:0:0:
448,192,158277,1,0,0:0:0:0:
320,192,158381,1,0,0:0:0:0:
448,192,158381,1,0,0:0:0:0:
64,192,158486,1,0,0:0:0:0:
64,192,158590,1,0,0:0:0:0:
192,192,158590,1,0,0:0:0:0:
320,192,158590,1,0,0:0:0:0:
448,192,158590,1,0,0:0:0:0:
320,192,158695,1,0,0:0:0:0:
320,192,158799,1,0,0:0:0:0:
64,192,158799,1,0,0:0:0:0:
192,192,158904,1,0,0:0:0:0:
448,192,158904,1,0,0:0:0:0:
320,192,159008,1,0,0:0:0:0:
448,192,159008,1,0,0:0:0:0:
64,192,159008,1,0,0:0:0:0:
192,192,159217,1,0,0:0:0:0:
64,192,159217,1,0,0:0:0:0:
64,192,159322,1,0,0:0:0:0:
192,192,159426,1,0,0:0:0:0:
320,192,159426,1,0,0:0:0:0:
448,192,159426,1,0,0:0:0:0:
320,192,159531,1,0,0:0:0:0:
448,192,159531,1,0,0:0:0:0:
192,192,159635,1,0,0:0:0:0:
64,192,159635,1,0,0:0:0:0:
320,192,159635,1,0,0:0:0:0:
64,192,159740,1,0,0:0:0:0:
448,192,159740,1,0,0:0:0:0:
320,192,159845,1,0,0:0:0:0:
448,192,159845,1,0,0:0:0:0:
192,192,159949,1,0,0:0:0:0:
64,192,159949,1,0,0:0:0:0:
320,192,159949,1,0,0:0:0:0:
64,192,160054,1,0,0:0:0:0:
192,192,160054,1,0,0:0:0:0:
448,192,160054,1,0,0:0:0:0:
448,192,160158,1,0,0:0:0:0:
320,192,160158,1,0,0:0:0:0:
192,192,160158,1,0,0:0:0:0:
192,192,160263,1,0,0:0:0:0:
64,192,160263,1,0,0:0:0:0:
448,192,160263,1,0,0:0:0:0:
320,192,160367,1,0,0:0:0:0:
448,192,160367,1,0,0:0:0:0:
64,192,160367,1,0,0:0:0:0:
192,192,160472,1,0,0:0:0:0:
64,192,160472,1,0,0:0:0:0:
320,192,160472,1,0,0:0:0:0:
448,192,160472,1,0,0:0:0:0:
320,192,160681,1,0,0:0:0:0:
448,192,160681,1,0,0:0:0:0:
192,192,160681,1,0,0:0:0:0:
64,192,160681,1,0,0:0:0:0:
64,192,160890,1,0,0:0:0:0:
192,192,160890,1,0,0:0:0:0:
320,192,160994,1,0,0:0:0:0:
448,192,161099,1,0,0:0:0:0:
192,192,161099,1,0,0:0:0:0:
64,192,161099,1,0,0:0:0:0:
320,192,161308,1,0,0:0:0:0:
448,192,161308,1,0,0:0:0:0:
192,192,161308,1,0,0:0:0:0:
64,192,161517,1,0,0:0:0:0:
192,192,161517,1,0,0:0:0:0:
320,192,161622,1,0,0:0:0:0:
192,192,161726,1,0,0:0:0:0:
64,192,161726,1,0,0:0:0:0:
448,192,161726,1,0,0:0:0:0:
320,192,161935,1,0,0:0:0:0:
448,192,161935,1,0,0:0:0:0:
192,192,161935,1,0,0:0:0:0:
320,192,162144,1,0,0:0:0:0:
448,192,162144,1,0,0:0:0:0:
192,192,162353,1,0,0:0:0:0:
64,192,162353,1,0,0:0:0:0:
320,192,162353,1,0,0:0:0:0:
64,192,162562,1,0,0:0:0:0:
192,192,162667,1,0,0:0:0:0:
320,192,162771,1,0,0:0:0:0:
64,192,162771,1,0,0:0:0:0:
448,192,162876,1,0,0:0:0:0:
320,192,162980,1,0,0:0:0:0:
192,192,162980,1,0,0:0:0:0:
64,192,162980,1,0,0:0:0:0:
192,192,163085,1,0,0:0:0:0:
320,192,163189,1,0,0:0:0:0:
448,192,163294,1,0,0:0:0:0:
64,192,163294,1,0,0:0:0:0:
320,192,163399,1,0,0:0:0:0:
448,192,163399,1,0,0:0:0:0:
192,192,163503,1,0,0:0:0:0:
64,192,163503,1,0,0:0:0:0:
320,192,163608,1,0,0:0:0:0:
448,192,163608,1,0,0:0:0:0:
64,192,163608,1,0,0:0:0:0:
192,192,163712,1,0,0:0:0:0:
320,192,163817,1,0,0:0:0:0:
448,192,163921,1,0,0:0:0:0:
320,192,164026,1,0,0:0:0:0:
192,192,164026,1,0,0:0:0:0:
64,192,164026,1,0,0:0:0:0:
64,192,164130,1,0,0:0:0:0:
192,192,164235,1,0,0:0:0:0:
320,192,164339,1,0,0:0:0:0:
448,192,164444,1,0,0:0:0:0:
192,192,164444,1,0,0:0:0:0:
64,192,164444,1,0,0:0:0:0:
448,192,164548,1,0,0:0:0:0:
320,192,164653,1,0,0:0:0:0:
64,192,164653,1,0,0:0:0:0:
192,192,164757,1,0,0:0:0:0:
64,192,164862,1,0,0:0:0:0:
320,192,164862,1,0,0:0:0:0:
448,192,164862,1,0,0:0:0:0:
64,192,164966,1,0,0:0:0:0:
192,192,165071,1,0,0:0:0:0:
320,192,165176,1,0,0:0:0:0:
448,192,165280,1,0,0:0:0:0:
192,192,165280,1,0,0:0:0:0:
64,192,165280,1,0,0:0:0:0:
448,192,165385,1,0,0:0:0:0:
320,192,165489,1,0,0:0:0:0:
192,192,165594,1,0,0:0:0:0:
64,192,165698,1,0,0:0:0:0:
448,192,165803,1,0,0:0:0:0:
320,192,165855,1,0,0:0:0:0:
192,192,165907,1,0,0:0:0:0:
64,192,166221,1,0,0:0:0:0:
192,192,166273,1,0,0:0:0:0:
320,192,166325,1,0,0:0:0:0:
64,192,166430,1,0,0:0:0:0:
192,192,166534,1,0,0:0:0:0:
320,192,166534,1,0,0:0:0:0:
320,192,166953,1,0,0:0:0:0:
448,192,166953,1,0,0:0:0:0:
192,192,167005,1,0,0:0:0:0:
64,192,167057,1,0,0:0:0:0:
320,192,167371,1,0,0:0:0:0:
448,192,167371,1,0,0:0:0:0:
192,192,167371,1,0,0:0:0:0:
64,192,167423,1,0,0:0:0:0:
192,192,167475,1,0,0:0:0:0:
320,192,167527,1,0,0:0:0:0:
64,192,167580,1,0,0:0:0:0:
192,192,167580,1,0,0:0:0:0:
448,192,167632,1,0,0:0:0:0:
64,192,167684,1,0,0:0:0:0:
192,192,167737,1,0,0:0:0:0:
320,192,167789,1,0,0:0:0:0:
448,192,167789,1,0,0:0:0:0:
64,192,167789,1,0,0:0:0:0:
192,192,167841,1,0,0:0:0:0:
320,192,167893,1,0,0:0:0:0:
448,192,167946,1,0,0:0:0:0:
64,192,167998,1,0,0:0:0:0:
192,192,167998,1,0,0:0:0:0:
320,192,168050,1,0,0:0:0:0:
448,192,168102,1,0,0:0:0:0:
64,192,168102,1,0,0:0:0:0:
192,192,168155,1,0,0:0:0:0:
448,192,168207,1,0,0:0:0:0:
320,192,168207,1,0,0:0:0:0:
64,192,168259,1,0,0:0:0:0:
448,192,168311,1,0,0:0:0:0:
320,192,168364,1,0,0:0:0:0:
192,192,168416,1,0,0:0:0:0:
64,192,168416,1,0,0:0:0:0:
448,192,168416,1,0,0:0:0:0:
320,192,168468,1,0,0:0:0:0:
192,192,168520,1,0,0:0:0:0:
64,192,168573,1,0,0:0:0:0:
320,192,168625,1,0,0:0:0:0:
448,192,168625,1,0,0:0:0:0:
192,192,168677,1,0,0:0:0:0:
64,192,168730,1,0,0:0:0:0:
448,192,168730,1,0,0:0:0:0:
320,192,168782,1,0,0:0:0:0:
192,192,168834,1,0,0:0:0:0:
64,192,168834,1,0,0:0:0:0:
448,192,168886,1,0,0:0:0:0:
320,192,168886,1,0,0:0:0:0:
192,192,168939,1,0,0:0:0:0:
64,192,168939,1,0,0:0:0:0:
320,192,168991,1,0,0:0:0:0:
448,192,168991,1,0,0:0:0:0:
64,192,169043,1,0,0:0:0:0:
192,192,169043,1,0,0:0:0:0:
320,192,169095,1,0,0:0:0:0:
448,192,169148,1,0,0:0:0:0:
64,192,169200,1,0,0:0:0:0:
192,192,169252,1,0,0:0:0:0:
320,192,169252,1,0,0:0:0:0:
448,192,169252,1,0,0:0:0:0:
64,192,169304,1,0,0:0:0:0:
320,192,169357,1,0,0:0:0:0:
192,192,169409,1,0,0:0:0:0:
64,192,169461,1,0,0:0:0:0:
448,192,169461,1,0,0:0:0:0:
320,192,169514,1,0,0:0:0:0:
192,192,169566,1,0,0:0:0:0:
64,192,169566,1,0,0:0:0:0:
448,192,169618,1,0,0:0:0:0:
320,192,169670,1,0,0:0:0:0:
192,192,169670,1,0,0:0:0:0:
64,192,169723,1,0,0:0:0:0:
448,192,169775,1,0,0:0:0:0:
320,192,169827,1,0,0:0:0:0:
192,192,169879,1,0,0:0:0:0:
64,192,169879,1,0,0:0:0:0:
448,192,169879,1,0,0:0:0:0:
320,192,169932,1,0,0:0:0:0:
64,192,169984,1,0,0:0:0:0:
192,192,170036,1,0,0:0:0:0:
320,192,170088,1,0,0:0:0:0:
448,192,170088,1,0,0:0:0:0:
64,192,170088,1,0,0:0:0:0:
192,192,170141,1,0,0:0:0:0:
320,192,170193,1,0,0:0:0:0:
448,192,170245,1,0,0:0:0:0:
192,192,170297,1,0,0:0:0:0:
64,192,170297,1,0,0:0:0:0:
448,192,170350,1,0,0:0:0:0:
320,192,170350,1,0,0:0:0:0:
192,192,170402,1,0,0:0:0:0:
64,192,170402,1,0,0:0:0:0:
320,192,170454,1,0,0:0:0:0:
448,192,170454,1,0,0:0:0:0:
192,192,170507,1,0,0:0:0:0:
64,192,170507,1,0,0:0:0:0:
320,192,170611,1,0,0:0:0:0:
448,192,170611,1,0,0:0:0:0:
192,192,170716,1,0,0:0:0:0:
64,192,170716,1,0,0:0:0:0:
448,192,170716,1,0,0:0:0:0:
320,192,170768,1,0,0:0:0:0:
192,192,170820,1,0,0:0:0:0:
64,192,170872,1,0,0:0:0:0:
320,192,170925,1,0,0:0:0:0:
448,192,170925,1,0,0:0:0:0:
192,192,170977,1,0,0:0:0:0:
64,192,171029,1,0,0:0:0:0:
448,192,171029,1,0,0:0:0:0:
320,192,171081,1,0,0:0:0:0:
192,192,171134,1,0,0:0:0:0:
64,192,171134,1,0,0:0:0:0:
320,192,171186,1,0,0:0:0:0:
448,192,171238,1,0,0:0:0:0:
64,192,171291,1,0,0:0:0:0:
192,192,171343,1,0,0:0:0:0:
320,192,171343,1,0,0:0:0:0:
448,192,171343,1,0,0:0:0:0:
64,192,171395,1,0,0:0:0:0:
320,192,171447,1,0,0:0:0:0:
448,192,171447,1,0,0:0:0:0:
192,192,171500,1,0,0:0:0:0:
64,192,171552,1,0,0:0:0:0:
448,192,171552,1,0,0:0:0:0:
320,192,171604,1,0,0:0:0:0:
192,192,171656,1,0,0:0:0:0:
64,192,171709,1,0,0:0:0:0:
320,192,171761,1,0,0:0:0:0:
192,192,171761,1,0,0:0:0:0:
448,192,171761,1,0,0:0:0:0:
64,192,171813,1,0,0:0:0:0:
448,192,171865,1,0,0:0:0:0:
320,192,171918,1,0,0:0:0:0:
192,192,171970,1,0,0:0:0:0:
64,192,171970,1,0,0:0:0:0:
320,192,172022,1,0,0:0:0:0:
448,192,172074,1,0,0:0:0:0:
64,192,172074,1,0,0:0:0:0:
192,192,172127,1,0,0:0:0:0:
320,192,172179,1,0,0:0:0:0:
448,192,172179,1,0,0:0:0:0:
192,192,172231,1,0,0:0:0:0:
64,192,172231,1,0,0:0:0:0:
320,192,172284,1,0,0:0:0:0:
448,192,172284,1,0,0:0:0:0:
192,192,172336,1,0,0:0:0:0:
64,192,172336,1,0,0:0:0:0:
320,192,172388,1,0,0:0:0:0:
448,192,172388,1,0,0:0:0:0:
64,192,172493,1,0,0:0:0:0:
320,192,172493,1,0,0:0:0:0:
448,192,172493,1,0,0:0:0:0:
192,192,172597,1,0,0:0:0:0:
64,192,172597,1,0,0:0:0:0:
320,192,172597,1,0,0:0:0:0:
192,192,172702,1,0,0:0:0:0:
448,192,172702,1,0,0:0:0:0:
64,192,172702,1,0,0:0:0:0:
320,192,172806,1,0,0:0:0:0:
448,192,172806,1,0,0:0:0:0:
192,192,172806,1,0,0:0:0:0:
320,192,172911,1,0,0:0:0:0:
192,192,172911,1,0,0:0:0:0:
64,192,172911,1,0,0:0:0:0:
64,192,173015,1,0,0:0:0:0:
320,192,173015,1,0,0:0:0:0:
448,192,173015,1,0,0:0:0:0:
192,192,173120,1,0,0:0:0:0:
320,192,173224,1,0,0:0:0:0:
448,192,173224,1,0,0:0:0:0:
192,192,173329,1,0,0:0:0:0:
64,192,173329,1,0,0:0:0:0:
448,192,173329,1,0,0:0:0:0:
192,192,173433,1,0,0:0:0:0:
320,192,173433,1,0,0:0:0:0:
64,192,173433,1,0,0:0:0:0:
192,192,173538,1,0,0:0:0:0:
320,192,173642,1,0,0:0:0:0:
448,192,173642,1,0,0:0:0:0:
192,192,173695,1,0,0:0:0:0:
64,192,173695,1,0,0:0:0:0:
320,192,173747,1,0,0:0:0:0:
448,192,173747,1,0,0:0:0:0:
192,192,173799,1,0,0:0:0:0:
64,192,173799,1,0,0:0:0:0:
448,192,173851,1,0,0:0:0:0:
320,192,173886,1,0,0:0:0:0:
192,192,173921,1,0,0:0:0:0:
64,192,173956,1,0,0:0:0:0:
320,192,174008,1,0,0:0:0:0:
448,192,174008,1,0,0:0:0:0:
192,192,174061,1,0,0:0:0:0:
64,192,174061,1,0,0:0:0:0:
320,192,174113,1,0,0:0:0:0:
448,192,174165,1,0,0:0:0:0:
64,192,174217,1,0,0:0:0:0:
192,192,174270,1,0,0:0:0:0:
320,192,174270,1,0,0:0:0:0:
448,192,174270,1,0,0:0:0:0:
64,192,174322,1,0,0:0:0:0:
448,192,174374,1,0,0:0:0:0:
320,192,174426,1,0,0:0:0:0:
192,192,174479,1,0,0:0:0:0:
64,192,174479,1,0,0:0:0:0:
320,192,174531,1,0,0:0:0:0:
448,192,174583,1,0,0:0:0:0:
64,192,174635,1,0,0:0:0:0:
192,192,174688,1,0,0:0:0:0:
448,192,174688,1,0,0:0:0:0:
320,192,174740,1,0,0:0:0:0:
192,192,174792,1,0,0:0:0:0:
64,192,174792,1,0,0:0:0:0:
448,192,174845,1,0,0:0:0:0:
320,192,174897,1,0,0:0:0:0:
192,192,174897,1,0,0:0:0:0:
64,192,174897,1,0,0:0:0:0:
448,192,174949,1,0,0:0:0:0:
192,192,175001,1,0,0:0:0:0:
320,192,175054,1,0,0:0:0:0:
448,192,175106,1,0,0:0:0:0:
64,192,175106,1,0,0:0:0:0:
192,192,175158,1,0,0:0:0:0:
320,192,175210,1,0,0:0:0:0:
448,192,175210,1,0,0:0:0:0:
64,192,175263,1,0,0:0:0:0:
192,192,175315,1,0,0:0:0:0:
320,192,175315,1,0,0:0:0:0:
448,192,175315,1,0,0:0:0:0:
64,192,175367,1,0,0:0:0:0:
448,192,175419,1,0,0:0:0:0:
320,192,175472,1,0,0:0:0:0:
192,192,175524,1,0,0:0:0:0:
64,192,175524,1,0,0:0:0:0:
320,192,175576,1,0,0:0:0:0:
448,192,175576,1,0,0:0:0:0:
192,192,175628,1,0,0:0:0:0:
64,192,175628,1,0,0:0:0:0:
320,192,175681,1,0,0:0:0:0:
448,192,175681,1,0,0:0:0:0:
192,192,175733,1,0,0:0:0:0:
64,192,175733,1,0,0:0:0:0:
320,192,175785,1,0,0:0:0:0:
448,192,175838,1,0,0:0:0:0:
64,192,175890,1,0,0:0:0:0:
192,192,175942,1,0,0:0:0:0:
320,192,175942,1,0,0:0:0:0:
448,192,175942,1,0,0:0:0:0:
64,192,175994,1,0,0:0:0:0:
320,192,176047,1,0,0:0:0:0:
448,192,176047,1,0,0:0:0:0:
192,192,176099,1,0,0:0:0:0:
64,192,176151,1,0,0:0:0:0:
448,192,176151,1,0,0:0:0:0:
320,192,176203,1,0,0:0:0:0:
192,192,176256,1,0,0:0:0:0:
64,192,176256,1,0,0:0:0:0:
448,192,176308,1,0,0:0:0:0:
320,192,176360,1,0,0:0:0:0:
192,192,176360,1,0,0:0:0:0:
64,192,176360,1,0,0:0:0:0:
448,192,176412,1,0,0:0:0:0:
64,192,176465,1,0,0:0:0:0:
192,192,176517,1,0,0:0:0:0:
320,192,176569,1,0,0:0:0:0:
448,192,176569,1,0,0:0:0:0:
64,192,176622,1,0,0:0:0:0:
192,192,176674,1,0,0:0:0:0:
448,192,176674,1,0,0:0:0:0:
320,192,176726,1,0,0:0:0:0:
448,192,176778,1,0,0:0:0:0:
192,192,176778,1,0,0:0:0:0:
64,192,176778,1,0,0:0:0:0:
320,192,176831,1,0,0:0:0:0:
192,192,176883,1,0,0:0:0:0:
64,192,176935,1,0,0:0:0:0:
320,192,176987,1,0,0:0:0:0:
448,192,176987,1,0,0:0:0:0:
192,192,177040,1,0,0:0:0:0:
64,192,177040,1,0,0:0:0:0:
320,192,177092,1,0,0:0:0:0:
448,192,177092,1,0,0:0:0:0:
192,192,177144,1,0,0:0:0:0:
64,192,177144,1,0,0:0:0:0:
320,192,177196,1,0,0:0:0:0:
448,192,177196,1,0,0:0:0:0:
192,192,177301,1,0,0:0:0:0:
64,192,177301,1,0,0:0:0:0:
320,192,177405,1,0,0:0:0:0:
448,192,177405,1,0,0:0:0:0:
64,192,177405,1,0,0:0:0:0:
192,192,177458,1,0,0:0:0:0:
320,192,177510,1,0,0:0:0:0:
448,192,177562,1,0,0:0:0:0:
320,192,177615,1,0,0:0:0:0:
192,192,177615,1,0,0:0:0:0:
64,192,177615,1,0,0:0:0:0:
448,192,177667,1,0,0:0:0:0:
320,192,177719,1,0,0:0:0:0:
192,192,177771,1,0,0:0:0:0:
320,192,177824,1,0,0:0:0:0:
448,192,177824,1,0,0:0:0:0:
64,192,177876,1,0,0:0:0:0:
192,192,177928,1,0,0:0:0:0:
320,192,177980,1,0,0:0:0:0:
448,192,178033,1,0,0:0:0:0:
192,192,178033,1,0,0:0:0:0:
64,192,178033,1,0,0:0:0:0:
320,192,178085,1,0,0:0:0:0:
448,192,178137,1,0,0:0:0:0:
64,192,178137,1,0,0:0:0:0:
192,192,178189,1,0,0:0:0:0:
320,192,178242,1,0,0:0:0:0:
448,192,178242,1,0,0:0:0:0:
192,192,178294,1,0,0:0:0:0:
64,192,178346,1,0,0:0:0:0:
448,192,178399,1,0,0:0:0:0:
320,192,178451,1,0,0:0:0:0:
192,192,178451,1,0,0:0:0:0:
64,192,178451,1,0,0:0:0:0:
448,192,178503,1,0,0:0:0:0:
64,192,178555,1,0,0:0:0:0:
192,192,178608,1,0,0:0:0:0:
320,192,178660,1,0,0:0:0:0:
448,192,178660,1,0,0:0:0:0:
64,192,178712,1,0,0:0:0:0:
192,192,178764,1,0,0:0:0:0:
320,192,178764,1,0,0:0:0:0:
448,192,178817,1,0,0:0:0:0:
192,192,178869,1,0,0:0:0:0:
64,192,178869,1,0,0:0:0:0:
320,192,178921,1,0,0:0:0:0:
448,192,178921,1,0,0:0:0:0:
192,192,178973,1,0,0:0:0:0:
64,192,178973,1,0,0:0:0:0:
320,192,179026,1,0,0:0:0:0:
448,192,179026,1,0,0:0:0:0:
192,192,179078,1,0,0:0:0:0:
64,192,179078,1,0,0:0:0:0:
320,192,179182,1,0,0:0:0:0:
448,192,179182,1,0,0:0:0:0:
192,192,179287,1,0,0:0:0:0:
64,192,179287,1,0,0:0:0:0:
320,192,179339,1,0,0:0:0:0:
448,192,179339,1,0,0:0:0:0:
192,192,179392,1,0,0:0:0:0:
64,192,179392,1,0,0:0:0:0:
320,192,179444,1,0,0:0:0:0:
448,192,179444,1,0,0:0:0:0:
192,192,179496,1,0,0:0:0:0:
64,192,179548,1,0,0:0:0:0:
448,192,179548,1,0,0:0:0:0:
320,192,179601,1,0,0:0:0:0:
192,192,179653,1,0,0:0:0:0:
64,192,179653,1,0,0:0:0:0:
320,192,179705,1,0,0:0:0:0:
448,192,179705,1,0,0:0:0:0:
192,192,179757,1,0,0:0:0:0:
64,192,179757,1,0,0:0:0:0:
320,192,179810,1,0,0:0:0:0:
448,192,179810,1,0,0:0:0:0:
64,192,179862,1,0,0:0:0:0:
192,192,179862,1,0,0:0:0:0:
320,192,179914,1,0,0:0:0:0:
448,192,179914,1,0,0:0:0:0:
192,192,180019,1,0,0:0:0:0:
64,192,180019,1,0,0:0:0:0:
64,192,180123,1,0,0:0:0:0:
448,192,180123,1,0,0:0:0:0:
192,192,180228,1,0,0:0:0:0:
320,192,180228,1,0,0:0:0:0:
448,192,180228,1,0,0:0:0:0:
64,192,180332,1,0,0:0:0:0:
320,192,180332,1,0,0:0:0:0:
192,192,180437,1,0,0:0:0:0:
64,192,180437,1,0,0:0:0:0:
192,192,180541,1,0,0:0:0:0:
320,192,180541,1,0,0:0:0:0:
448,192,180541,1,0,0:0:0:0:
320,192,180646,1,0,0:0:0:0:
448,192,180646,1,0,0:0:0:0:
64,192,180750,1,0,0:0:0:0:
192,192,180855,1,0,0:0:0:0:
64,192,180959,1,0,0:0:0:0:
192,192,180959,1,0,0:0:0:0:
320,192,180959,1,0,0:0:0:0:
448,192,181012,1,0,0:0:0:0:
192,192,181064,1,0,0:0:0:0:
64,192,181064,1,0,0:0:0:0:
320,192,181116,1,0,0:0:0:0:
192,192,181169,1,0,0:0:0:0:
64,192,181169,1,0,0:0:0:0:
448,192,181221,1,0,0:0:0:0:
64,192,181273,1,0,0:0:0:0:
320,192,181273,1,0,0:0:0:0:
192,192,181325,1,0,0:0:0:0:
320,192,181378,1,0,0:0:0:0:
448,192,181378,1,0,0:0:0:0:
64,192,181430,1,0,0:0:0:0:
192,192,181482,1,0,0:0:0:0:
448,192,181482,1,0,0:0:0:0:
320,192,181534,1,0,0:0:0:0:
192,192,181587,1,0,0:0:0:0:
64,192,181587,1,0,0:0:0:0:
448,192,181639,1,0,0:0:0:0:
64,192,181691,1,0,0:0:0:0:
192,192,181691,1,0,0:0:0:0:
320,192,181743,1,0,0:0:0:0:
448,192,181796,1,0,0:0:0:0:
64,192,181796,1,0,0:0:0:0:
192,192,181848,1,0,0:0:0:0:
320,192,181900,1,0,0:0:0:0:
448,192,181900,1,0,0:0:0:0:
64,192,181953,1,0,0:0:0:0:
192,192,182005,1,0,0:0:0:0:
448,192,182005,1,0,0:0:0:0:
320,192,182057,1,0,0:0:0:0:
192,192,182109,1,0,0:0:0:0:
64,192,182109,1,0,0:0:0:0:
448,192,182162,1,0,0:0:0:0:
320,192,182214,1,0,0:0:0:0:
192,192,182214,1,0,0:0:0:0:
64,192,182266,1,0,0:0:0:0:
320,192,182318,1,0,0:0:0:0:
448,192,182318,1,0,0:0:0:0:
192,192,182371,1,0,0:0:0:0:
64,192,182371,1,0,0:0:0:0:
320,192,182423,1,0,0:0:0:0:
448,192,182423,1,0,0:0:0:0:
192,192,182475,1,0,0:0:0:0:
64,192,182527,1,0,0:0:0:0:
448,192,182527,1,0,0:0:0:0:
320,192,182580,1,0,0:0:0:0:
192,192,182632,1,0,0:0:0:0:
64,192,182632,1,0,0:0:0:0:
448,192,182684,1,0,0:0:0:0:
320,192,182737,1,0,0:0:0:0:
192,192,182737,1,0,0:0:0:0:
64,192,182789,1,0,0:0:0:0:
320,192,182841,1,0,0:0:0:0:
448,192,182841,1,0,0:0:0:0:
192,192,182893,1,0,0:0:0:0:
64,192,182946,1,0,0:0:0:0:
320,192,182946,1,0,0:0:0:0:
448,192,182998,1,0,0:0:0:0:
192,192,183050,1,0,0:0:0:0:
64,192,183050,1,0,0:0:0:0:
320,192,183102,1,0,0:0:0:0:
448,192,183155,1,0,0:0:0:0:
64,192,183155,1,0,0:0:0:0:
192,192,183207,1,0,0:0:0:0:
320,192,183259,1,0,0:0:0:0:
448,192,183259,1,0,0:0:0:0:
64,192,183311,1,0,0:0:0:0:
192,192,183364,1,0,0:0:0:0:
320,192,183364,1,0,0:0:0:0:
448,192,183416,1,0,0:0:0:0:
64,192,183468,1,0,0:0:0:0:
320,192,183468,1,0,0:0:0:0:
192,192,183520,1,0,0:0:0:0:
320,192,183573,1,0,0:0:0:0:
448,192,183573,1,0,0:0:0:0:
192,192,183625,1,0,0:0:0:0:
64,192,183677,1,0,0:0:0:0:
448,192,183677,1,0,0:0:0:0:
320,192,183712,1,0,0:0:0:0:
192,192,183747,1,0,0:0:0:0:
64,192,183782,1,0,0:0:0:0:
320,192,183834,1,0,0:0:0:0:
448,192,183834,1,0,0:0:0:0:
192,192,183886,1,0,0:0:0:0:
64,192,183886,1,0,0:0:0:0:
320,192,183939,1,0,0:0:0:0:
448,192,183991,1,0,0:0:0:0:
64,192,184043,1,0,0:0:0:0:
192,192,184095,1,0,0:0:0:0:
320,192,184095,1,0,0:0:0:0:
448,192,184095,1,0,0:0:0:0:
64,192,184148,1,0,0:0:0:0:
192,192,184200,1,0,0:0:0:0:
320,192,184200,1,0,0:0:0:0:
448,192,184252,1,0,0:0:0:0:
192,192,184304,1,0,0:0:0:0:
64,192,184304,1,0,0:0:0:0:
320,192,184357,1,0,0:0:0:0:
448,192,184409,1,0,0:0:0:0:
64,192,184409,1,0,0:0:0:0:
192,192,184461,1,0,0:0:0:0:
320,192,184514,1,0,0:0:0:0:
448,192,184514,1,0,0:0:0:0:
192,192,184566,1,0,0:0:0:0:
64,192,184618,1,0,0:0:0:0:
448,192,184618,1,0,0:0:0:0:
320,192,184670,1,0,0:0:0:0:
192,192,184723,1,0,0:0:0:0:
64,192,184723,1,0,0:0:0:0:
448,192,184775,1,0,0:0:0:0:
320,192,184827,1,0,0:0:0:0:
64,192,184827,1,0,0:0:0:0:
192,192,184879,1,0,0:0:0:0:
320,192,184932,1,0,0:0:0:0:
448,192,184932,1,0,0:0:0:0:
64,192,184984,1,0,0:0:0:0:
192,192,185036,1,0,0:0:0:0:
320,192,185036,1,0,0:0:0:0:
448,192,185088,1,0,0:0:0:0:
192,192,185141,1,0,0:0:0:0:
64,192,185141,1,0,0:0:0:0:
320,192,185193,1,0,0:0:0:0:
448,192,185245,1,0,0:0:0:0:
64,192,185245,1,0,0:0:0:0:
192,192,185297,1,0,0:0:0:0:
320,192,185350,1,0,0:0:0:0:
448,192,185350,1,0,0:0:0:0:
64,192,185402,1,0,0:0:0:0:
320,192,185454,1,0,0:0:0:0:
448,192,185454,1,0,0:0:0:0:
192,192,185507,1,0,0:0:0:0:
64,192,185559,1,0,0:0:0:0:
448,192,185559,1,0,0:0:0:0:
320,192,185611,1,0,0:0:0:0:
192,192,185663,1,0,0:0:0:0:
64,192,185663,1,0,0:0:0:0:
320,192,185716,1,0,0:0:0:0:
448,192,185716,1,0,0:0:0:0:
192,192,185768,1,0,0:0:0:0:
64,192,185768,1,0,0:0:0:0:
448,192,185820,1,0,0:0:0:0:
320,192,185872,1,0,0:0:0:0:
192,192,185925,1,0,0:0:0:0:
64,192,185977,1,0,0:0:0:0:
448,192,185977,1,0,0:0:0:0:
320,192,186029,1,0,0:0:0:0:
64,192,186081,1,0,0:0:0:0:
192,192,186081,1,0,0:0:0:0:
320,192,186291,1,0,0:0:0:0:
448,192,186291,1,0,0:0:0:0:
448,192,186395,1,0,0:0:0:0:
320,192,186395,1,0,0:0:0:0:
64,192,186395,1,0,0:0:0:0:
192,192,186500,1,0,0:0:0:0:
64,192,186604,1,0,0:0:0:0:
320,192,186604,1,0,0:0:0:0:
192,192,186709,1,0,0:0:0:0:
448,192,186709,1,0,0:0:0:0:
320,192,186709,1,0,0:0:0:0:
320,192,186813,1,0,0:0:0:0:
448,192,186813,1,0,0:0:0:0:
192,192,186813,1,0,0:0:0:0:
192,192,187022,1,0,0:0:0:0:
64,192,187022,1,0,0:0:0:0:
320,192,187074,1,0,0:0:0:0:
448,192,187074,1,0,0:0:0:0:
192,192,187127,1,0,0:0:0:0:
64,192,187127,1,0,0:0:0:0:
320,192,187179,1,0,0:0:0:0:
448,192,187179,1,0,0:0:0:0:
192,192,187231,1,0,0:0:0:0:
64,192,187231,1,0,0:0:0:0:
320,192,187266,1,0,0:0:0:0:
448,192,187301,1,0,0:0:0:0:
64,192,187336,1,0,0:0:0:0:
192,192,187371,1,0,0:0:0:0:
320,192,187405,1,0,0:0:0:0:
448,192,187440,1,0,0:0:0:0:
64,192,187440,1,0,0:0:0:0:
192,192,187493,1,0,0:0:0:0:
320,192,187545,1,0,0:0:0:0:
448,192,187545,1,0,0:0:0:0:
192,192,187597,1,0,0:0:0:0:
64,192,187649,1,0,0:0:0:0:
448,192,187649,1,0,0:0:0:0:
320,192,187702,1,0,0:0:0:0:
192,192,187754,1,0,0:0:0:0:
64,192,187754,1,0,0:0:0:0:
448,192,187806,1,0,0:0:0:0:
320,192,187858,1,0,0:0:0:0:
192,192,187858,1,0,0:0:0:0:
64,192,187911,1,0,0:0:0:0:
320,192,187963,1,0,0:0:0:0:
448,192,187963,1,0,0:0:0:0:
192,192,188015,1,0,0:0:0:0:
64,192,188015,1,0,0:0:0:0:
320,192,188068,1,0,0:0:0:0:
448,192,188068,1,0,0:0:0:0:
192,192,188120,1,0,0:0:0:0:
64,192,188172,1,0,0:0:0:0:
448,192,188172,1,0,0:0:0:0:
320,192,188224,1,0,0:0:0:0:
192,192,188277,1,0,0:0:0:0:
64,192,188277,1,0,0:0:0:0:
448,192,188329,1,0,0:0:0:0:
192,192,188381,1,0,0:0:0:0:
64,192,188381,1,0,0:0:0:0:
320,192,188433,1,0,0:0:0:0:
192,192,188486,1,0,0:0:0:0:
64,192,188486,1,0,0:0:0:0:
448,192,188538,1,0,0:0:0:0:
64,192,188590,1,0,0:0:0:0:
320,192,188590,1,0,0:0:0:0:
192,192,188642,1,0,0:0:0:0:
320,192,188695,1,0,0:0:0:0:
448,192,188695,1,0,0:0:0:0:
64,192,188904,1,0,0:0:0:0:
448,192,188904,1,0,0:0:0:0:
192,192,188956,1,0,0:0:0:0:
320,192,188956,1,0,0:0:0:0:
64,192,189008,1,0,0:0:0:0:
448,192,189008,1,0,0:0:0:0:
192,192,189061,1,0,0:0:0:0:
320,192,189061,1,0,0:0:0:0:
64,192,189113,1,0,0:0:0:0:
192,192,189165,1,0,0:0:0:0:
320,192,189217,1,0,0:0:0:0:
448,192,189217,1,0,0:0:0:0:
192,192,189270,1,0,0:0:0:0:
64,192,189322,1,0,0:0:0:0:
448,192,189322,1,0,0:0:0:0:
320,192,189374,1,0,0:0:0:0:
192,192,189426,1,0,0:0:0:0:
64,192,189426,1,0,0:0:0:0:
448,192,189479,1,0,0:0:0:0:
320,192,189479,1,0,0:0:0:0:
192,192,189531,1,0,0:0:0:0:
64,192,189531,1,0,0:0:0:0:
320,192,189583,1,0,0:0:0:0:
448,192,189635,1,0,0:0:0:0:
64,192,189635,1,0,0:0:0:0:
192,192,189688,1,0,0:0:0:0:
320,192,189740,1,0,0:0:0:0:
448,192,189740,1,0,0:0:0:0:
64,192,189792,1,0,0:0:0:0:
192,192,189792,1,0,0:0:0:0:
320,192,189845,1,0,0:0:0:0:
448,192,189845,1,0,0:0:0:0:
192,192,189897,1,0,0:0:0:0:
64,192,189949,1,0,0:0:0:0:
448,192,189949,1,0,0:0:0:0:
320,192,190019,1,0,0:0:0:0:
192,192,190019,1,0,0:0:0:0:
320,192,190158,1,0,0:0:0:0:
448,192,190158,1,0,0:0:0:0:
320,192,190297,1,0,0:0:0:0:
448,192,190297,1,0,0:0:0:0:
192,192,190367,1,0,0:0:0:0:
64,192,190367,1,0,0:0:0:0:
320,192,190419,1,0,0:0:0:0:
448,192,190419,1,0,0:0:0:0:
192,192,190472,1,0,0:0:0:0:
64,192,190472,1,0,0:0:0:0:
320,192,190524,1,0,0:0:0:0:
448,192,190524,1,0,0:0:0:0:
64,192,190576,1,0,0:0:0:0:
192,192,190681,1,0,0:0:0:0:
448,192,190681,1,0,0:0:0:0:
320,192,190785,1,0,0:0:0:0:
448,192,190785,1,0,0:0:0:0:
192,192,190838,1,0,0:0:0:0:
64,192,190838,1,0,0:0:0:0:
320,192,190890,1,0,0:0:0:0:
448,192,190890,1,0,0:0:0:0:
64,192,190942,1,0,0:0:0:0:
192,192,190942,1,0,0:0:0:0:
320,192,190994,1,0,0:0:0:0:
448,192,190994,1,0,0:0:0:0:
64,192,191047,1,0,0:0:0:0:
192,192,191073,1,0,0:0:0:0:
320,192,191099,1,0,0:0:0:0:
448,192,191125,1,0,0:0:0:0:
64,192,191203,1,0,0:0:0:0:
192,192,191203,1,0,0:0:0:0:
320,192,191256,1,0,0:0:0:0:
448,192,191256,1,0,0:0:0:0:
192,192,191308,1,0,0:0:0:0:
64,192,191308,1,0,0:0:0:0:
320,192,191360,1,0,0:0:0:0:
448,192,191360,1,0,0:0:0:0:
192,192,191412,1,0,0:0:0:0:
64,192,191412,1,0,0:0:0:0:
320,192,191517,1,0,0:0:0:0:
448,192,191517,1,0,0:0:0:0:
448,192,191622,1,0,0:0:0:0:
320,192,191674,1,0,0:0:0:0:
192,192,191726,1,0,0:0:0:0:
64,192,191778,1,0,0:0:0:0:
320,192,191831,1,0,0:0:0:0:
448,192,191831,1,0,0:0:0:0:
448,192,191935,1,0,0:0:0:0:
192,192,192040,1,0,0:0:0:0:
64,192,192040,1,0,0:0:0:0:
320,192,192092,1,0,0:0:0:0:
448,192,192092,1,0,0:0:0:0:
192,192,192144,1,0,0:0:0:0:
64,192,192144,1,0,0:0:0:0:
320,192,192196,1,0,0:0:0:0:
448,192,192196,1,0,0:0:0:0:
192,192,192249,1,0,0:0:0:0:
64,192,192249,1,0,0:0:0:0:
320,192,192353,1,0,0:0:0:0:
64,192,192353,1,0,0:0:0:0:
192,192,192458,1,0,0:0:0:0:
320,192,192458,1,0,0:0:0:0:
448,192,192458,1,0,0:0:0:0:
64,192,192510,1,0,0:0:0:0:
192,192,192562,1,0,0:0:0:0:
320,192,192615,1,0,0:0:0:0:
448,192,192667,1,0,0:0:0:0:
192,192,192667,1,0,0:0:0:0:
64,192,192667,1,0,0:0:0:0:
320,192,192719,1,0,0:0:0:0:
448,192,192771,1,0,0:0:0:0:
64,192,192824,1,0,0:0:0:0:
192,192,192876,1,0,0:0:0:0:
320,192,192876,1,0,0:0:0:0:
448,192,192876,1,0,0:0:0:0:
64,192,192928,1,0,0:0:0:0:
448,192,192980,1,0,0:0:0:0:
320,192,193033,1,0,0:0:0:0:
192,192,193085,1,0,0:0:0:0:
64,192,193085,1,0,0:0:0:0:
320,192,193189,1,0,0:0:0:0:
448,192,193189,1,0,0:0:0:0:
64,192,193294,1,0,0:0:0:0:
320,192,193294,1,0,0:0:0:0:
448,192,193294,1,0,0:0:0:0:
192,192,193399,1,0,0:0:0:0:
192,192,193503,1,0,0:0:0:0:
320,192,193503,1,0,0:0:0:0:
64,192,193608,1,0,0:0:0:0:
320,192,193608,1,0,0:0:0:0:
320,192,193712,1,0,0:0:0:0:
448,192,193712,1,0,0:0:0:0:
192,192,193764,1,0,0:0:0:0:
64,192,193817,1,0,0:0:0:0:
448,192,193817,1,0,0:0:0:0:
320,192,193869,1,0,0:0:0:0:
192,192,193921,1,0,0:0:0:0:
64,192,193921,1,0,0:0:0:0:
320,192,193973,1,0,0:0:0:0:
448,192,194026,1,0,0:0:0:0:
64,192,194026,1,0,0:0:0:0:
192,192,194078,1,0,0:0:0:0:
320,192,194130,1,0,0:0:0:0:
448,192,194130,1,0,0:0:0:0:
64,192,194130,1,0,0:0:0:0:
192,192,194235,1,0,0:0:0:0:
320,192,194339,1,0,0:0:0:0:
448,192,194339,1,0,0:0:0:0:
192,192,194444,1,0,0:0:0:0:
448,192,194444,1,0,0:0:0:0:
320,192,194548,1,0,0:0:0:0:
448,192,194548,1,0,0:0:0:0:
64,192,194548,1,0,0:0:0:0:
64,192,194653,1,0,0:0:0:0:
192,192,194653,1,0,0:0:0:0:
192,192,194757,1,0,0:0:0:0:
320,192,194757,1,0,0:0:0:0:
448,192,194757,1,0,0:0:0:0:
64,192,194862,1,0,0:0:0:0:
320,192,194862,1,0,0:0:0:0:
192,192,194966,1,0,0:0:0:0:
64,192,194966,1,0,0:0:0:0:
192,192,195176,1,0,0:0:0:0:
320,192,195176,1,0,0:0:0:0:
448,192,195176,1,0,0:0:0:0:
192,192,195385,1,0,0:0:0:0:
64,192,195385,1,0,0:0:0:0:
320,192,195385,1,0,0:0:0:0:
320,192,195594,1,0,0:0:0:0:
448,192,195594,1,0,0:0:0:0:
192,192,195594,1,0,0:0:0:0:
64,192,195594,1,0,0:0:0:0:
