osu file format v14

[General]
AudioFilename: Evolution Canceler.mp3
AudioLeadIn: 0
PreviewTime: 108501
Countdown: 1
SampleSet: Soft
StackLeniency: 0.7
Mode: 3
LetterboxInBreaks: 0
SpecialStyle: 0
WidescreenStoryboard: 0

[Editor]
DistanceSpacing: 0.8
BeatDivisor: 2
GridSize: 8
TimelineZoom: 3

[Metadata]
Title:Kobaryo Pack
TitleUnicode:Kobaryo Pack
Artist:tprtm
ArtistUnicode:tprtm
Creator:_Sizuka_
Version:Evolution Canceler[Frolica]
Source:
Tags:
BeatmapID:1045239
BeatmapSetID:490375

[Difficulty]
HPDrainRate:8
CircleSize:4
OverallDifficulty:8
ApproachRate:5
SliderMultiplier:1.4
SliderTickRate:1

[Events]
//Background and Video events
0,0,"BG2.jpg",0,0
//Break Periods
//Storyboard Layer 0 (Background)
//Storyboard Layer 1 (Fail)
//Storyboard Layer 2 (Pass)
//Storyboard Layer 3 (Foreground)
//Storyboard Sound Samples

[TimingPoints]
158.485202115674,171.428571428571,4,2,0,0,1,0

[HitObjects]
64,192,22101,5,0,0:0:0:0:
192,192,22101,1,0,0:0:0:0:
320,192,22101,1,0,0:0:0:0:
64,192,22358,1,0,0:0:0:0:
192,192,22358,1,0,0:0:0:0:
64,192,22615,1,0,0:0:0:0:
192,192,22615,1,0,0:0:0:0:
320,192,22787,128,0,23129:0:0:0:0:
448,192,22787,128,0,23129:0:0:0:0:
64,192,23129,1,0,0:0:0:0:
192,192,23172,1,0,0:0:0:0:
320,192,23215,1,0,0:0:0:0:
448,192,23258,1,0,0:0:0:0:
64,192,23301,1,0,0:0:0:0:
192,192,23344,1,0,0:0:0:0:
320,192,23387,1,0,0:0:0:0:
64,192,23429,1,0,0:0:0:0:
192,192,23472,1,0,0:0:0:0:
320,192,23515,1,0,0:0:0:0:
448,192,23558,1,0,0:0:0:0:
192,192,23601,1,0,0:0:0:0:
320,192,23644,1,0,0:0:0:0:
448,192,23687,1,0,0:0:0:0:
64,192,23729,1,0,0:0:0:0:
192,192,23772,1,0,0:0:0:0:
320,192,23815,1,0,0:0:0:0:
448,192,23858,1,0,0:0:0:0:
64,192,23901,1,0,0:0:0:0:
192,192,23944,1,0,0:0:0:0:
320,192,23987,1,0,0:0:0:0:
448,192,24029,1,0,0:0:0:0:
64,192,24072,1,0,0:0:0:0:
192,192,24115,1,0,0:0:0:0:
448,192,24158,1,0,0:0:0:0:
320,192,24201,1,0,0:0:0:0:
192,192,24244,1,0,0:0:0:0:
64,192,24287,1,0,0:0:0:0:
448,192,24329,1,0,0:0:0:0:
320,192,24372,1,0,0:0:0:0:
192,192,24415,1,0,0:0:0:0:
64,192,24458,1,0,0:0:0:0:
448,192,24501,1,0,0:0:0:0:
320,192,24587,1,0,0:0:0:0:
192,192,24672,1,0,0:0:0:0:
64,192,24758,1,0,0:0:0:0:
192,192,24844,1,0,0:0:0:0:
320,192,24844,1,0,0:0:0:0:
448,192,24844,1,0,0:0:0:0:
320,192,25101,1,0,0:0:0:0:
448,192,25101,1,0,0:0:0:0:
320,192,25358,1,0,0:0:0:0:
448,192,25358,1,0,0:0:0:0:
192,192,25529,128,0,26215:0:0:0:0:
64,192,25529,128,0,26215:0:0:0:0:
320,192,26215,1,0,0:0:0:0:
448,192,26215,1,0,0:0:0:0:
320,192,26387,1,0,0:0:0:0:
448,192,26387,1,0,0:0:0:0:
320,192,26472,1,0,0:0:0:0:
448,192,26472,1,0,0:0:0:0:
64,192,26558,1,0,0:0:0:0:
192,192,26558,1,0,0:0:0:0:
64,192,26729,1,0,0:0:0:0:
192,192,26729,1,0,0:0:0:0:
320,192,26901,1,0,0:0:0:0:
448,192,26901,1,0,0:0:0:0:
320,192,26987,1,0,0:0:0:0:
448,192,26987,1,0,0:0:0:0:
64,192,27072,1,0,0:0:0:0:
192,192,27072,1,0,0:0:0:0:
64,192,27158,1,0,0:0:0:0:
192,192,27158,1,0,0:0:0:0:
320,192,27244,128,0,27587:0:0:0:0:
64,192,27587,1,0,0:0:0:0:
192,192,27587,1,0,0:0:0:0:
448,192,27587,1,0,0:0:0:0:
192,192,27844,1,0,0:0:0:0:
64,192,27844,1,0,0:0:0:0:
64,192,28101,1,0,0:0:0:0:
192,192,28101,1,0,0:0:0:0:
320,192,28272,128,0,28615:0:0:0:0:
448,192,28272,128,0,28615:0:0:0:0:
64,192,28615,1,0,0:0:0:0:
192,192,28658,1,0,0:0:0:0:
320,192,28701,1,0,0:0:0:0:
448,192,28744,1,0,0:0:0:0:
192,192,28787,1,0,0:0:0:0:
320,192,28829,1,0,0:0:0:0:
448,192,28872,1,0,0:0:0:0:
64,192,28915,1,0,0:0:0:0:
192,192,28958,1,0,0:0:0:0:
320,192,29001,1,0,0:0:0:0:
448,192,29044,1,0,0:0:0:0:
64,192,29087,1,0,0:0:0:0:
192,192,29129,1,0,0:0:0:0:
320,192,29172,1,0,0:0:0:0:
64,192,29215,1,0,0:0:0:0:
192,192,29258,1,0,0:0:0:0:
320,192,29301,1,0,0:0:0:0:
448,192,29344,1,0,0:0:0:0:
64,192,29387,1,0,0:0:0:0:
192,192,29429,1,0,0:0:0:0:
320,192,29472,1,0,0:0:0:0:
448,192,29515,1,0,0:0:0:0:
64,192,29558,1,0,0:0:0:0:
192,192,29601,1,0,0:0:0:0:
448,192,29644,1,0,0:0:0:0:
320,192,29687,1,0,0:0:0:0:
192,192,29729,1,0,0:0:0:0:
64,192,29772,1,0,0:0:0:0:
448,192,29815,1,0,0:0:0:0:
320,192,29858,1,0,0:0:0:0:
192,192,29901,1,0,0:0:0:0:
64,192,29944,1,0,0:0:0:0:
448,192,29987,1,0,0:0:0:0:
320,192,30072,1,0,0:0:0:0:
192,192,30158,1,0,0:0:0:0:
64,192,30244,1,0,0:0:0:0:
192,192,30329,1,0,0:0:0:0:
320,192,30329,1,0,0:0:0:0:
448,192,30329,1,0,0:0:0:0:
320,192,30587,1,0,0:0:0:0:
448,192,30587,1,0,0:0:0:0:
320,192,30844,1,0,0:0:0:0:
448,192,30844,1,0,0:0:0:0:
64,192,31015,128,0,31701:0:0:0:0:
192,192,31015,128,0,31701:0:0:0:0:
320,192,31701,1,0,0:0:0:0:
448,192,31701,1,0,0:0:0:0:
64,192,31872,1,0,0:0:0:0:
192,192,31872,1,0,0:0:0:0:
64,192,31958,1,0,0:0:0:0:
192,192,31958,1,0,0:0:0:0:
320,192,32044,1,0,0:0:0:0:
448,192,32044,1,0,0:0:0:0:
320,192,32215,1,0,0:0:0:0:
448,192,32215,1,0,0:0:0:0:
64,192,32387,1,0,0:0:0:0:
192,192,32387,1,0,0:0:0:0:
64,192,32472,1,0,0:0:0:0:
192,192,32472,1,0,0:0:0:0:
320,192,32558,1,0,0:0:0:0:
448,192,32558,1,0,0:0:0:0:
320,192,32644,1,0,0:0:0:0:
448,192,32644,1,0,0:0:0:0:
64,192,32729,128,0,33072:0:0:0:0:
192,192,32729,128,0,33072:0:0:0:0:
320,192,33072,1,0,0:0:0:0:
448,192,33072,1,0,0:0:0:0:
192,192,33158,1,0,0:0:0:0:
448,192,33244,1,0,0:0:0:0:
64,192,33244,1,0,0:0:0:0:
192,192,33329,1,0,0:0:0:0:
320,192,33415,1,0,0:0:0:0:
192,192,33501,1,0,0:0:0:0:
320,192,33587,1,0,0:0:0:0:
448,192,33672,1,0,0:0:0:0:
320,192,33758,1,0,0:0:0:0:
64,192,33758,1,0,0:0:0:0:
192,192,33844,1,0,0:0:0:0:
320,192,33929,1,0,0:0:0:0:
64,192,34015,1,0,0:0:0:0:
448,192,34101,1,0,0:0:0:0:
192,192,34101,1,0,0:0:0:0:
320,192,34187,1,0,0:0:0:0:
448,192,34272,1,0,0:0:0:0:
192,192,34358,1,0,0:0:0:0:
448,192,34444,1,0,0:0:0:0:
64,192,34444,1,0,0:0:0:0:
320,192,34529,1,0,0:0:0:0:
448,192,34615,1,0,0:0:0:0:
64,192,34615,1,0,0:0:0:0:
192,192,34701,1,0,0:0:0:0:
320,192,34787,1,0,0:0:0:0:
448,192,34872,1,0,0:0:0:0:
320,192,34958,1,0,0:0:0:0:
192,192,35044,1,0,0:0:0:0:
448,192,35129,1,0,0:0:0:0:
320,192,35129,1,0,0:0:0:0:
64,192,35215,1,0,0:0:0:0:
192,192,35301,1,0,0:0:0:0:
320,192,35387,1,0,0:0:0:0:
448,192,35472,1,0,0:0:0:0:
192,192,35558,1,0,0:0:0:0:
320,192,35644,1,0,0:0:0:0:
448,192,35729,1,0,0:0:0:0:
192,192,35815,1,0,0:0:0:0:
64,192,35815,1,0,0:0:0:0:
320,192,35901,1,0,0:0:0:0:
448,192,35987,1,0,0:0:0:0:
64,192,35987,1,0,0:0:0:0:
320,192,36072,1,0,0:0:0:0:
192,192,36072,1,0,0:0:0:0:
448,192,36158,1,0,0:0:0:0:
64,192,36158,1,0,0:0:0:0:
320,192,36244,1,0,0:0:0:0:
192,192,36329,1,0,0:0:0:0:
448,192,36415,1,0,0:0:0:0:
192,192,36501,1,0,0:0:0:0:
64,192,36501,1,0,0:0:0:0:
448,192,36587,1,0,0:0:0:0:
320,192,36672,1,0,0:0:0:0:
64,192,36672,1,0,0:0:0:0:
192,192,36758,1,0,0:0:0:0:
448,192,36844,1,0,0:0:0:0:
64,192,36844,1,0,0:0:0:0:
320,192,36929,1,0,0:0:0:0:
448,192,37015,1,0,0:0:0:0:
192,192,37015,1,0,0:0:0:0:
64,192,37101,1,0,0:0:0:0:
192,192,37187,1,0,0:0:0:0:
64,192,37272,1,0,0:0:0:0:
192,192,37358,1,0,0:0:0:0:
320,192,37444,5,0,0:0:0:0:
448,192,37529,1,0,0:0:0:0:
320,192,37615,1,0,0:0:0:0:
192,192,37701,1,0,0:0:0:0:
64,192,37787,1,0,0:0:0:0:
320,192,37872,1,0,0:0:0:0:
448,192,37958,1,0,0:0:0:0:
320,192,38044,1,0,0:0:0:0:
192,192,38129,1,0,0:0:0:0:
64,192,38215,1,0,0:0:0:0:
192,192,38301,1,0,0:0:0:0:
320,192,38387,1,0,0:0:0:0:
448,192,38472,1,0,0:0:0:0:
64,192,38558,1,0,0:0:0:0:
192,192,38558,1,0,0:0:0:0:
320,192,38644,1,0,0:0:0:0:
64,192,38729,1,0,0:0:0:0:
448,192,38729,1,0,0:0:0:0:
192,192,38815,1,0,0:0:0:0:
320,192,38901,1,0,0:0:0:0:
192,192,38987,1,0,0:0:0:0:
320,192,39072,1,0,0:0:0:0:
448,192,39158,1,0,0:0:0:0:
64,192,39244,1,0,0:0:0:0:
320,192,39244,1,0,0:0:0:0:
448,192,39329,1,0,0:0:0:0:
320,192,39415,1,0,0:0:0:0:
192,192,39501,1,0,0:0:0:0:
448,192,39587,1,0,0:0:0:0:
64,192,39587,1,0,0:0:0:0:
320,192,39672,1,0,0:0:0:0:
192,192,39758,1,0,0:0:0:0:
320,192,39844,1,0,0:0:0:0:
64,192,39929,1,0,0:0:0:0:
448,192,39929,1,0,0:0:0:0:
192,192,40015,1,0,0:0:0:0:
64,192,40101,1,0,0:0:0:0:
448,192,40101,1,0,0:0:0:0:
192,192,40187,1,0,0:0:0:0:
320,192,40272,1,0,0:0:0:0:
448,192,40358,1,0,0:0:0:0:
320,192,40444,1,0,0:0:0:0:
192,192,40529,1,0,0:0:0:0:
320,192,40615,1,0,0:0:0:0:
448,192,40615,1,0,0:0:0:0:
64,192,40701,1,0,0:0:0:0:
192,192,40787,1,0,0:0:0:0:
320,192,40872,1,0,0:0:0:0:
448,192,40958,1,0,0:0:0:0:
192,192,41044,1,0,0:0:0:0:
320,192,41129,1,0,0:0:0:0:
448,192,41215,1,0,0:0:0:0:
64,192,41301,1,0,0:0:0:0:
192,192,41301,1,0,0:0:0:0:
320,192,41387,1,0,0:0:0:0:
64,192,41472,1,0,0:0:0:0:
448,192,41472,1,0,0:0:0:0:
192,192,41558,5,0,0:0:0:0:
320,192,41558,1,0,0:0:0:0:
64,192,41644,1,0,0:0:0:0:
448,192,41644,1,0,0:0:0:0:
320,192,41729,1,0,0:0:0:0:
192,192,41815,1,0,0:0:0:0:
448,192,41901,1,0,0:0:0:0:
64,192,41987,1,0,0:0:0:0:
192,192,41987,1,0,0:0:0:0:
448,192,42072,1,0,0:0:0:0:
64,192,42158,1,0,0:0:0:0:
320,192,42158,1,0,0:0:0:0:
192,192,42244,1,0,0:0:0:0:
64,192,42329,1,0,0:0:0:0:
448,192,42329,1,0,0:0:0:0:
320,192,42415,1,0,0:0:0:0:
192,192,42501,1,0,0:0:0:0:
448,192,42501,1,0,0:0:0:0:
64,192,42672,128,0,42887:0:0:0:0:
192,192,42672,128,0,42887:0:0:0:0:
320,192,42929,128,0,43144:0:0:0:0:
448,192,42929,128,0,43144:0:0:0:0:
320,192,43187,1,0,0:0:0:0:
448,192,43187,1,0,0:0:0:0:
64,192,43272,128,0,43487:0:0:0:0:
192,192,43272,128,0,43487:0:0:0:0:
64,192,43529,1,0,0:0:0:0:
192,192,43529,1,0,0:0:0:0:
64,192,43701,128,0,44001:0:0:0:0:
192,192,43701,128,0,44001:0:0:0:0:
320,192,43701,128,0,44001:0:0:0:0:
448,192,43701,128,0,44001:0:0:0:0:
192,192,44044,1,0,0:0:0:0:
320,192,44044,1,0,0:0:0:0:
448,192,44044,1,0,0:0:0:0:
192,192,44215,1,0,0:0:0:0:
320,192,44215,1,0,0:0:0:0:
448,192,44215,1,0,0:0:0:0:
448,192,44387,1,0,0:0:0:0:
320,192,44387,1,0,0:0:0:0:
64,192,44387,1,0,0:0:0:0:
320,192,44558,1,0,0:0:0:0:
448,192,44558,1,0,0:0:0:0:
64,192,44558,1,0,0:0:0:0:
320,192,44729,1,0,0:0:0:0:
448,192,44729,1,0,0:0:0:0:
192,192,44729,1,0,0:0:0:0:
320,192,44901,1,0,0:0:0:0:
448,192,44901,1,0,0:0:0:0:
192,192,44901,1,0,0:0:0:0:
448,192,45072,1,0,0:0:0:0:
320,192,45072,1,0,0:0:0:0:
64,192,45072,1,0,0:0:0:0:
64,192,45244,1,0,0:0:0:0:
320,192,45244,1,0,0:0:0:0:
448,192,45244,1,0,0:0:0:0:
64,192,45415,1,0,0:0:0:0:
192,192,45415,1,0,0:0:0:0:
320,192,45415,1,0,0:0:0:0:
64,192,45587,1,0,0:0:0:0:
192,192,45587,1,0,0:0:0:0:
320,192,45587,1,0,0:0:0:0:
64,192,45758,1,0,0:0:0:0:
192,192,45758,1,0,0:0:0:0:
448,192,45758,1,0,0:0:0:0:
64,192,45929,1,0,0:0:0:0:
192,192,45929,1,0,0:0:0:0:
448,192,45929,1,0,0:0:0:0:
64,192,46101,1,0,0:0:0:0:
192,192,46101,1,0,0:0:0:0:
320,192,46101,1,0,0:0:0:0:
64,192,46272,1,0,0:0:0:0:
192,192,46272,1,0,0:0:0:0:
320,192,46272,1,0,0:0:0:0:
192,192,46444,128,0,46744:0:0:0:0:
320,192,46444,128,0,46744:0:0:0:0:
64,192,46787,1,0,0:0:0:0:
192,192,46787,1,0,0:0:0:0:
320,192,46787,1,0,0:0:0:0:
64,192,46958,1,0,0:0:0:0:
320,192,46958,1,0,0:0:0:0:
192,192,46958,1,0,0:0:0:0:
64,192,47129,1,0,0:0:0:0:
192,192,47129,1,0,0:0:0:0:
448,192,47129,1,0,0:0:0:0:
64,192,47301,1,0,0:0:0:0:
448,192,47301,1,0,0:0:0:0:
192,192,47301,1,0,0:0:0:0:
64,192,47472,1,0,0:0:0:0:
192,192,47472,1,0,0:0:0:0:
320,192,47472,1,0,0:0:0:0:
64,192,47644,1,0,0:0:0:0:
320,192,47644,1,0,0:0:0:0:
192,192,47644,1,0,0:0:0:0:
64,192,47815,1,0,0:0:0:0:
192,192,47815,1,0,0:0:0:0:
448,192,47815,1,0,0:0:0:0:
64,192,47987,1,0,0:0:0:0:
448,192,47987,1,0,0:0:0:0:
192,192,47987,1,0,0:0:0:0:
192,192,48158,1,0,0:0:0:0:
320,192,48158,1,0,0:0:0:0:
448,192,48158,1,0,0:0:0:0:
448,192,48329,1,0,0:0:0:0:
320,192,48329,1,0,0:0:0:0:
192,192,48329,1,0,0:0:0:0:
64,192,48501,1,0,0:0:0:0:
320,192,48501,1,0,0:0:0:0:
448,192,48501,1,0,0:0:0:0:
448,192,48672,1,0,0:0:0:0:
320,192,48672,1,0,0:0:0:0:
64,192,48672,1,0,0:0:0:0:
192,192,48844,1,0,0:0:0:0:
320,192,48844,1,0,0:0:0:0:
448,192,48844,1,0,0:0:0:0:
192,192,48929,1,0,0:0:0:0:
320,192,48929,1,0,0:0:0:0:
448,192,48929,1,0,0:0:0:0:
448,192,49015,1,0,0:0:0:0:
320,192,49015,1,0,0:0:0:0:
192,192,49015,1,0,0:0:0:0:
64,192,49187,128,0,49487:0:0:0:0:
192,192,49187,128,0,49487:0:0:0:0:
320,192,49187,128,0,49487:0:0:0:0:
448,192,49187,128,0,49487:0:0:0:0:
320,192,49529,1,0,0:0:0:0:
192,192,49529,1,0,0:0:0:0:
64,192,49529,1,0,0:0:0:0:
64,192,49701,1,0,0:0:0:0:
320,192,49701,1,0,0:0:0:0:
192,192,49701,1,0,0:0:0:0:
448,192,49872,1,0,0:0:0:0:
320,192,49872,1,0,0:0:0:0:
64,192,49872,1,0,0:0:0:0:
448,192,50044,1,0,0:0:0:0:
64,192,50044,1,0,0:0:0:0:
320,192,50044,1,0,0:0:0:0:
192,192,50215,1,0,0:0:0:0:
64,192,50215,1,0,0:0:0:0:
320,192,50215,1,0,0:0:0:0:
192,192,50387,1,0,0:0:0:0:
64,192,50387,1,0,0:0:0:0:
320,192,50387,1,0,0:0:0:0:
448,192,50558,1,0,0:0:0:0:
320,192,50558,1,0,0:0:0:0:
64,192,50558,1,0,0:0:0:0:
64,192,50729,1,0,0:0:0:0:
320,192,50729,1,0,0:0:0:0:
448,192,50729,1,0,0:0:0:0:
320,192,50901,1,0,0:0:0:0:
192,192,50901,1,0,0:0:0:0:
448,192,50901,1,0,0:0:0:0:
320,192,51072,1,0,0:0:0:0:
192,192,51072,1,0,0:0:0:0:
448,192,51072,1,0,0:0:0:0:
64,192,51244,1,0,0:0:0:0:
192,192,51244,1,0,0:0:0:0:
448,192,51244,1,0,0:0:0:0:
64,192,51415,1,0,0:0:0:0:
192,192,51415,1,0,0:0:0:0:
448,192,51415,1,0,0:0:0:0:
320,192,51587,1,0,0:0:0:0:
192,192,51587,1,0,0:0:0:0:
448,192,51587,1,0,0:0:0:0:
320,192,51758,1,0,0:0:0:0:
192,192,51758,1,0,0:0:0:0:
448,192,51758,1,0,0:0:0:0:
192,192,51929,128,0,52229:0:0:0:0:
320,192,51929,128,0,52229:0:0:0:0:
320,192,52272,1,0,0:0:0:0:
192,192,52272,1,0,0:0:0:0:
448,192,52272,1,0,0:0:0:0:
192,192,52444,1,0,0:0:0:0:
320,192,52444,1,0,0:0:0:0:
448,192,52444,1,0,0:0:0:0:
64,192,52615,1,0,0:0:0:0:
192,192,52615,1,0,0:0:0:0:
448,192,52615,1,0,0:0:0:0:
192,192,52787,1,0,0:0:0:0:
64,192,52787,1,0,0:0:0:0:
448,192,52787,1,0,0:0:0:0:
320,192,52958,1,0,0:0:0:0:
192,192,52958,1,0,0:0:0:0:
448,192,52958,1,0,0:0:0:0:
192,192,53129,1,0,0:0:0:0:
320,192,53129,1,0,0:0:0:0:
448,192,53129,1,0,0:0:0:0:
64,192,53301,1,0,0:0:0:0:
192,192,53301,1,0,0:0:0:0:
448,192,53301,1,0,0:0:0:0:
192,192,53472,1,0,0:0:0:0:
64,192,53472,1,0,0:0:0:0:
448,192,53472,1,0,0:0:0:0:
192,192,53644,128,0,53944:0:0:0:0:
320,192,53644,128,0,53944:0:0:0:0:
64,192,53987,1,0,0:0:0:0:
448,192,53987,1,0,0:0:0:0:
192,192,53987,1,0,0:0:0:0:
320,192,53987,1,0,0:0:0:0:
192,192,54158,1,0,0:0:0:0:
320,192,54158,1,0,0:0:0:0:
320,192,54329,1,0,0:0:0:0:
448,192,54329,1,0,0:0:0:0:
64,192,54329,1,0,0:0:0:0:
320,192,54415,1,0,0:0:0:0:
448,192,54415,1,0,0:0:0:0:
192,192,54501,1,0,0:0:0:0:
64,192,54501,1,0,0:0:0:0:
448,192,54501,1,0,0:0:0:0:
64,192,54587,1,0,0:0:0:0:
192,192,54587,1,0,0:0:0:0:
320,192,54672,128,0,54972:0:0:0:0:
64,192,54672,128,0,54972:0:0:0:0:
448,192,54672,128,0,54972:0:0:0:0:
192,192,54672,128,0,54972:0:0:0:0:
64,192,55015,1,0,0:0:0:0:
320,192,55015,1,0,0:0:0:0:
448,192,55015,1,0,0:0:0:0:
192,192,55101,1,0,0:0:0:0:
64,192,55187,1,0,0:0:0:0:
320,192,55187,1,0,0:0:0:0:
448,192,55187,1,0,0:0:0:0:
192,192,55272,1,0,0:0:0:0:
64,192,55358,1,0,0:0:0:0:
320,192,55358,1,0,0:0:0:0:
448,192,55358,1,0,0:0:0:0:
192,192,55444,1,0,0:0:0:0:
64,192,55529,1,0,0:0:0:0:
320,192,55529,1,0,0:0:0:0:
448,192,55529,1,0,0:0:0:0:
192,192,55615,1,0,0:0:0:0:
64,192,55701,1,0,0:0:0:0:
192,192,55701,1,0,0:0:0:0:
320,192,55701,1,0,0:0:0:0:
448,192,55787,1,0,0:0:0:0:
64,192,55872,1,0,0:0:0:0:
192,192,55872,1,0,0:0:0:0:
320,192,55872,1,0,0:0:0:0:
448,192,55958,1,0,0:0:0:0:
64,192,56044,1,0,0:0:0:0:
192,192,56044,1,0,0:0:0:0:
320,192,56044,1,0,0:0:0:0:
448,192,56129,1,0,0:0:0:0:
64,192,56215,1,0,0:0:0:0:
192,192,56215,1,0,0:0:0:0:
320,192,56215,1,0,0:0:0:0:
448,192,56301,1,0,0:0:0:0:
64,192,56387,1,0,0:0:0:0:
320,192,56387,1,0,0:0:0:0:
448,192,56387,1,0,0:0:0:0:
192,192,56472,1,0,0:0:0:0:
64,192,56558,1,0,0:0:0:0:
320,192,56558,1,0,0:0:0:0:
448,192,56558,1,0,0:0:0:0:
192,192,56644,1,0,0:0:0:0:
64,192,56729,1,0,0:0:0:0:
320,192,56729,1,0,0:0:0:0:
448,192,56729,1,0,0:0:0:0:
192,192,56815,1,0,0:0:0:0:
320,192,56901,1,0,0:0:0:0:
448,192,56901,1,0,0:0:0:0:
64,192,56901,1,0,0:0:0:0:
320,192,56987,1,0,0:0:0:0:
448,192,56987,1,0,0:0:0:0:
192,192,57072,128,0,57372:0:0:0:0:
64,192,57072,128,0,57372:0:0:0:0:
64,192,57415,128,0,57715:0:0:0:0:
192,192,57415,128,0,57715:0:0:0:0:
320,192,57415,128,0,57715:0:0:0:0:
448,192,57415,128,0,57715:0:0:0:0:
64,192,57758,1,0,0:0:0:0:
448,192,57758,1,0,0:0:0:0:
192,192,57758,1,0,0:0:0:0:
320,192,57844,1,0,0:0:0:0:
448,192,57929,1,0,0:0:0:0:
192,192,57929,1,0,0:0:0:0:
64,192,57929,1,0,0:0:0:0:
320,192,58015,1,0,0:0:0:0:
448,192,58101,1,0,0:0:0:0:
192,192,58101,1,0,0:0:0:0:
64,192,58101,1,0,0:0:0:0:
320,192,58187,1,0,0:0:0:0:
448,192,58272,1,0,0:0:0:0:
192,192,58272,1,0,0:0:0:0:
64,192,58272,1,0,0:0:0:0:
320,192,58358,1,0,0:0:0:0:
448,192,58444,1,0,0:0:0:0:
320,192,58444,1,0,0:0:0:0:
192,192,58444,1,0,0:0:0:0:
64,192,58529,1,0,0:0:0:0:
448,192,58615,1,0,0:0:0:0:
320,192,58615,1,0,0:0:0:0:
192,192,58615,1,0,0:0:0:0:
64,192,58701,1,0,0:0:0:0:
448,192,58787,1,0,0:0:0:0:
320,192,58787,1,0,0:0:0:0:
192,192,58787,1,0,0:0:0:0:
64,192,58872,1,0,0:0:0:0:
448,192,58958,1,0,0:0:0:0:
320,192,58958,1,0,0:0:0:0:
192,192,58958,1,0,0:0:0:0:
64,192,59044,1,0,0:0:0:0:
448,192,59129,1,0,0:0:0:0:
320,192,59129,1,0,0:0:0:0:
448,192,59301,1,0,0:0:0:0:
320,192,59301,1,0,0:0:0:0:
192,192,59472,1,0,0:0:0:0:
64,192,59472,1,0,0:0:0:0:
64,192,59558,1,0,0:0:0:0:
192,192,59558,1,0,0:0:0:0:
192,192,59644,1,0,0:0:0:0:
64,192,59644,1,0,0:0:0:0:
320,192,59815,128,0,60115:0:0:0:0:
448,192,59815,128,0,60115:0:0:0:0:
64,192,59987,1,0,0:0:0:0:
192,192,59987,1,0,0:0:0:0:
448,192,60158,128,0,60458:0:0:0:0:
320,192,60158,128,0,60458:0:0:0:0:
192,192,60158,128,0,60458:0:0:0:0:
64,192,60158,128,0,60458:0:0:0:0:
320,192,60501,1,0,0:0:0:0:
64,192,60501,1,0,0:0:0:0:
448,192,60501,1,0,0:0:0:0:
192,192,60587,1,0,0:0:0:0:
320,192,60672,1,0,0:0:0:0:
448,192,60672,1,0,0:0:0:0:
64,192,60672,1,0,0:0:0:0:
192,192,60758,1,0,0:0:0:0:
448,192,60844,1,0,0:0:0:0:
320,192,60844,1,0,0:0:0:0:
64,192,60844,1,0,0:0:0:0:
192,192,60929,1,0,0:0:0:0:
448,192,61015,1,0,0:0:0:0:
320,192,61015,1,0,0:0:0:0:
64,192,61015,1,0,0:0:0:0:
192,192,61101,1,0,0:0:0:0:
320,192,61187,1,0,0:0:0:0:
64,192,61187,1,0,0:0:0:0:
192,192,61187,1,0,0:0:0:0:
448,192,61272,1,0,0:0:0:0:
192,192,61358,1,0,0:0:0:0:
320,192,61358,1,0,0:0:0:0:
64,192,61358,1,0,0:0:0:0:
448,192,61444,1,0,0:0:0:0:
320,192,61529,1,0,0:0:0:0:
64,192,61529,1,0,0:0:0:0:
192,192,61529,1,0,0:0:0:0:
448,192,61615,1,0,0:0:0:0:
192,192,61701,1,0,0:0:0:0:
320,192,61701,1,0,0:0:0:0:
64,192,61701,1,0,0:0:0:0:
448,192,61787,1,0,0:0:0:0:
320,192,61872,1,0,0:0:0:0:
64,192,61872,1,0,0:0:0:0:
448,192,61872,1,0,0:0:0:0:
192,192,61958,1,0,0:0:0:0:
64,192,62044,1,0,0:0:0:0:
448,192,62044,1,0,0:0:0:0:
320,192,62044,1,0,0:0:0:0:
192,192,62129,1,0,0:0:0:0:
64,192,62215,1,0,0:0:0:0:
320,192,62215,1,0,0:0:0:0:
448,192,62215,1,0,0:0:0:0:
320,192,62301,1,0,0:0:0:0:
448,192,62301,1,0,0:0:0:0:
64,192,62301,1,0,0:0:0:0:
64,192,62387,1,0,0:0:0:0:
448,192,62387,1,0,0:0:0:0:
192,192,62387,1,0,0:0:0:0:
64,192,62472,1,0,0:0:0:0:
448,192,62472,1,0,0:0:0:0:
192,192,62472,1,0,0:0:0:0:
448,192,62558,128,0,62858:0:0:0:0:
320,192,62558,128,0,62858:0:0:0:0:
192,192,62901,128,0,63201:0:0:0:0:
64,192,62901,128,0,63201:0:0:0:0:
448,192,62901,128,0,63201:0:0:0:0:
320,192,62901,128,0,63201:0:0:0:0:
448,192,63244,1,0,0:0:0:0:
64,192,63244,1,0,0:0:0:0:
192,192,63244,1,0,0:0:0:0:
320,192,63329,1,0,0:0:0:0:
64,192,63415,1,0,0:0:0:0:
448,192,63415,1,0,0:0:0:0:
320,192,63501,1,0,0:0:0:0:
64,192,63587,1,0,0:0:0:0:
192,192,63587,1,0,0:0:0:0:
448,192,63587,1,0,0:0:0:0:
320,192,63587,1,0,0:0:0:0:
192,192,63672,1,0,0:0:0:0:
448,192,63758,1,0,0:0:0:0:
64,192,63758,1,0,0:0:0:0:
192,192,63844,1,0,0:0:0:0:
320,192,63929,1,0,0:0:0:0:
192,192,63929,1,0,0:0:0:0:
448,192,63929,1,0,0:0:0:0:
64,192,63929,1,0,0:0:0:0:
320,192,64015,1,0,0:0:0:0:
192,192,64101,1,0,0:0:0:0:
448,192,64101,1,0,0:0:0:0:
320,192,64187,1,0,0:0:0:0:
192,192,64272,1,0,0:0:0:0:
64,192,64272,1,0,0:0:0:0:
320,192,64272,1,0,0:0:0:0:
448,192,64272,1,0,0:0:0:0:
64,192,64358,1,0,0:0:0:0:
192,192,64358,1,0,0:0:0:0:
320,192,64444,1,0,0:0:0:0:
448,192,64444,1,0,0:0:0:0:
320,192,64529,1,0,0:0:0:0:
448,192,64529,1,0,0:0:0:0:
320,192,64615,1,0,0:0:0:0:
448,192,64615,1,0,0:0:0:0:
64,192,64615,1,0,0:0:0:0:
192,192,64615,1,0,0:0:0:0:
64,192,64701,1,0,0:0:0:0:
448,192,64787,1,0,0:0:0:0:
192,192,64787,1,0,0:0:0:0:
320,192,64872,1,0,0:0:0:0:
192,192,64958,1,0,0:0:0:0:
64,192,64958,1,0,0:0:0:0:
320,192,64958,1,0,0:0:0:0:
448,192,64958,1,0,0:0:0:0:
448,192,65044,1,0,0:0:0:0:
64,192,65129,1,0,0:0:0:0:
320,192,65129,1,0,0:0:0:0:
192,192,65215,1,0,0:0:0:0:
448,192,65301,5,0,0:0:0:0:
320,192,65301,1,0,0:0:0:0:
64,192,65301,1,0,0:0:0:0:
320,192,65387,1,0,0:0:0:0:
448,192,65387,1,0,0:0:0:0:
64,192,65472,1,0,0:0:0:0:
192,192,65472,1,0,0:0:0:0:
448,192,65472,1,0,0:0:0:0:
64,192,65558,1,0,0:0:0:0:
192,192,65558,1,0,0:0:0:0:
64,192,65644,128,0,65944:0:0:0:0:
448,192,65644,128,0,65944:0:0:0:0:
320,192,65644,128,0,65944:0:0:0:0:
192,192,65644,128,0,65944:0:0:0:0:
64,192,65987,1,0,0:0:0:0:
192,192,65987,1,0,0:0:0:0:
448,192,65987,1,0,0:0:0:0:
192,192,66072,1,0,0:0:0:0:
64,192,66158,1,0,0:0:0:0:
448,192,66158,1,0,0:0:0:0:
320,192,66158,1,0,0:0:0:0:
192,192,66244,1,0,0:0:0:0:
64,192,66329,5,0,0:0:0:0:
192,192,66329,1,0,0:0:0:0:
320,192,66329,1,0,0:0:0:0:
448,192,66329,1,0,0:0:0:0:
320,192,66415,1,0,0:0:0:0:
64,192,66501,1,0,0:0:0:0:
192,192,66501,1,0,0:0:0:0:
448,192,66501,1,0,0:0:0:0:
448,192,66587,1,0,0:0:0:0:
64,192,66672,1,0,0:0:0:0:
192,192,66672,1,0,0:0:0:0:
320,192,66672,1,0,0:0:0:0:
64,192,66758,1,0,0:0:0:0:
192,192,66758,1,0,0:0:0:0:
64,192,66844,1,0,0:0:0:0:
192,192,66844,1,0,0:0:0:0:
448,192,66844,1,0,0:0:0:0:
320,192,66929,1,0,0:0:0:0:
64,192,67015,1,0,0:0:0:0:
192,192,67015,1,0,0:0:0:0:
320,192,67015,1,0,0:0:0:0:
448,192,67015,1,0,0:0:0:0:
64,192,67101,1,0,0:0:0:0:
192,192,67187,1,0,0:0:0:0:
320,192,67187,1,0,0:0:0:0:
448,192,67187,1,0,0:0:0:0:
192,192,67272,1,0,0:0:0:0:
64,192,67358,1,0,0:0:0:0:
320,192,67358,1,0,0:0:0:0:
448,192,67358,1,0,0:0:0:0:
320,192,67444,1,0,0:0:0:0:
64,192,67529,1,0,0:0:0:0:
192,192,67529,1,0,0:0:0:0:
448,192,67529,1,0,0:0:0:0:
320,192,67615,1,0,0:0:0:0:
64,192,67701,1,0,0:0:0:0:
192,192,67701,1,0,0:0:0:0:
320,192,67701,1,0,0:0:0:0:
448,192,67701,1,0,0:0:0:0:
64,192,67787,1,0,0:0:0:0:
320,192,67872,1,0,0:0:0:0:
448,192,67872,1,0,0:0:0:0:
192,192,67872,1,0,0:0:0:0:
320,192,67958,1,0,0:0:0:0:
192,192,68044,1,0,0:0:0:0:
448,192,68044,1,0,0:0:0:0:
64,192,68044,1,0,0:0:0:0:
192,192,68129,1,0,0:0:0:0:
320,192,68215,1,0,0:0:0:0:
448,192,68215,1,0,0:0:0:0:
64,192,68215,1,0,0:0:0:0:
320,192,68301,1,0,0:0:0:0:
448,192,68301,1,0,0:0:0:0:
64,192,68387,1,0,0:0:0:0:
192,192,68387,1,0,0:0:0:0:
320,192,68387,1,0,0:0:0:0:
448,192,68387,1,0,0:0:0:0:
192,192,68472,1,0,0:0:0:0:
64,192,68558,1,0,0:0:0:0:
320,192,68558,1,0,0:0:0:0:
448,192,68558,1,0,0:0:0:0:
320,192,68644,1,0,0:0:0:0:
64,192,68729,1,0,0:0:0:0:
192,192,68729,1,0,0:0:0:0:
448,192,68729,1,0,0:0:0:0:
192,192,68815,1,0,0:0:0:0:
64,192,68901,1,0,0:0:0:0:
448,192,68901,1,0,0:0:0:0:
320,192,68901,1,0,0:0:0:0:
192,192,68987,1,0,0:0:0:0:
64,192,69072,5,0,0:0:0:0:
320,192,69072,1,0,0:0:0:0:
192,192,69072,1,0,0:0:0:0:
448,192,69072,1,0,0:0:0:0:
320,192,69158,1,0,0:0:0:0:
64,192,69244,1,0,0:0:0:0:
192,192,69244,1,0,0:0:0:0:
448,192,69244,1,0,0:0:0:0:
448,192,69329,1,0,0:0:0:0:
64,192,69415,1,0,0:0:0:0:
192,192,69415,1,0,0:0:0:0:
320,192,69415,1,0,0:0:0:0:
64,192,69501,1,0,0:0:0:0:
192,192,69501,1,0,0:0:0:0:
64,192,69587,1,0,0:0:0:0:
192,192,69587,1,0,0:0:0:0:
448,192,69587,1,0,0:0:0:0:
320,192,69672,1,0,0:0:0:0:
64,192,69758,1,0,0:0:0:0:
192,192,69758,1,0,0:0:0:0:
320,192,69758,1,0,0:0:0:0:
448,192,69758,1,0,0:0:0:0:
64,192,69844,1,0,0:0:0:0:
192,192,69929,1,0,0:0:0:0:
320,192,69929,1,0,0:0:0:0:
448,192,69929,1,0,0:0:0:0:
192,192,70015,1,0,0:0:0:0:
64,192,70101,1,0,0:0:0:0:
320,192,70101,1,0,0:0:0:0:
448,192,70101,1,0,0:0:0:0:
320,192,70187,1,0,0:0:0:0:
64,192,70272,1,0,0:0:0:0:
192,192,70272,1,0,0:0:0:0:
448,192,70272,1,0,0:0:0:0:
320,192,70358,1,0,0:0:0:0:
64,192,70444,1,0,0:0:0:0:
192,192,70444,1,0,0:0:0:0:
320,192,70444,1,0,0:0:0:0:
448,192,70444,1,0,0:0:0:0:
64,192,70529,1,0,0:0:0:0:
320,192,70615,1,0,0:0:0:0:
448,192,70615,1,0,0:0:0:0:
192,192,70615,1,0,0:0:0:0:
320,192,70701,1,0,0:0:0:0:
64,192,70787,128,0,71087:0:0:0:0:
192,192,70787,128,0,71087:0:0:0:0:
448,192,70787,1,0,0:0:0:0:
64,192,71129,128,0,71429:0:0:0:0:
192,192,71129,128,0,71429:0:0:0:0:
320,192,71129,128,0,71429:0:0:0:0:
448,192,71129,128,0,71429:0:0:0:0:
448,192,71472,1,0,0:0:0:0:
320,192,71472,1,0,0:0:0:0:
64,192,71472,1,0,0:0:0:0:
320,192,71558,1,0,0:0:0:0:
448,192,71644,1,0,0:0:0:0:
64,192,71644,1,0,0:0:0:0:
192,192,71644,1,0,0:0:0:0:
320,192,71729,1,0,0:0:0:0:
448,192,71815,5,0,0:0:0:0:
192,192,71815,1,0,0:0:0:0:
320,192,71815,1,0,0:0:0:0:
64,192,71815,1,0,0:0:0:0:
192,192,71901,1,0,0:0:0:0:
448,192,71987,1,0,0:0:0:0:
320,192,71987,1,0,0:0:0:0:
64,192,71987,1,0,0:0:0:0:
64,192,72072,1,0,0:0:0:0:
448,192,72158,1,0,0:0:0:0:
320,192,72158,1,0,0:0:0:0:
192,192,72158,1,0,0:0:0:0:
448,192,72244,1,0,0:0:0:0:
320,192,72244,1,0,0:0:0:0:
448,192,72329,1,0,0:0:0:0:
320,192,72329,1,0,0:0:0:0:
64,192,72329,1,0,0:0:0:0:
192,192,72415,1,0,0:0:0:0:
448,192,72501,1,0,0:0:0:0:
320,192,72501,1,0,0:0:0:0:
192,192,72501,1,0,0:0:0:0:
64,192,72501,1,0,0:0:0:0:
448,192,72587,1,0,0:0:0:0:
320,192,72672,1,0,0:0:0:0:
192,192,72672,1,0,0:0:0:0:
64,192,72672,1,0,0:0:0:0:
320,192,72758,1,0,0:0:0:0:
448,192,72844,1,0,0:0:0:0:
192,192,72844,1,0,0:0:0:0:
64,192,72844,1,0,0:0:0:0:
192,192,72929,1,0,0:0:0:0:
448,192,73015,1,0,0:0:0:0:
320,192,73015,1,0,0:0:0:0:
64,192,73015,1,0,0:0:0:0:
192,192,73101,1,0,0:0:0:0:
448,192,73187,1,0,0:0:0:0:
320,192,73187,1,0,0:0:0:0:
192,192,73187,1,0,0:0:0:0:
64,192,73187,1,0,0:0:0:0:
448,192,73272,1,0,0:0:0:0:
192,192,73358,1,0,0:0:0:0:
64,192,73358,1,0,0:0:0:0:
320,192,73358,1,0,0:0:0:0:
192,192,73444,1,0,0:0:0:0:
320,192,73529,1,0,0:0:0:0:
64,192,73529,1,0,0:0:0:0:
448,192,73529,1,0,0:0:0:0:
320,192,73615,1,0,0:0:0:0:
192,192,73701,1,0,0:0:0:0:
64,192,73701,1,0,0:0:0:0:
448,192,73701,1,0,0:0:0:0:
192,192,73787,1,0,0:0:0:0:
64,192,73787,1,0,0:0:0:0:
448,192,73872,1,0,0:0:0:0:
320,192,73872,1,0,0:0:0:0:
192,192,73872,1,0,0:0:0:0:
64,192,73872,1,0,0:0:0:0:
320,192,73958,1,0,0:0:0:0:
448,192,74044,1,0,0:0:0:0:
192,192,74044,1,0,0:0:0:0:
64,192,74044,1,0,0:0:0:0:
192,192,74129,1,0,0:0:0:0:
448,192,74215,1,0,0:0:0:0:
320,192,74215,1,0,0:0:0:0:
64,192,74215,1,0,0:0:0:0:
320,192,74301,1,0,0:0:0:0:
448,192,74387,1,0,0:0:0:0:
64,192,74387,1,0,0:0:0:0:
192,192,74387,1,0,0:0:0:0:
320,192,74472,1,0,0:0:0:0:
448,192,74558,5,0,0:0:0:0:
320,192,74558,1,0,0:0:0:0:
192,192,74558,1,0,0:0:0:0:
64,192,74558,1,0,0:0:0:0:
192,192,74644,1,0,0:0:0:0:
448,192,74729,1,0,0:0:0:0:
320,192,74729,1,0,0:0:0:0:
64,192,74729,1,0,0:0:0:0:
64,192,74815,1,0,0:0:0:0:
448,192,74901,1,0,0:0:0:0:
320,192,74901,1,0,0:0:0:0:
192,192,74901,1,0,0:0:0:0:
448,192,74987,1,0,0:0:0:0:
320,192,74987,1,0,0:0:0:0:
448,192,75072,1,0,0:0:0:0:
320,192,75072,1,0,0:0:0:0:
64,192,75072,1,0,0:0:0:0:
192,192,75158,1,0,0:0:0:0:
448,192,75244,1,0,0:0:0:0:
320,192,75244,1,0,0:0:0:0:
192,192,75244,1,0,0:0:0:0:
64,192,75244,1,0,0:0:0:0:
448,192,75329,1,0,0:0:0:0:
320,192,75415,1,0,0:0:0:0:
192,192,75415,1,0,0:0:0:0:
64,192,75415,1,0,0:0:0:0:
320,192,75501,1,0,0:0:0:0:
448,192,75587,1,0,0:0:0:0:
192,192,75587,1,0,0:0:0:0:
64,192,75587,1,0,0:0:0:0:
192,192,75672,1,0,0:0:0:0:
448,192,75758,1,0,0:0:0:0:
320,192,75758,1,0,0:0:0:0:
64,192,75758,1,0,0:0:0:0:
192,192,75844,1,0,0:0:0:0:
448,192,75929,1,0,0:0:0:0:
320,192,75929,1,0,0:0:0:0:
192,192,75929,1,0,0:0:0:0:
64,192,75929,1,0,0:0:0:0:
320,192,76015,1,0,0:0:0:0:
192,192,76101,1,0,0:0:0:0:
64,192,76101,1,0,0:0:0:0:
448,192,76101,1,0,0:0:0:0:
320,192,76187,1,0,0:0:0:0:
64,192,76272,1,0,0:0:0:0:
320,192,76272,1,0,0:0:0:0:
448,192,76272,1,0,0:0:0:0:
192,192,76272,1,0,0:0:0:0:
64,192,76358,1,0,0:0:0:0:
192,192,76358,1,0,0:0:0:0:
448,192,76444,1,0,0:0:0:0:
320,192,76444,1,0,0:0:0:0:
64,192,76444,1,0,0:0:0:0:
320,192,76529,1,0,0:0:0:0:
448,192,76529,1,0,0:0:0:0:
448,192,76615,128,0,76915:0:0:0:0:
320,192,76615,128,0,76915:0:0:0:0:
192,192,76615,128,0,76915:0:0:0:0:
64,192,76615,128,0,76915:0:0:0:0:
64,192,76958,1,0,0:0:0:0:
192,192,76958,1,0,0:0:0:0:
448,192,76958,1,0,0:0:0:0:
320,192,77044,1,0,0:0:0:0:
64,192,77129,1,0,0:0:0:0:
192,192,77129,1,0,0:0:0:0:
448,192,77129,1,0,0:0:0:0:
192,192,77215,1,0,0:0:0:0:
64,192,77301,1,0,0:0:0:0:
192,192,77301,1,0,0:0:0:0:
320,192,77301,1,0,0:0:0:0:
448,192,77301,1,0,0:0:0:0:
448,192,77387,1,0,0:0:0:0:
320,192,77472,1,0,0:0:0:0:
192,192,77472,1,0,0:0:0:0:
64,192,77472,1,0,0:0:0:0:
192,192,77558,1,0,0:0:0:0:
64,192,77644,1,0,0:0:0:0:
320,192,77644,1,0,0:0:0:0:
448,192,77644,1,0,0:0:0:0:
320,192,77729,1,0,0:0:0:0:
448,192,77729,1,0,0:0:0:0:
320,192,77815,1,0,0:0:0:0:
448,192,77815,1,0,0:0:0:0:
64,192,77815,1,0,0:0:0:0:
192,192,77901,1,0,0:0:0:0:
64,192,77987,1,0,0:0:0:0:
192,192,77987,1,0,0:0:0:0:
320,192,77987,1,0,0:0:0:0:
448,192,77987,1,0,0:0:0:0:
320,192,78072,1,0,0:0:0:0:
64,192,78158,1,0,0:0:0:0:
192,192,78158,1,0,0:0:0:0:
448,192,78158,1,0,0:0:0:0:
448,192,78244,1,0,0:0:0:0:
64,192,78329,1,0,0:0:0:0:
192,192,78329,1,0,0:0:0:0:
320,192,78329,1,0,0:0:0:0:
192,192,78415,1,0,0:0:0:0:
64,192,78501,1,0,0:0:0:0:
320,192,78501,1,0,0:0:0:0:
448,192,78501,1,0,0:0:0:0:
320,192,78587,1,0,0:0:0:0:
320,192,78672,1,0,0:0:0:0:
448,192,78672,1,0,0:0:0:0:
192,192,78672,1,0,0:0:0:0:
64,192,78672,1,0,0:0:0:0:
64,192,78758,1,0,0:0:0:0:
192,192,78844,1,0,0:0:0:0:
320,192,78844,1,0,0:0:0:0:
448,192,78844,1,0,0:0:0:0:
320,192,78929,1,0,0:0:0:0:
64,192,79015,1,0,0:0:0:0:
192,192,79015,1,0,0:0:0:0:
448,192,79015,1,0,0:0:0:0:
192,192,79101,1,0,0:0:0:0:
320,192,79187,1,0,0:0:0:0:
448,192,79187,1,0,0:0:0:0:
64,192,79187,1,0,0:0:0:0:
448,192,79272,1,0,0:0:0:0:
320,192,79272,1,0,0:0:0:0:
64,192,79358,128,0,79658:0:0:0:0:
192,192,79358,128,0,79658:0:0:0:0:
320,192,79358,128,0,79658:0:0:0:0:
448,192,79358,128,0,79658:0:0:0:0:
448,192,79701,1,0,0:0:0:0:
320,192,79701,1,0,0:0:0:0:
64,192,79701,1,0,0:0:0:0:
192,192,79787,1,0,0:0:0:0:
448,192,79872,1,0,0:0:0:0:
320,192,79872,1,0,0:0:0:0:
64,192,79872,1,0,0:0:0:0:
320,192,79958,1,0,0:0:0:0:
448,192,80044,1,0,0:0:0:0:
320,192,80044,1,0,0:0:0:0:
192,192,80044,1,0,0:0:0:0:
64,192,80044,1,0,0:0:0:0:
64,192,80129,1,0,0:0:0:0:
192,192,80215,1,0,0:0:0:0:
320,192,80215,1,0,0:0:0:0:
448,192,80215,1,0,0:0:0:0:
320,192,80301,1,0,0:0:0:0:
448,192,80387,1,0,0:0:0:0:
192,192,80387,1,0,0:0:0:0:
64,192,80387,1,0,0:0:0:0:
192,192,80472,1,0,0:0:0:0:
64,192,80472,1,0,0:0:0:0:
192,192,80558,1,0,0:0:0:0:
64,192,80558,1,0,0:0:0:0:
448,192,80558,1,0,0:0:0:0:
320,192,80644,1,0,0:0:0:0:
448,192,80729,1,0,0:0:0:0:
320,192,80729,1,0,0:0:0:0:
192,192,80729,1,0,0:0:0:0:
64,192,80729,1,0,0:0:0:0:
192,192,80815,1,0,0:0:0:0:
448,192,80901,1,0,0:0:0:0:
320,192,80901,1,0,0:0:0:0:
64,192,80901,1,0,0:0:0:0:
64,192,80987,1,0,0:0:0:0:
448,192,81072,1,0,0:0:0:0:
320,192,81072,1,0,0:0:0:0:
192,192,81072,1,0,0:0:0:0:
320,192,81158,1,0,0:0:0:0:
448,192,81244,1,0,0:0:0:0:
192,192,81244,1,0,0:0:0:0:
64,192,81244,1,0,0:0:0:0:
192,192,81329,1,0,0:0:0:0:
192,192,81415,1,0,0:0:0:0:
64,192,81415,1,0,0:0:0:0:
320,192,81415,1,0,0:0:0:0:
448,192,81415,1,0,0:0:0:0:
448,192,81501,1,0,0:0:0:0:
320,192,81587,1,0,0:0:0:0:
192,192,81587,1,0,0:0:0:0:
64,192,81587,1,0,0:0:0:0:
192,192,81672,1,0,0:0:0:0:
448,192,81758,1,0,0:0:0:0:
64,192,81758,1,0,0:0:0:0:
320,192,81801,1,0,0:0:0:0:
192,192,81844,1,0,0:0:0:0:
448,192,81887,1,0,0:0:0:0:
64,192,81929,1,0,0:0:0:0:
192,192,81972,1,0,0:0:0:0:
320,192,82015,1,0,0:0:0:0:
64,192,82058,1,0,0:0:0:0:
448,192,82101,128,0,82401:0:0:0:0:
320,192,82101,128,0,82401:0:0:0:0:
192,192,82101,128,0,82401:0:0:0:0:
64,192,82101,128,0,82401:0:0:0:0:
320,192,82444,1,0,0:0:0:0:
64,192,82444,1,0,0:0:0:0:
448,192,82444,1,0,0:0:0:0:
192,192,82529,1,0,0:0:0:0:
320,192,82615,1,0,0:0:0:0:
448,192,82615,1,0,0:0:0:0:
64,192,82615,1,0,0:0:0:0:
320,192,82701,1,0,0:0:0:0:
192,192,82787,1,0,0:0:0:0:
448,192,82787,1,0,0:0:0:0:
320,192,82787,1,0,0:0:0:0:
64,192,82787,1,0,0:0:0:0:
448,192,82872,1,0,0:0:0:0:
192,192,82958,1,0,0:0:0:0:
64,192,82958,1,0,0:0:0:0:
320,192,82958,1,0,0:0:0:0:
320,192,83044,1,0,0:0:0:0:
448,192,83129,1,0,0:0:0:0:
192,192,83129,1,0,0:0:0:0:
64,192,83129,1,0,0:0:0:0:
192,192,83215,1,0,0:0:0:0:
64,192,83215,1,0,0:0:0:0:
64,192,83301,1,0,0:0:0:0:
192,192,83301,1,0,0:0:0:0:
448,192,83301,1,0,0:0:0:0:
320,192,83387,1,0,0:0:0:0:
320,192,83472,1,0,0:0:0:0:
448,192,83472,1,0,0:0:0:0:
192,192,83472,1,0,0:0:0:0:
64,192,83472,1,0,0:0:0:0:
192,192,83558,1,0,0:0:0:0:
448,192,83644,1,0,0:0:0:0:
64,192,83644,1,0,0:0:0:0:
320,192,83644,1,0,0:0:0:0:
448,192,83729,1,0,0:0:0:0:
320,192,83815,1,0,0:0:0:0:
192,192,83815,1,0,0:0:0:0:
64,192,83815,1,0,0:0:0:0:
320,192,83901,1,0,0:0:0:0:
64,192,83987,1,0,0:0:0:0:
448,192,83987,1,0,0:0:0:0:
192,192,83987,1,0,0:0:0:0:
192,192,84072,1,0,0:0:0:0:
448,192,84158,1,0,0:0:0:0:
192,192,84158,1,0,0:0:0:0:
320,192,84158,1,0,0:0:0:0:
64,192,84158,1,0,0:0:0:0:
64,192,84244,1,0,0:0:0:0:
448,192,84329,1,0,0:0:0:0:
192,192,84329,1,0,0:0:0:0:
320,192,84329,1,0,0:0:0:0:
192,192,84415,1,0,0:0:0:0:
320,192,84501,1,0,0:0:0:0:
64,192,84501,1,0,0:0:0:0:
448,192,84501,1,0,0:0:0:0:
320,192,84587,1,0,0:0:0:0:
448,192,84672,1,0,0:0:0:0:
192,192,84672,1,0,0:0:0:0:
64,192,84672,1,0,0:0:0:0:
192,192,84758,1,0,0:0:0:0:
64,192,84758,1,0,0:0:0:0:
192,192,84844,128,0,85144:0:0:0:0:
448,192,84844,128,0,85144:0:0:0:0:
320,192,84844,128,0,85144:0:0:0:0:
64,192,84844,128,0,85144:0:0:0:0:
448,192,85187,1,0,0:0:0:0:
192,192,85187,1,0,0:0:0:0:
64,192,85187,1,0,0:0:0:0:
320,192,85272,1,0,0:0:0:0:
64,192,85358,1,0,0:0:0:0:
192,192,85358,1,0,0:0:0:0:
448,192,85358,1,0,0:0:0:0:
192,192,85444,1,0,0:0:0:0:
64,192,85529,1,0,0:0:0:0:
192,192,85529,1,0,0:0:0:0:
320,192,85529,1,0,0:0:0:0:
448,192,85529,1,0,0:0:0:0:
64,192,85615,1,0,0:0:0:0:
192,192,85701,1,0,0:0:0:0:
320,192,85701,1,0,0:0:0:0:
448,192,85701,1,0,0:0:0:0:
320,192,85787,1,0,0:0:0:0:
64,192,85872,1,0,0:0:0:0:
192,192,85872,1,0,0:0:0:0:
320,192,85872,1,0,0:0:0:0:
448,192,85872,1,0,0:0:0:0:
448,192,85958,1,0,0:0:0:0:
64,192,86044,1,0,0:0:0:0:
192,192,86044,1,0,0:0:0:0:
320,192,86044,1,0,0:0:0:0:
192,192,86129,1,0,0:0:0:0:
64,192,86215,1,0,0:0:0:0:
192,192,86215,1,0,0:0:0:0:
320,192,86215,1,0,0:0:0:0:
448,192,86215,1,0,0:0:0:0:
320,192,86301,1,0,0:0:0:0:
448,192,86301,1,0,0:0:0:0:
64,192,86387,1,0,0:0:0:0:
192,192,86387,1,0,0:0:0:0:
64,192,86472,1,0,0:0:0:0:
192,192,86472,1,0,0:0:0:0:
320,192,86558,1,0,0:0:0:0:
448,192,86558,1,0,0:0:0:0:
64,192,86644,1,0,0:0:0:0:
192,192,86644,1,0,0:0:0:0:
320,192,86644,1,0,0:0:0:0:
448,192,86644,1,0,0:0:0:0:
64,192,86729,1,0,0:0:0:0:
192,192,86729,1,0,0:0:0:0:
320,192,86815,1,0,0:0:0:0:
448,192,86815,1,0,0:0:0:0:
64,192,86901,1,0,0:0:0:0:
192,192,86901,1,0,0:0:0:0:
320,192,86901,1,0,0:0:0:0:
448,192,86901,1,0,0:0:0:0:
64,192,86987,1,0,0:0:0:0:
192,192,86987,1,0,0:0:0:0:
320,192,87072,1,0,0:0:0:0:
448,192,87072,1,0,0:0:0:0:
64,192,87158,1,0,0:0:0:0:
192,192,87158,1,0,0:0:0:0:
320,192,87158,1,0,0:0:0:0:
448,192,87158,1,0,0:0:0:0:
64,192,87244,1,0,0:0:0:0:
192,192,87244,1,0,0:0:0:0:
64,192,87329,1,0,0:0:0:0:
192,192,87329,1,0,0:0:0:0:
320,192,87415,1,0,0:0:0:0:
448,192,87415,1,0,0:0:0:0:
320,192,87501,1,0,0:0:0:0:
448,192,87501,1,0,0:0:0:0:
320,192,87587,128,0,87887:0:0:0:0:
64,192,87587,128,0,87887:0:0:0:0:
448,192,87587,128,0,87887:0:0:0:0:
192,192,87587,128,0,87887:0:0:0:0:
64,192,87929,1,0,0:0:0:0:
192,192,87929,1,0,0:0:0:0:
320,192,87929,1,0,0:0:0:0:
448,192,87929,1,0,0:0:0:0:
64,192,88187,1,0,0:0:0:0:
192,192,88187,1,0,0:0:0:0:
448,192,88272,1,0,0:0:0:0:
64,192,88529,1,0,0:0:0:0:
320,192,88615,1,0,0:0:0:0:
448,192,89215,128,0,89472:0:0:0:0:
448,192,89558,128,0,89729:0:0:0:0:
192,192,90244,1,0,0:0:0:0:
448,192,90501,1,0,0:0:0:0:
64,192,90672,1,0,0:0:0:0:
192,192,90672,1,0,0:0:0:0:
448,192,90929,1,0,0:0:0:0:
192,192,91272,1,0,0:0:0:0:
320,192,91358,1,0,0:0:0:0:
448,192,91358,1,0,0:0:0:0:
64,192,91358,1,0,0:0:0:0:
320,192,92558,1,0,0:0:0:0:
320,192,93072,1,0,0:0:0:0:
192,192,93244,1,0,0:0:0:0:
320,192,93415,1,0,0:0:0:0:
448,192,93415,1,0,0:0:0:0:
320,192,93672,1,0,0:0:0:0:
192,192,94015,1,0,0:0:0:0:
64,192,94701,128,0,94958:0:0:0:0:
64,192,95044,128,0,95215:0:0:0:0:
192,192,95987,1,0,0:0:0:0:
320,192,96158,1,0,0:0:0:0:
448,192,96158,1,0,0:0:0:0:
192,192,96415,1,0,0:0:0:0:
320,192,96758,1,0,0:0:0:0:
64,192,96844,1,0,0:0:0:0:
192,192,96844,1,0,0:0:0:0:
448,192,96844,1,0,0:0:0:0:
64,192,97529,1,0,0:0:0:0:
448,192,97529,1,0,0:0:0:0:
192,192,97615,1,0,0:0:0:0:
320,192,97701,1,0,0:0:0:0:
448,192,97787,5,0,0:0:0:0:
192,192,97872,1,0,0:0:0:0:
448,192,97958,1,0,0:0:0:0:
320,192,98044,1,0,0:0:0:0:
64,192,98044,1,0,0:0:0:0:
192,192,98129,1,0,0:0:0:0:
64,192,98215,1,0,0:0:0:0:
448,192,98215,1,0,0:0:0:0:
64,192,98301,1,0,0:0:0:0:
64,192,98387,1,0,0:0:0:0:
320,192,98387,1,0,0:0:0:0:
64,192,98472,1,0,0:0:0:0:
448,192,98558,1,0,0:0:0:0:
192,192,98558,1,0,0:0:0:0:
448,192,98644,1,0,0:0:0:0:
448,192,98729,1,0,0:0:0:0:
64,192,98729,1,0,0:0:0:0:
448,192,98815,1,0,0:0:0:0:
64,192,98901,5,0,0:0:0:0:
192,192,98901,1,0,0:0:0:0:
64,192,99244,1,0,0:0:0:0:
192,192,99244,1,0,0:0:0:0:
64,192,99587,1,0,0:0:0:0:
192,192,99587,1,0,0:0:0:0:
64,192,99929,1,0,0:0:0:0:
192,192,99929,1,0,0:0:0:0:
64,192,100272,1,0,0:0:0:0:
192,192,100272,1,0,0:0:0:0:
64,192,100615,1,0,0:0:0:0:
192,192,100615,1,0,0:0:0:0:
64,192,100958,1,0,0:0:0:0:
192,192,100958,1,0,0:0:0:0:
64,192,101301,1,0,0:0:0:0:
192,192,101301,1,0,0:0:0:0:
320,192,101644,1,0,0:0:0:0:
448,192,101644,1,0,0:0:0:0:
320,192,101987,1,0,0:0:0:0:
448,192,101987,1,0,0:0:0:0:
320,192,102329,1,0,0:0:0:0:
448,192,102329,1,0,0:0:0:0:
320,192,102672,1,0,0:0:0:0:
448,192,102672,1,0,0:0:0:0:
320,192,103015,1,0,0:0:0:0:
448,192,103015,1,0,0:0:0:0:
320,192,103358,1,0,0:0:0:0:
448,192,103358,1,0,0:0:0:0:
320,192,103701,1,0,0:0:0:0:
448,192,103701,1,0,0:0:0:0:
320,192,104044,1,0,0:0:0:0:
448,192,104044,1,0,0:0:0:0:
192,192,104387,1,0,0:0:0:0:
64,192,104387,1,0,0:0:0:0:
448,192,104387,1,0,0:0:0:0:
448,192,104729,1,0,0:0:0:0:
192,192,104729,1,0,0:0:0:0:
64,192,104729,1,0,0:0:0:0:
192,192,105072,1,0,0:0:0:0:
64,192,105072,1,0,0:0:0:0:
448,192,105072,1,0,0:0:0:0:
448,192,105415,1,0,0:0:0:0:
192,192,105415,1,0,0:0:0:0:
64,192,105415,1,0,0:0:0:0:
64,192,105758,1,0,0:0:0:0:
448,192,105758,1,0,0:0:0:0:
320,192,105758,1,0,0:0:0:0:
448,192,106101,1,0,0:0:0:0:
320,192,106101,1,0,0:0:0:0:
64,192,106101,1,0,0:0:0:0:
64,192,106444,1,0,0:0:0:0:
448,192,106444,1,0,0:0:0:0:
320,192,106444,1,0,0:0:0:0:
448,192,106787,1,0,0:0:0:0:
320,192,106787,1,0,0:0:0:0:
64,192,106787,1,0,0:0:0:0:
64,192,107129,1,0,0:0:0:0:
448,192,107129,1,0,0:0:0:0:
320,192,107129,1,0,0:0:0:0:
192,192,107129,1,0,0:0:0:0:
448,192,107472,1,0,0:0:0:0:
320,192,107472,1,0,0:0:0:0:
192,192,107472,1,0,0:0:0:0:
64,192,107472,1,0,0:0:0:0:
192,192,107815,1,0,0:0:0:0:
64,192,107815,1,0,0:0:0:0:
448,192,107815,1,0,0:0:0:0:
320,192,107815,1,0,0:0:0:0:
448,192,108158,1,0,0:0:0:0:
320,192,108158,1,0,0:0:0:0:
192,192,108158,1,0,0:0:0:0:
64,192,108158,1,0,0:0:0:0:
448,192,108501,128,0,108715:0:0:0:0:
320,192,108501,128,0,108715:0:0:0:0:
64,192,108758,128,0,108972:0:0:0:0:
192,192,108758,128,0,108972:0:0:0:0:
64,192,109015,1,0,0:0:0:0:
192,192,109015,1,0,0:0:0:0:
320,192,109101,128,0,109315:0:0:0:0:
448,192,109101,128,0,109315:0:0:0:0:
320,192,109358,1,0,0:0:0:0:
448,192,109358,1,0,0:0:0:0:
64,192,109529,128,0,109829:0:0:0:0:
192,192,109529,128,0,109829:0:0:0:0:
320,192,109529,128,0,109829:0:0:0:0:
448,192,109529,128,0,109829:0:0:0:0:
64,192,109872,1,0,0:0:0:0:
192,192,109872,1,0,0:0:0:0:
320,192,109929,1,0,0:0:0:0:
448,192,109929,1,0,0:0:0:0:
64,192,109987,1,0,0:0:0:0:
192,192,109987,1,0,0:0:0:0:
64,192,110101,1,0,0:0:0:0:
320,192,110101,1,0,0:0:0:0:
448,192,110101,1,0,0:0:0:0:
64,192,110215,1,0,0:0:0:0:
192,192,110215,1,0,0:0:0:0:
448,192,110272,1,0,0:0:0:0:
320,192,110272,1,0,0:0:0:0:
64,192,110329,1,0,0:0:0:0:
192,192,110329,1,0,0:0:0:0:
64,192,110444,1,0,0:0:0:0:
192,192,110444,1,0,0:0:0:0:
448,192,110444,1,0,0:0:0:0:
320,192,110558,1,0,0:0:0:0:
448,192,110558,1,0,0:0:0:0:
64,192,110615,1,0,0:0:0:0:
192,192,110615,1,0,0:0:0:0:
320,192,110672,1,0,0:0:0:0:
448,192,110672,1,0,0:0:0:0:
64,192,110787,1,0,0:0:0:0:
192,192,110787,1,0,0:0:0:0:
448,192,110787,1,0,0:0:0:0:
320,192,110901,1,0,0:0:0:0:
448,192,110901,1,0,0:0:0:0:
64,192,110901,1,0,0:0:0:0:
192,192,110901,1,0,0:0:0:0:
320,192,111015,1,0,0:0:0:0:
448,192,111015,1,0,0:0:0:0:
192,192,111015,1,0,0:0:0:0:
192,192,111129,1,0,0:0:0:0:
320,192,111129,1,0,0:0:0:0:
64,192,111129,1,0,0:0:0:0:
320,192,111244,1,0,0:0:0:0:
448,192,111244,1,0,0:0:0:0:
64,192,111301,1,0,0:0:0:0:
192,192,111301,1,0,0:0:0:0:
320,192,111358,1,0,0:0:0:0:
448,192,111358,1,0,0:0:0:0:
64,192,111472,1,0,0:0:0:0:
192,192,111472,1,0,0:0:0:0:
448,192,111472,1,0,0:0:0:0:
320,192,111587,1,0,0:0:0:0:
448,192,111587,1,0,0:0:0:0:
64,192,111615,1,0,0:0:0:0:
192,192,111644,1,0,0:0:0:0:
320,192,111672,1,0,0:0:0:0:
448,192,111701,1,0,0:0:0:0:
64,192,111701,1,0,0:0:0:0:
64,192,111815,1,0,0:0:0:0:
320,192,111815,1,0,0:0:0:0:
192,192,111815,1,0,0:0:0:0:
192,192,111929,1,0,0:0:0:0:
320,192,111929,1,0,0:0:0:0:
448,192,111929,1,0,0:0:0:0:
64,192,112044,1,0,0:0:0:0:
192,192,112044,1,0,0:0:0:0:
448,192,112044,1,0,0:0:0:0:
64,192,112158,1,0,0:0:0:0:
320,192,112158,1,0,0:0:0:0:
448,192,112158,1,0,0:0:0:0:
448,192,112272,1,0,0:0:0:0:
320,192,112272,1,0,0:0:0:0:
192,192,112272,1,0,0:0:0:0:
64,192,112272,1,0,0:0:0:0:
320,192,112387,1,0,0:0:0:0:
64,192,112387,1,0,0:0:0:0:
192,192,112387,1,0,0:0:0:0:
448,192,112501,1,0,0:0:0:0:
192,192,112501,1,0,0:0:0:0:
320,192,112501,1,0,0:0:0:0:
192,192,112615,1,0,0:0:0:0:
64,192,112615,1,0,0:0:0:0:
448,192,112672,1,0,0:0:0:0:
320,192,112672,1,0,0:0:0:0:
192,192,112729,1,0,0:0:0:0:
64,192,112729,1,0,0:0:0:0:
320,192,112844,1,0,0:0:0:0:
448,192,112844,1,0,0:0:0:0:
192,192,112844,1,0,0:0:0:0:
320,192,112958,1,0,0:0:0:0:
448,192,112958,1,0,0:0:0:0:
64,192,113015,1,0,0:0:0:0:
192,192,113015,1,0,0:0:0:0:
320,192,113072,1,0,0:0:0:0:
448,192,113072,1,0,0:0:0:0:
64,192,113187,1,0,0:0:0:0:
192,192,113187,1,0,0:0:0:0:
320,192,113187,1,0,0:0:0:0:
320,192,113301,1,0,0:0:0:0:
448,192,113301,1,0,0:0:0:0:
192,192,113301,1,0,0:0:0:0:
320,192,113415,1,0,0:0:0:0:
448,192,113415,1,0,0:0:0:0:
64,192,113415,1,0,0:0:0:0:
64,192,113529,1,0,0:0:0:0:
192,192,113529,1,0,0:0:0:0:
448,192,113529,1,0,0:0:0:0:
320,192,113644,1,0,0:0:0:0:
448,192,113644,1,0,0:0:0:0:
64,192,113644,1,0,0:0:0:0:
192,192,113644,1,0,0:0:0:0:
320,192,113758,1,0,0:0:0:0:
448,192,113758,1,0,0:0:0:0:
192,192,113758,1,0,0:0:0:0:
192,192,113872,1,0,0:0:0:0:
320,192,113872,1,0,0:0:0:0:
64,192,113872,1,0,0:0:0:0:
320,192,113987,1,0,0:0:0:0:
192,192,113987,1,0,0:0:0:0:
64,192,114044,1,0,0:0:0:0:
448,192,114044,1,0,0:0:0:0:
320,192,114101,1,0,0:0:0:0:
192,192,114101,1,0,0:0:0:0:
64,192,114215,1,0,0:0:0:0:
192,192,114215,1,0,0:0:0:0:
448,192,114215,1,0,0:0:0:0:
192,192,114329,1,0,0:0:0:0:
64,192,114329,1,0,0:0:0:0:
448,192,114358,1,0,0:0:0:0:
320,192,114387,1,0,0:0:0:0:
192,192,114415,1,0,0:0:0:0:
64,192,114444,1,0,0:0:0:0:
448,192,114444,1,0,0:0:0:0:
64,192,114558,1,0,0:0:0:0:
320,192,114558,1,0,0:0:0:0:
192,192,114558,1,0,0:0:0:0:
448,192,114672,1,0,0:0:0:0:
320,192,114672,1,0,0:0:0:0:
64,192,114701,1,0,0:0:0:0:
192,192,114729,1,0,0:0:0:0:
320,192,114758,1,0,0:0:0:0:
64,192,114787,1,0,0:0:0:0:
448,192,114787,1,0,0:0:0:0:
192,192,114901,1,0,0:0:0:0:
320,192,114901,1,0,0:0:0:0:
448,192,114901,1,0,0:0:0:0:
64,192,115015,128,0,115315:0:0:0:0:
192,192,115015,128,0,115315:0:0:0:0:
320,192,115015,128,0,115315:0:0:0:0:
448,192,115015,128,0,115315:0:0:0:0:
448,192,115358,1,0,0:0:0:0:
320,192,115358,1,0,0:0:0:0:
192,192,115415,1,0,0:0:0:0:
64,192,115415,1,0,0:0:0:0:
448,192,115472,1,0,0:0:0:0:
320,192,115472,1,0,0:0:0:0:
448,192,115587,1,0,0:0:0:0:
192,192,115587,1,0,0:0:0:0:
64,192,115587,1,0,0:0:0:0:
448,192,115701,1,0,0:0:0:0:
320,192,115701,1,0,0:0:0:0:
64,192,115758,1,0,0:0:0:0:
192,192,115758,1,0,0:0:0:0:
448,192,115815,1,0,0:0:0:0:
320,192,115815,1,0,0:0:0:0:
448,192,115929,1,0,0:0:0:0:
320,192,115929,1,0,0:0:0:0:
64,192,115929,1,0,0:0:0:0:
192,192,116044,1,0,0:0:0:0:
64,192,116044,1,0,0:0:0:0:
448,192,116101,1,0,0:0:0:0:
320,192,116101,1,0,0:0:0:0:
192,192,116158,1,0,0:0:0:0:
64,192,116158,1,0,0:0:0:0:
448,192,116272,1,0,0:0:0:0:
320,192,116272,1,0,0:0:0:0:
64,192,116272,1,0,0:0:0:0:
192,192,116387,1,0,0:0:0:0:
64,192,116387,1,0,0:0:0:0:
448,192,116387,1,0,0:0:0:0:
320,192,116387,1,0,0:0:0:0:
192,192,116501,1,0,0:0:0:0:
64,192,116501,1,0,0:0:0:0:
320,192,116501,1,0,0:0:0:0:
320,192,116615,1,0,0:0:0:0:
192,192,116615,1,0,0:0:0:0:
448,192,116615,1,0,0:0:0:0:
192,192,116729,1,0,0:0:0:0:
64,192,116729,1,0,0:0:0:0:
448,192,116787,1,0,0:0:0:0:
320,192,116787,1,0,0:0:0:0:
192,192,116844,1,0,0:0:0:0:
64,192,116844,1,0,0:0:0:0:
448,192,116958,1,0,0:0:0:0:
320,192,116958,1,0,0:0:0:0:
64,192,116958,1,0,0:0:0:0:
192,192,117072,1,0,0:0:0:0:
64,192,117072,1,0,0:0:0:0:
448,192,117101,1,0,0:0:0:0:
320,192,117129,1,0,0:0:0:0:
192,192,117158,1,0,0:0:0:0:
64,192,117187,1,0,0:0:0:0:
448,192,117187,1,0,0:0:0:0:
448,192,117301,1,0,0:0:0:0:
192,192,117301,1,0,0:0:0:0:
320,192,117301,1,0,0:0:0:0:
320,192,117415,1,0,0:0:0:0:
192,192,117415,1,0,0:0:0:0:
64,192,117415,1,0,0:0:0:0:
448,192,117529,1,0,0:0:0:0:
320,192,117529,1,0,0:0:0:0:
64,192,117529,1,0,0:0:0:0:
448,192,117644,1,0,0:0:0:0:
192,192,117644,1,0,0:0:0:0:
64,192,117644,1,0,0:0:0:0:
64,192,117758,1,0,0:0:0:0:
192,192,117758,1,0,0:0:0:0:
320,192,117758,1,0,0:0:0:0:
448,192,117758,1,0,0:0:0:0:
192,192,117872,1,0,0:0:0:0:
448,192,117872,1,0,0:0:0:0:
320,192,117872,1,0,0:0:0:0:
64,192,117987,1,0,0:0:0:0:
320,192,117987,1,0,0:0:0:0:
192,192,117987,1,0,0:0:0:0:
320,192,118101,1,0,0:0:0:0:
448,192,118101,1,0,0:0:0:0:
64,192,118158,1,0,0:0:0:0:
192,192,118158,1,0,0:0:0:0:
320,192,118215,1,0,0:0:0:0:
448,192,118215,1,0,0:0:0:0:
192,192,118329,1,0,0:0:0:0:
64,192,118329,1,0,0:0:0:0:
448,192,118329,1,0,0:0:0:0:
192,192,118444,1,0,0:0:0:0:
64,192,118444,1,0,0:0:0:0:
448,192,118501,1,0,0:0:0:0:
320,192,118501,1,0,0:0:0:0:
192,192,118558,1,0,0:0:0:0:
64,192,118558,1,0,0:0:0:0:
448,192,118672,1,0,0:0:0:0:
320,192,118672,1,0,0:0:0:0:
64,192,118672,1,0,0:0:0:0:
320,192,118787,1,0,0:0:0:0:
448,192,118787,1,0,0:0:0:0:
192,192,118844,1,0,0:0:0:0:
64,192,118844,1,0,0:0:0:0:
320,192,118901,1,0,0:0:0:0:
448,192,118901,1,0,0:0:0:0:
64,192,119015,1,0,0:0:0:0:
192,192,119015,1,0,0:0:0:0:
448,192,119015,1,0,0:0:0:0:
192,192,119129,1,0,0:0:0:0:
64,192,119129,1,0,0:0:0:0:
448,192,119129,1,0,0:0:0:0:
320,192,119129,1,0,0:0:0:0:
192,192,119244,1,0,0:0:0:0:
320,192,119244,1,0,0:0:0:0:
448,192,119244,1,0,0:0:0:0:
320,192,119358,1,0,0:0:0:0:
192,192,119358,1,0,0:0:0:0:
64,192,119358,1,0,0:0:0:0:
64,192,119472,1,0,0:0:0:0:
192,192,119515,1,0,0:0:0:0:
320,192,119558,1,0,0:0:0:0:
448,192,119601,1,0,0:0:0:0:
192,192,119644,1,0,0:0:0:0:
64,192,119687,1,0,0:0:0:0:
320,192,119729,1,0,0:0:0:0:
448,192,119772,1,0,0:0:0:0:
192,192,119815,1,0,0:0:0:0:
64,192,119858,1,0,0:0:0:0:
448,192,119901,1,0,0:0:0:0:
320,192,119944,1,0,0:0:0:0:
64,192,119987,1,0,0:0:0:0:
192,192,120029,1,0,0:0:0:0:
448,192,120072,1,0,0:0:0:0:
320,192,120115,1,0,0:0:0:0:
64,192,120158,1,0,0:0:0:0:
192,192,120158,1,0,0:0:0:0:
448,192,120187,1,0,0:0:0:0:
320,192,120215,1,0,0:0:0:0:
192,192,120244,1,0,0:0:0:0:
64,192,120272,1,0,0:0:0:0:
320,192,120301,1,0,0:0:0:0:
448,192,120329,1,0,0:0:0:0:
64,192,120358,1,0,0:0:0:0:
192,192,120387,1,0,0:0:0:0:
448,192,120415,1,0,0:0:0:0:
320,192,120415,1,0,0:0:0:0:
448,192,120501,128,0,120801:0:0:0:0:
320,192,120501,128,0,120801:0:0:0:0:
192,192,120501,128,0,120801:0:0:0:0:
64,192,120501,128,0,120801:0:0:0:0:
192,192,120844,1,0,0:0:0:0:
64,192,120844,1,0,0:0:0:0:
320,192,120901,1,0,0:0:0:0:
448,192,120901,1,0,0:0:0:0:
192,192,120958,1,0,0:0:0:0:
64,192,120958,1,0,0:0:0:0:
64,192,121072,1,0,0:0:0:0:
320,192,121072,1,0,0:0:0:0:
448,192,121072,1,0,0:0:0:0:
64,192,121187,1,0,0:0:0:0:
192,192,121187,1,0,0:0:0:0:
320,192,121187,1,0,0:0:0:0:
448,192,121187,1,0,0:0:0:0:
64,192,121415,1,0,0:0:0:0:
192,192,121415,1,0,0:0:0:0:
448,192,121415,1,0,0:0:0:0:
320,192,121529,1,0,0:0:0:0:
448,192,121529,1,0,0:0:0:0:
192,192,121529,1,0,0:0:0:0:
320,192,121644,1,0,0:0:0:0:
448,192,121644,1,0,0:0:0:0:
64,192,121644,1,0,0:0:0:0:
64,192,121758,1,0,0:0:0:0:
192,192,121758,1,0,0:0:0:0:
448,192,121758,1,0,0:0:0:0:
320,192,121872,1,0,0:0:0:0:
448,192,121872,1,0,0:0:0:0:
64,192,121872,1,0,0:0:0:0:
192,192,121872,1,0,0:0:0:0:
320,192,121987,1,0,0:0:0:0:
448,192,121987,1,0,0:0:0:0:
192,192,121987,1,0,0:0:0:0:
192,192,122101,1,0,0:0:0:0:
320,192,122101,1,0,0:0:0:0:
64,192,122101,1,0,0:0:0:0:
320,192,122215,1,0,0:0:0:0:
64,192,122215,1,0,0:0:0:0:
192,192,122272,1,0,0:0:0:0:
448,192,122272,1,0,0:0:0:0:
320,192,122329,1,0,0:0:0:0:
64,192,122329,1,0,0:0:0:0:
64,192,122444,1,0,0:0:0:0:
192,192,122444,1,0,0:0:0:0:
448,192,122444,1,0,0:0:0:0:
320,192,122558,1,0,0:0:0:0:
448,192,122558,1,0,0:0:0:0:
64,192,122558,1,0,0:0:0:0:
192,192,122558,1,0,0:0:0:0:
64,192,122787,1,0,0:0:0:0:
320,192,122787,1,0,0:0:0:0:
192,192,122787,1,0,0:0:0:0:
192,192,122901,1,0,0:0:0:0:
320,192,122901,1,0,0:0:0:0:
448,192,122901,1,0,0:0:0:0:
64,192,123015,1,0,0:0:0:0:
192,192,123015,1,0,0:0:0:0:
448,192,123015,1,0,0:0:0:0:
64,192,123129,1,0,0:0:0:0:
320,192,123129,1,0,0:0:0:0:
448,192,123129,1,0,0:0:0:0:
448,192,123244,1,0,0:0:0:0:
320,192,123244,1,0,0:0:0:0:
192,192,123244,1,0,0:0:0:0:
64,192,123244,1,0,0:0:0:0:
320,192,123358,1,0,0:0:0:0:
64,192,123358,1,0,0:0:0:0:
192,192,123358,1,0,0:0:0:0:
448,192,123472,1,0,0:0:0:0:
192,192,123472,1,0,0:0:0:0:
320,192,123472,1,0,0:0:0:0:
192,192,123587,1,0,0:0:0:0:
64,192,123587,1,0,0:0:0:0:
448,192,123644,1,0,0:0:0:0:
320,192,123644,1,0,0:0:0:0:
192,192,123701,1,0,0:0:0:0:
64,192,123701,1,0,0:0:0:0:
320,192,123815,1,0,0:0:0:0:
448,192,123815,1,0,0:0:0:0:
192,192,123815,1,0,0:0:0:0:
320,192,123929,1,0,0:0:0:0:
448,192,123929,1,0,0:0:0:0:
64,192,123929,1,0,0:0:0:0:
192,192,123929,1,0,0:0:0:0:
64,192,124158,1,0,0:0:0:0:
192,192,124158,1,0,0:0:0:0:
320,192,124158,1,0,0:0:0:0:
320,192,124272,1,0,0:0:0:0:
448,192,124272,1,0,0:0:0:0:
192,192,124272,1,0,0:0:0:0:
320,192,124387,1,0,0:0:0:0:
448,192,124387,1,0,0:0:0:0:
64,192,124387,1,0,0:0:0:0:
64,192,124501,1,0,0:0:0:0:
192,192,124501,1,0,0:0:0:0:
448,192,124501,1,0,0:0:0:0:
320,192,124615,1,0,0:0:0:0:
448,192,124615,1,0,0:0:0:0:
64,192,124615,1,0,0:0:0:0:
192,192,124615,1,0,0:0:0:0:
320,192,124729,1,0,0:0:0:0:
448,192,124729,1,0,0:0:0:0:
192,192,124729,1,0,0:0:0:0:
192,192,124844,1,0,0:0:0:0:
320,192,124844,1,0,0:0:0:0:
64,192,124844,1,0,0:0:0:0:
320,192,124958,1,0,0:0:0:0:
192,192,124958,1,0,0:0:0:0:
64,192,125015,1,0,0:0:0:0:
448,192,125015,1,0,0:0:0:0:
320,192,125072,1,0,0:0:0:0:
192,192,125072,1,0,0:0:0:0:
64,192,125187,1,0,0:0:0:0:
192,192,125187,1,0,0:0:0:0:
448,192,125187,1,0,0:0:0:0:
192,192,125301,1,0,0:0:0:0:
64,192,125301,1,0,0:0:0:0:
320,192,125301,1,0,0:0:0:0:
448,192,125301,1,0,0:0:0:0:
448,192,125415,1,0,0:0:0:0:
192,192,125415,1,0,0:0:0:0:
320,192,125415,1,0,0:0:0:0:
64,192,125529,1,0,0:0:0:0:
320,192,125529,1,0,0:0:0:0:
192,192,125529,1,0,0:0:0:0:
448,192,125644,1,0,0:0:0:0:
320,192,125644,1,0,0:0:0:0:
64,192,125672,1,0,0:0:0:0:
192,192,125701,1,0,0:0:0:0:
320,192,125729,1,0,0:0:0:0:
64,192,125758,1,0,0:0:0:0:
448,192,125758,1,0,0:0:0:0:
192,192,125872,1,0,0:0:0:0:
320,192,125872,1,0,0:0:0:0:
64,192,125872,1,0,0:0:0:0:
64,192,125987,128,0,126287:0:0:0:0:
192,192,125987,128,0,126287:0:0:0:0:
320,192,125987,128,0,126287:0:0:0:0:
448,192,125987,128,0,126287:0:0:0:0:
448,192,126329,1,0,0:0:0:0:
320,192,126329,1,0,0:0:0:0:
192,192,126387,1,0,0:0:0:0:
64,192,126387,1,0,0:0:0:0:
448,192,126444,1,0,0:0:0:0:
320,192,126444,1,0,0:0:0:0:
448,192,126558,1,0,0:0:0:0:
192,192,126558,1,0,0:0:0:0:
64,192,126558,1,0,0:0:0:0:
448,192,126672,1,0,0:0:0:0:
320,192,126672,1,0,0:0:0:0:
192,192,126672,1,0,0:0:0:0:
64,192,126672,1,0,0:0:0:0:
448,192,126901,1,0,0:0:0:0:
320,192,126901,1,0,0:0:0:0:
64,192,126901,1,0,0:0:0:0:
192,192,127015,1,0,0:0:0:0:
64,192,127015,1,0,0:0:0:0:
320,192,127015,1,0,0:0:0:0:
192,192,127129,1,0,0:0:0:0:
64,192,127129,1,0,0:0:0:0:
448,192,127129,1,0,0:0:0:0:
448,192,127244,1,0,0:0:0:0:
320,192,127244,1,0,0:0:0:0:
64,192,127244,1,0,0:0:0:0:
192,192,127358,1,0,0:0:0:0:
64,192,127358,1,0,0:0:0:0:
448,192,127358,1,0,0:0:0:0:
320,192,127358,1,0,0:0:0:0:
192,192,127472,1,0,0:0:0:0:
64,192,127472,1,0,0:0:0:0:
320,192,127472,1,0,0:0:0:0:
320,192,127587,1,0,0:0:0:0:
192,192,127587,1,0,0:0:0:0:
448,192,127587,1,0,0:0:0:0:
192,192,127701,1,0,0:0:0:0:
448,192,127701,1,0,0:0:0:0:
320,192,127758,1,0,0:0:0:0:
64,192,127758,1,0,0:0:0:0:
192,192,127815,1,0,0:0:0:0:
448,192,127815,1,0,0:0:0:0:
448,192,127929,1,0,0:0:0:0:
320,192,127929,1,0,0:0:0:0:
64,192,127929,1,0,0:0:0:0:
192,192,128044,1,0,0:0:0:0:
64,192,128044,1,0,0:0:0:0:
448,192,128044,1,0,0:0:0:0:
320,192,128044,1,0,0:0:0:0:
448,192,128272,1,0,0:0:0:0:
192,192,128272,1,0,0:0:0:0:
320,192,128272,1,0,0:0:0:0:
320,192,128387,1,0,0:0:0:0:
192,192,128387,1,0,0:0:0:0:
64,192,128387,1,0,0:0:0:0:
448,192,128501,1,0,0:0:0:0:
320,192,128501,1,0,0:0:0:0:
64,192,128501,1,0,0:0:0:0:
448,192,128615,1,0,0:0:0:0:
192,192,128615,1,0,0:0:0:0:
64,192,128615,1,0,0:0:0:0:
64,192,128729,1,0,0:0:0:0:
192,192,128729,1,0,0:0:0:0:
320,192,128729,1,0,0:0:0:0:
448,192,128729,1,0,0:0:0:0:
192,192,128844,1,0,0:0:0:0:
448,192,128844,1,0,0:0:0:0:
320,192,128844,1,0,0:0:0:0:
64,192,128958,1,0,0:0:0:0:
320,192,128958,1,0,0:0:0:0:
192,192,128958,1,0,0:0:0:0:
320,192,129072,128,0,129372:0:0:0:0:
448,192,129072,128,0,129372:0:0:0:0:
64,192,129072,1,0,0:0:0:0:
192,192,129072,1,0,0:0:0:0:
320,192,129415,128,0,129715:0:0:0:0:
448,192,129415,128,0,129715:0:0:0:0:
64,192,129415,1,0,0:0:0:0:
192,192,129415,1,0,0:0:0:0:
64,192,129644,1,0,0:0:0:0:
192,192,129644,1,0,0:0:0:0:
64,192,129758,128,0,130058:0:0:0:0:
192,192,129758,128,0,130058:0:0:0:0:
320,192,129758,1,0,0:0:0:0:
448,192,129758,1,0,0:0:0:0:
64,192,130101,128,0,130401:0:0:0:0:
192,192,130101,128,0,130401:0:0:0:0:
320,192,130101,1,0,0:0:0:0:
448,192,130101,1,0,0:0:0:0:
320,192,130215,1,0,0:0:0:0:
448,192,130215,1,0,0:0:0:0:
320,192,130329,1,0,0:0:0:0:
448,192,130329,1,0,0:0:0:0:
320,192,130444,1,0,0:0:0:0:
448,192,130444,1,0,0:0:0:0:
192,192,130487,1,0,0:0:0:0:
64,192,130529,1,0,0:0:0:0:
320,192,130572,1,0,0:0:0:0:
448,192,130615,1,0,0:0:0:0:
192,192,130658,1,0,0:0:0:0:
320,192,130701,1,0,0:0:0:0:
448,192,130744,1,0,0:0:0:0:
64,192,130787,1,0,0:0:0:0:
192,192,130787,1,0,0:0:0:0:
320,192,130829,1,0,0:0:0:0:
448,192,130872,1,0,0:0:0:0:
192,192,130915,1,0,0:0:0:0:
64,192,130958,1,0,0:0:0:0:
320,192,131001,1,0,0:0:0:0:
192,192,131044,1,0,0:0:0:0:
64,192,131087,1,0,0:0:0:0:
320,192,131129,1,0,0:0:0:0:
448,192,131129,1,0,0:0:0:0:
64,192,131158,1,0,0:0:0:0:
192,192,131187,1,0,0:0:0:0:
320,192,131215,1,0,0:0:0:0:
448,192,131244,1,0,0:0:0:0:
192,192,131272,1,0,0:0:0:0:
64,192,131301,1,0,0:0:0:0:
448,192,131329,1,0,0:0:0:0:
320,192,131358,1,0,0:0:0:0:
64,192,131387,1,0,0:0:0:0:
192,192,131387,1,0,0:0:0:0:
448,192,131472,128,0,131772:0:0:0:0:
320,192,131472,128,0,131772:0:0:0:0:
192,192,131472,128,0,131772:0:0:0:0:
64,192,131472,128,0,131772:0:0:0:0:
64,192,131815,1,0,0:0:0:0:
192,192,131815,1,0,0:0:0:0:
448,192,132072,1,0,0:0:0:0:
192,192,132158,1,0,0:0:0:0:
320,192,132415,1,0,0:0:0:0:
64,192,132501,1,0,0:0:0:0:
320,192,133101,128,0,133358:0:0:0:0:
320,192,133444,128,0,133615:0:0:0:0:
192,192,133872,1,0,0:0:0:0:
320,192,134129,1,0,0:0:0:0:
448,192,134387,1,0,0:0:0:0:
64,192,134558,1,0,0:0:0:0:
448,192,134815,1,0,0:0:0:0:
64,192,135158,1,0,0:0:0:0:
192,192,135158,1,0,0:0:0:0:
64,192,135244,1,0,0:0:0:0:
320,192,135244,1,0,0:0:0:0:
448,192,135244,1,0,0:0:0:0:
192,192,136444,1,0,0:0:0:0:
192,192,136958,1,0,0:0:0:0:
320,192,137129,1,0,0:0:0:0:
448,192,137129,1,0,0:0:0:0:
64,192,137301,1,0,0:0:0:0:
192,192,137301,1,0,0:0:0:0:
320,192,137387,1,0,0:0:0:0:
64,192,137472,1,0,0:0:0:0:
448,192,137472,1,0,0:0:0:0:
192,192,137558,1,0,0:0:0:0:
320,192,137644,1,0,0:0:0:0:
192,192,137729,1,0,0:0:0:0:
320,192,137815,1,0,0:0:0:0:
448,192,137901,1,0,0:0:0:0:
64,192,137987,1,0,0:0:0:0:
320,192,137987,1,0,0:0:0:0:
320,192,138072,1,0,0:0:0:0:
320,192,138158,1,0,0:0:0:0:
320,192,138244,1,0,0:0:0:0:
192,192,138329,1,0,0:0:0:0:
448,192,138329,1,0,0:0:0:0:
192,192,138415,1,0,0:0:0:0:
192,192,138501,1,0,0:0:0:0:
192,192,138587,1,0,0:0:0:0:
64,192,138672,1,0,0:0:0:0:
448,192,138672,1,0,0:0:0:0:
320,192,138758,1,0,0:0:0:0:
64,192,138844,1,0,0:0:0:0:
448,192,138844,1,0,0:0:0:0:
192,192,138929,1,0,0:0:0:0:
320,192,139015,1,0,0:0:0:0:
448,192,139101,1,0,0:0:0:0:
320,192,139187,1,0,0:0:0:0:
192,192,139272,1,0,0:0:0:0:
320,192,139358,1,0,0:0:0:0:
448,192,139358,1,0,0:0:0:0:
64,192,139444,1,0,0:0:0:0:
192,192,139529,1,0,0:0:0:0:
320,192,139615,1,0,0:0:0:0:
448,192,139701,1,0,0:0:0:0:
192,192,139787,1,0,0:0:0:0:
320,192,139872,1,0,0:0:0:0:
448,192,139958,1,0,0:0:0:0:
64,192,140044,1,0,0:0:0:0:
192,192,140044,1,0,0:0:0:0:
320,192,140129,1,0,0:0:0:0:
64,192,140215,1,0,0:0:0:0:
448,192,140215,1,0,0:0:0:0:
192,192,140301,1,0,0:0:0:0:
320,192,140301,1,0,0:0:0:0:
64,192,140387,1,0,0:0:0:0:
448,192,140387,1,0,0:0:0:0:
320,192,140472,1,0,0:0:0:0:
192,192,140558,1,0,0:0:0:0:
448,192,140644,1,0,0:0:0:0:
64,192,140729,1,0,0:0:0:0:
192,192,140729,1,0,0:0:0:0:
448,192,140815,1,0,0:0:0:0:
64,192,140901,1,0,0:0:0:0:
320,192,140901,1,0,0:0:0:0:
192,192,140987,1,0,0:0:0:0:
64,192,141072,1,0,0:0:0:0:
448,192,141072,1,0,0:0:0:0:
320,192,141158,1,0,0:0:0:0:
192,192,141244,1,0,0:0:0:0:
448,192,141244,1,0,0:0:0:0:
64,192,141329,1,0,0:0:0:0:
192,192,141415,1,0,0:0:0:0:
64,192,141501,1,0,0:0:0:0:
192,192,141587,1,0,0:0:0:0:
320,192,141672,5,0,0:0:0:0:
448,192,141758,1,0,0:0:0:0:
320,192,141844,1,0,0:0:0:0:
192,192,141929,1,0,0:0:0:0:
64,192,142015,1,0,0:0:0:0:
320,192,142101,1,0,0:0:0:0:
448,192,142187,1,0,0:0:0:0:
320,192,142272,1,0,0:0:0:0:
192,192,142358,1,0,0:0:0:0:
64,192,142444,1,0,0:0:0:0:
192,192,142529,1,0,0:0:0:0:
320,192,142615,1,0,0:0:0:0:
448,192,142701,1,0,0:0:0:0:
64,192,142787,5,0,0:0:0:0:
192,192,142787,1,0,0:0:0:0:
320,192,142787,1,0,0:0:0:0:
64,192,142958,1,0,0:0:0:0:
192,192,142958,1,0,0:0:0:0:
320,192,142958,1,0,0:0:0:0:
64,192,143129,1,0,0:0:0:0:
192,192,143129,1,0,0:0:0:0:
448,192,143129,1,0,0:0:0:0:
64,192,143301,1,0,0:0:0:0:
192,192,143301,1,0,0:0:0:0:
448,192,143301,1,0,0:0:0:0:
192,192,143472,1,0,0:0:0:0:
320,192,143472,1,0,0:0:0:0:
448,192,143472,1,0,0:0:0:0:
64,192,143472,1,0,0:0:0:0:
320,192,143644,1,0,0:0:0:0:
448,192,143644,1,0,0:0:0:0:
64,192,143644,1,0,0:0:0:0:
320,192,143729,1,0,0:0:0:0:
448,192,143729,1,0,0:0:0:0:
64,192,143815,1,0,0:0:0:0:
192,192,143815,1,0,0:0:0:0:
448,192,143815,1,0,0:0:0:0:
64,192,143901,1,0,0:0:0:0:
192,192,143901,1,0,0:0:0:0:
64,192,143987,1,0,0:0:0:0:
192,192,143987,1,0,0:0:0:0:
320,192,143987,1,0,0:0:0:0:
448,192,143987,1,0,0:0:0:0:
64,192,144158,1,0,0:0:0:0:
192,192,144158,1,0,0:0:0:0:
448,192,144158,1,0,0:0:0:0:
64,192,144244,1,0,0:0:0:0:
192,192,144244,1,0,0:0:0:0:
320,192,144329,1,0,0:0:0:0:
448,192,144329,1,0,0:0:0:0:
64,192,144329,1,0,0:0:0:0:
320,192,144415,1,0,0:0:0:0:
448,192,144415,1,0,0:0:0:0:
64,192,144501,1,0,0:0:0:0:
192,192,144501,1,0,0:0:0:0:
320,192,144501,1,0,0:0:0:0:
448,192,144501,1,0,0:0:0:0:
192,192,144672,1,0,0:0:0:0:
448,192,144672,1,0,0:0:0:0:
64,192,144672,1,0,0:0:0:0:
192,192,144758,1,0,0:0:0:0:
448,192,144758,1,0,0:0:0:0:
64,192,144844,1,0,0:0:0:0:
320,192,144844,1,0,0:0:0:0:
448,192,144844,1,0,0:0:0:0:
64,192,144929,1,0,0:0:0:0:
320,192,144929,1,0,0:0:0:0:
64,192,145015,1,0,0:0:0:0:
192,192,145015,1,0,0:0:0:0:
320,192,145015,1,0,0:0:0:0:
448,192,145015,1,0,0:0:0:0:
192,192,145187,1,0,0:0:0:0:
64,192,145187,1,0,0:0:0:0:
448,192,145187,1,0,0:0:0:0:
192,192,145272,1,0,0:0:0:0:
64,192,145272,1,0,0:0:0:0:
64,192,145358,1,0,0:0:0:0:
192,192,145358,1,0,0:0:0:0:
320,192,145358,1,0,0:0:0:0:
448,192,145358,1,0,0:0:0:0:
320,192,145529,1,0,0:0:0:0:
448,192,145529,1,0,0:0:0:0:
64,192,145529,1,0,0:0:0:0:
320,192,145615,1,0,0:0:0:0:
448,192,145615,1,0,0:0:0:0:
192,192,145701,1,0,0:0:0:0:
64,192,145701,1,0,0:0:0:0:
448,192,145744,1,0,0:0:0:0:
320,192,145744,1,0,0:0:0:0:
192,192,145787,1,0,0:0:0:0:
64,192,145787,1,0,0:0:0:0:
448,192,145829,1,0,0:0:0:0:
320,192,145829,1,0,0:0:0:0:
192,192,145872,1,0,0:0:0:0:
64,192,145872,1,0,0:0:0:0:
448,192,145958,1,0,0:0:0:0:
320,192,145958,1,0,0:0:0:0:
64,192,146044,1,0,0:0:0:0:
192,192,146044,1,0,0:0:0:0:
320,192,146044,1,0,0:0:0:0:
448,192,146044,1,0,0:0:0:0:
64,192,146215,1,0,0:0:0:0:
192,192,146215,1,0,0:0:0:0:
320,192,146215,1,0,0:0:0:0:
448,192,146215,1,0,0:0:0:0:
64,192,146387,1,0,0:0:0:0:
192,192,146387,1,0,0:0:0:0:
320,192,146387,1,0,0:0:0:0:
64,192,146472,1,0,0:0:0:0:
192,192,146472,1,0,0:0:0:0:
320,192,146472,1,0,0:0:0:0:
192,192,146644,1,0,0:0:0:0:
320,192,146644,1,0,0:0:0:0:
448,192,146644,1,0,0:0:0:0:
448,192,146729,1,0,0:0:0:0:
320,192,146729,1,0,0:0:0:0:
192,192,146729,1,0,0:0:0:0:
64,192,146729,1,0,0:0:0:0:
64,192,146901,1,0,0:0:0:0:
192,192,146901,1,0,0:0:0:0:
448,192,146901,1,0,0:0:0:0:
64,192,147072,1,0,0:0:0:0:
192,192,147072,1,0,0:0:0:0:
320,192,147072,1,0,0:0:0:0:
448,192,147072,1,0,0:0:0:0:
320,192,147158,1,0,0:0:0:0:
192,192,147158,1,0,0:0:0:0:
448,192,147158,1,0,0:0:0:0:
64,192,147329,1,0,0:0:0:0:
192,192,147329,1,0,0:0:0:0:
320,192,147329,1,0,0:0:0:0:
64,192,147415,1,0,0:0:0:0:
192,192,147415,1,0,0:0:0:0:
320,192,147415,1,0,0:0:0:0:
448,192,147415,1,0,0:0:0:0:
320,192,147587,1,0,0:0:0:0:
448,192,147587,1,0,0:0:0:0:
64,192,147672,1,0,0:0:0:0:
192,192,147672,1,0,0:0:0:0:
320,192,147672,1,0,0:0:0:0:
448,192,147672,1,0,0:0:0:0:
64,192,147758,1,0,0:0:0:0:
192,192,147758,1,0,0:0:0:0:
320,192,147844,1,0,0:0:0:0:
448,192,147844,1,0,0:0:0:0:
192,192,147929,128,0,148229:0:0:0:0:
320,192,147929,128,0,148229:0:0:0:0:
448,192,147929,128,0,148229:0:0:0:0:
64,192,147929,128,0,148229:0:0:0:0:
192,192,148272,1,0,0:0:0:0:
320,192,148272,1,0,0:0:0:0:
448,192,148272,1,0,0:0:0:0:
320,192,148358,1,0,0:0:0:0:
448,192,148358,1,0,0:0:0:0:
64,192,148444,1,0,0:0:0:0:
192,192,148444,1,0,0:0:0:0:
320,192,148444,1,0,0:0:0:0:
64,192,148529,1,0,0:0:0:0:
192,192,148529,1,0,0:0:0:0:
64,192,148615,1,0,0:0:0:0:
320,192,148615,1,0,0:0:0:0:
448,192,148615,1,0,0:0:0:0:
320,192,148701,1,0,0:0:0:0:
448,192,148701,1,0,0:0:0:0:
64,192,148787,1,0,0:0:0:0:
192,192,148787,1,0,0:0:0:0:
448,192,148787,1,0,0:0:0:0:
64,192,148872,1,0,0:0:0:0:
192,192,148872,1,0,0:0:0:0:
64,192,148958,1,0,0:0:0:0:
192,192,148958,1,0,0:0:0:0:
448,192,148958,1,0,0:0:0:0:
320,192,148958,1,0,0:0:0:0:
320,192,149044,1,0,0:0:0:0:
448,192,149044,1,0,0:0:0:0:
64,192,149129,1,0,0:0:0:0:
192,192,149129,1,0,0:0:0:0:
64,192,149215,1,0,0:0:0:0:
192,192,149215,1,0,0:0:0:0:
320,192,149215,1,0,0:0:0:0:
448,192,149215,1,0,0:0:0:0:
320,192,149301,1,0,0:0:0:0:
448,192,149301,1,0,0:0:0:0:
64,192,149387,1,0,0:0:0:0:
192,192,149387,1,0,0:0:0:0:
64,192,149472,1,0,0:0:0:0:
192,192,149472,1,0,0:0:0:0:
320,192,149472,1,0,0:0:0:0:
448,192,149472,1,0,0:0:0:0:
320,192,149558,1,0,0:0:0:0:
448,192,149558,1,0,0:0:0:0:
320,192,149644,1,0,0:0:0:0:
448,192,149644,1,0,0:0:0:0:
64,192,149729,1,0,0:0:0:0:
192,192,149729,1,0,0:0:0:0:
320,192,149729,1,0,0:0:0:0:
448,192,149729,1,0,0:0:0:0:
64,192,149815,1,0,0:0:0:0:
192,192,149815,1,0,0:0:0:0:
64,192,149901,1,0,0:0:0:0:
192,192,149901,1,0,0:0:0:0:
64,192,149987,1,0,0:0:0:0:
192,192,149987,1,0,0:0:0:0:
320,192,149987,1,0,0:0:0:0:
448,192,149987,1,0,0:0:0:0:
320,192,150072,1,0,0:0:0:0:
448,192,150072,1,0,0:0:0:0:
64,192,150158,1,0,0:0:0:0:
192,192,150158,1,0,0:0:0:0:
64,192,150244,1,0,0:0:0:0:
192,192,150244,1,0,0:0:0:0:
320,192,150244,1,0,0:0:0:0:
448,192,150244,1,0,0:0:0:0:
320,192,150329,1,0,0:0:0:0:
448,192,150329,1,0,0:0:0:0:
64,192,150415,1,0,0:0:0:0:
192,192,150415,1,0,0:0:0:0:
64,192,150501,1,0,0:0:0:0:
192,192,150501,1,0,0:0:0:0:
320,192,150501,1,0,0:0:0:0:
448,192,150501,1,0,0:0:0:0:
320,192,150587,1,0,0:0:0:0:
448,192,150587,1,0,0:0:0:0:
64,192,150672,1,0,0:0:0:0:
192,192,150672,1,0,0:0:0:0:
320,192,150758,1,0,0:0:0:0:
448,192,150758,1,0,0:0:0:0:
192,192,150844,1,0,0:0:0:0:
64,192,150844,1,0,0:0:0:0:
320,192,150844,1,0,0:0:0:0:
448,192,150844,1,0,0:0:0:0:
64,192,151015,1,0,0:0:0:0:
192,192,151015,1,0,0:0:0:0:
448,192,151101,1,0,0:0:0:0:
320,192,151101,1,0,0:0:0:0:
192,192,151187,1,0,0:0:0:0:
64,192,151187,1,0,0:0:0:0:
448,192,151272,1,0,0:0:0:0:
320,192,151272,1,0,0:0:0:0:
64,192,151358,1,0,0:0:0:0:
192,192,151401,1,0,0:0:0:0:
320,192,151444,1,0,0:0:0:0:
448,192,151487,1,0,0:0:0:0:
64,192,151529,1,0,0:0:0:0:
192,192,151572,1,0,0:0:0:0:
320,192,151615,1,0,0:0:0:0:
448,192,151658,1,0,0:0:0:0:
192,192,151701,1,0,0:0:0:0:
64,192,151729,1,0,0:0:0:0:
448,192,151758,1,0,0:0:0:0:
320,192,151787,1,0,0:0:0:0:
192,192,151815,1,0,0:0:0:0:
64,192,151844,1,0,0:0:0:0:
448,192,151872,1,0,0:0:0:0:
192,192,151915,1,0,0:0:0:0:
448,192,151958,1,0,0:0:0:0:
192,192,152001,1,0,0:0:0:0:
320,192,152044,1,0,0:0:0:0:
448,192,152072,1,0,0:0:0:0:
64,192,152101,1,0,0:0:0:0:
192,192,152129,1,0,0:0:0:0:
320,192,152158,1,0,0:0:0:0:
448,192,152187,1,0,0:0:0:0:
64,192,152215,1,0,0:0:0:0:
320,192,152258,1,0,0:0:0:0:
64,192,152301,1,0,0:0:0:0:
320,192,152344,1,0,0:0:0:0:
64,192,152387,128,0,152601:0:0:0:0:
192,192,152387,128,0,152601:0:0:0:0:
320,192,152644,128,0,152858:0:0:0:0:
448,192,152644,128,0,152858:0:0:0:0:
320,192,152901,1,0,0:0:0:0:
448,192,152901,1,0,0:0:0:0:
64,192,152987,128,0,153201:0:0:0:0:
192,192,152987,128,0,153201:0:0:0:0:
64,192,153244,1,0,0:0:0:0:
192,192,153244,1,0,0:0:0:0:
64,192,153415,128,0,153715:0:0:0:0:
320,192,153415,128,0,153715:0:0:0:0:
192,192,153415,128,0,153715:0:0:0:0:
448,192,153415,128,0,153715:0:0:0:0:
64,192,153758,1,0,0:0:0:0:
192,192,153758,1,0,0:0:0:0:
320,192,153801,1,0,0:0:0:0:
448,192,153844,1,0,0:0:0:0:
64,192,153844,1,0,0:0:0:0:
320,192,153929,1,0,0:0:0:0:
448,192,153929,1,0,0:0:0:0:
192,192,153929,1,0,0:0:0:0:
64,192,154015,1,0,0:0:0:0:
192,192,154015,1,0,0:0:0:0:
320,192,154101,1,0,0:0:0:0:
448,192,154101,1,0,0:0:0:0:
192,192,154144,1,0,0:0:0:0:
64,192,154187,1,0,0:0:0:0:
448,192,154187,1,0,0:0:0:0:
64,192,154272,1,0,0:0:0:0:
192,192,154272,1,0,0:0:0:0:
320,192,154272,1,0,0:0:0:0:
320,192,154358,1,0,0:0:0:0:
448,192,154358,1,0,0:0:0:0:
64,192,154444,1,0,0:0:0:0:
192,192,154444,1,0,0:0:0:0:
320,192,154487,1,0,0:0:0:0:
448,192,154529,1,0,0:0:0:0:
64,192,154529,1,0,0:0:0:0:
320,192,154615,1,0,0:0:0:0:
448,192,154615,1,0,0:0:0:0:
192,192,154615,1,0,0:0:0:0:
64,192,154701,1,0,0:0:0:0:
192,192,154701,1,0,0:0:0:0:
64,192,154787,1,0,0:0:0:0:
192,192,154787,1,0,0:0:0:0:
320,192,154787,1,0,0:0:0:0:
448,192,154787,1,0,0:0:0:0:
320,192,154872,1,0,0:0:0:0:
448,192,154872,1,0,0:0:0:0:
448,192,154958,1,0,0:0:0:0:
192,192,154958,1,0,0:0:0:0:
64,192,154958,1,0,0:0:0:0:
64,192,155044,1,0,0:0:0:0:
192,192,155044,1,0,0:0:0:0:
448,192,155129,1,0,0:0:0:0:
64,192,155129,1,0,0:0:0:0:
192,192,155158,1,0,0:0:0:0:
320,192,155187,1,0,0:0:0:0:
448,192,155215,1,0,0:0:0:0:
64,192,155215,1,0,0:0:0:0:
192,192,155301,1,0,0:0:0:0:
64,192,155301,1,0,0:0:0:0:
320,192,155301,1,0,0:0:0:0:
448,192,155387,1,0,0:0:0:0:
320,192,155387,1,0,0:0:0:0:
64,192,155472,1,0,0:0:0:0:
192,192,155472,1,0,0:0:0:0:
320,192,155515,1,0,0:0:0:0:
448,192,155515,1,0,0:0:0:0:
192,192,155558,1,0,0:0:0:0:
64,192,155558,1,0,0:0:0:0:
448,192,155644,1,0,0:0:0:0:
320,192,155644,1,0,0:0:0:0:
192,192,155687,1,0,0:0:0:0:
64,192,155687,1,0,0:0:0:0:
320,192,155729,1,0,0:0:0:0:
448,192,155729,1,0,0:0:0:0:
64,192,155815,1,0,0:0:0:0:
192,192,155815,1,0,0:0:0:0:
320,192,155858,1,0,0:0:0:0:
448,192,155858,1,0,0:0:0:0:
192,192,155901,1,0,0:0:0:0:
64,192,155901,1,0,0:0:0:0:
320,192,155987,1,0,0:0:0:0:
448,192,155987,1,0,0:0:0:0:
64,192,155987,1,0,0:0:0:0:
448,192,156072,1,0,0:0:0:0:
320,192,156072,1,0,0:0:0:0:
448,192,156158,1,0,0:0:0:0:
320,192,156158,1,0,0:0:0:0:
192,192,156158,1,0,0:0:0:0:
64,192,156158,1,0,0:0:0:0:
192,192,156244,1,0,0:0:0:0:
64,192,156244,1,0,0:0:0:0:
320,192,156329,1,0,0:0:0:0:
448,192,156329,1,0,0:0:0:0:
192,192,156358,1,0,0:0:0:0:
64,192,156387,1,0,0:0:0:0:
320,192,156415,1,0,0:0:0:0:
192,192,156444,1,0,0:0:0:0:
64,192,156472,1,0,0:0:0:0:
320,192,156501,1,0,0:0:0:0:
448,192,156501,1,0,0:0:0:0:
192,192,156544,1,0,0:0:0:0:
64,192,156587,1,0,0:0:0:0:
448,192,156587,1,0,0:0:0:0:
192,192,156672,1,0,0:0:0:0:
64,192,156672,1,0,0:0:0:0:
320,192,156672,1,0,0:0:0:0:
448,192,156758,1,0,0:0:0:0:
320,192,156758,1,0,0:0:0:0:
192,192,156844,1,0,0:0:0:0:
64,192,156844,1,0,0:0:0:0:
320,192,156887,1,0,0:0:0:0:
448,192,156929,1,0,0:0:0:0:
64,192,156929,1,0,0:0:0:0:
448,192,157015,1,0,0:0:0:0:
320,192,157015,1,0,0:0:0:0:
192,192,157015,1,0,0:0:0:0:
192,192,157101,1,0,0:0:0:0:
64,192,157101,1,0,0:0:0:0:
448,192,157187,1,0,0:0:0:0:
320,192,157187,1,0,0:0:0:0:
192,192,157229,1,0,0:0:0:0:
64,192,157272,1,0,0:0:0:0:
448,192,157272,1,0,0:0:0:0:
192,192,157358,1,0,0:0:0:0:
64,192,157358,1,0,0:0:0:0:
320,192,157358,1,0,0:0:0:0:
448,192,157444,1,0,0:0:0:0:
320,192,157444,1,0,0:0:0:0:
448,192,157529,1,0,0:0:0:0:
320,192,157529,1,0,0:0:0:0:
192,192,157529,1,0,0:0:0:0:
64,192,157529,1,0,0:0:0:0:
192,192,157615,1,0,0:0:0:0:
64,192,157615,1,0,0:0:0:0:
64,192,157701,1,0,0:0:0:0:
320,192,157701,1,0,0:0:0:0:
448,192,157701,1,0,0:0:0:0:
448,192,157787,1,0,0:0:0:0:
320,192,157787,1,0,0:0:0:0:
64,192,157872,1,0,0:0:0:0:
448,192,157872,1,0,0:0:0:0:
320,192,157901,1,0,0:0:0:0:
192,192,157929,1,0,0:0:0:0:
64,192,157958,1,0,0:0:0:0:
448,192,157958,1,0,0:0:0:0:
320,192,158044,1,0,0:0:0:0:
448,192,158044,1,0,0:0:0:0:
192,192,158044,1,0,0:0:0:0:
64,192,158129,1,0,0:0:0:0:
192,192,158129,1,0,0:0:0:0:
448,192,158215,1,0,0:0:0:0:
192,192,158215,1,0,0:0:0:0:
64,192,158258,1,0,0:0:0:0:
320,192,158258,1,0,0:0:0:0:
448,192,158301,1,0,0:0:0:0:
192,192,158301,1,0,0:0:0:0:
64,192,158387,1,0,0:0:0:0:
320,192,158387,1,0,0:0:0:0:
448,192,158429,1,0,0:0:0:0:
192,192,158429,1,0,0:0:0:0:
64,192,158472,1,0,0:0:0:0:
320,192,158472,1,0,0:0:0:0:
448,192,158558,1,0,0:0:0:0:
320,192,158558,1,0,0:0:0:0:
448,192,158644,1,0,0:0:0:0:
320,192,158644,1,0,0:0:0:0:
64,192,158729,128,0,158858:0:0:0:0:
192,192,158729,128,0,158858:0:0:0:0:
320,192,158901,1,0,0:0:0:0:
448,192,158901,1,0,0:0:0:0:
192,192,158987,1,0,0:0:0:0:
64,192,158987,1,0,0:0:0:0:
64,192,159072,128,0,159201:0:0:0:0:
192,192,159072,128,0,159201:0:0:0:0:
320,192,159072,128,0,159201:0:0:0:0:
448,192,159072,128,0,159201:0:0:0:0:
448,192,159244,1,0,0:0:0:0:
320,192,159244,1,0,0:0:0:0:
192,192,159287,1,0,0:0:0:0:
448,192,159329,1,0,0:0:0:0:
64,192,159329,1,0,0:0:0:0:
320,192,159415,1,0,0:0:0:0:
64,192,159415,1,0,0:0:0:0:
192,192,159415,1,0,0:0:0:0:
320,192,159501,1,0,0:0:0:0:
448,192,159501,1,0,0:0:0:0:
64,192,159587,1,0,0:0:0:0:
192,192,159587,1,0,0:0:0:0:
320,192,159629,1,0,0:0:0:0:
64,192,159672,1,0,0:0:0:0:
448,192,159672,1,0,0:0:0:0:
448,192,159758,1,0,0:0:0:0:
192,192,159758,1,0,0:0:0:0:
320,192,159758,1,0,0:0:0:0:
64,192,159844,1,0,0:0:0:0:
192,192,159844,1,0,0:0:0:0:
320,192,159929,1,0,0:0:0:0:
448,192,159929,1,0,0:0:0:0:
192,192,159972,1,0,0:0:0:0:
64,192,160015,1,0,0:0:0:0:
448,192,160015,1,0,0:0:0:0:
192,192,160101,1,0,0:0:0:0:
64,192,160101,1,0,0:0:0:0:
320,192,160101,1,0,0:0:0:0:
448,192,160187,1,0,0:0:0:0:
320,192,160187,1,0,0:0:0:0:
64,192,160272,1,0,0:0:0:0:
192,192,160272,1,0,0:0:0:0:
320,192,160272,1,0,0:0:0:0:
448,192,160272,1,0,0:0:0:0:
64,192,160358,1,0,0:0:0:0:
192,192,160358,1,0,0:0:0:0:
448,192,160444,1,0,0:0:0:0:
320,192,160444,1,0,0:0:0:0:
64,192,160444,1,0,0:0:0:0:
320,192,160529,1,0,0:0:0:0:
448,192,160529,1,0,0:0:0:0:
448,192,160615,1,0,0:0:0:0:
64,192,160615,1,0,0:0:0:0:
320,192,160644,1,0,0:0:0:0:
192,192,160672,1,0,0:0:0:0:
64,192,160701,1,0,0:0:0:0:
448,192,160701,1,0,0:0:0:0:
192,192,160787,1,0,0:0:0:0:
448,192,160787,1,0,0:0:0:0:
320,192,160787,1,0,0:0:0:0:
64,192,160872,1,0,0:0:0:0:
192,192,160872,1,0,0:0:0:0:
448,192,160958,1,0,0:0:0:0:
320,192,160958,1,0,0:0:0:0:
64,192,161001,1,0,0:0:0:0:
192,192,161001,1,0,0:0:0:0:
320,192,161044,1,0,0:0:0:0:
448,192,161044,1,0,0:0:0:0:
64,192,161129,1,0,0:0:0:0:
192,192,161129,1,0,0:0:0:0:
320,192,161172,1,0,0:0:0:0:
448,192,161172,1,0,0:0:0:0:
192,192,161215,1,0,0:0:0:0:
64,192,161215,1,0,0:0:0:0:
448,192,161301,1,0,0:0:0:0:
320,192,161301,1,0,0:0:0:0:
192,192,161344,1,0,0:0:0:0:
64,192,161344,1,0,0:0:0:0:
448,192,161387,1,0,0:0:0:0:
320,192,161387,1,0,0:0:0:0:
192,192,161472,1,0,0:0:0:0:
448,192,161472,1,0,0:0:0:0:
64,192,161472,1,0,0:0:0:0:
64,192,161558,1,0,0:0:0:0:
192,192,161558,1,0,0:0:0:0:
64,192,161644,1,0,0:0:0:0:
192,192,161644,1,0,0:0:0:0:
320,192,161644,1,0,0:0:0:0:
448,192,161644,1,0,0:0:0:0:
448,192,161729,1,0,0:0:0:0:
320,192,161729,1,0,0:0:0:0:
64,192,161815,1,0,0:0:0:0:
192,192,161815,1,0,0:0:0:0:
320,192,161844,1,0,0:0:0:0:
448,192,161872,1,0,0:0:0:0:
192,192,161901,1,0,0:0:0:0:
320,192,161929,1,0,0:0:0:0:
448,192,161958,1,0,0:0:0:0:
64,192,161987,1,0,0:0:0:0:
192,192,161987,1,0,0:0:0:0:
320,192,162029,1,0,0:0:0:0:
448,192,162072,1,0,0:0:0:0:
64,192,162072,1,0,0:0:0:0:
192,192,162158,1,0,0:0:0:0:
320,192,162158,1,0,0:0:0:0:
448,192,162158,1,0,0:0:0:0:
192,192,162244,1,0,0:0:0:0:
64,192,162244,1,0,0:0:0:0:
448,192,162329,1,0,0:0:0:0:
320,192,162329,1,0,0:0:0:0:
192,192,162372,1,0,0:0:0:0:
448,192,162415,1,0,0:0:0:0:
64,192,162415,1,0,0:0:0:0:
64,192,162501,1,0,0:0:0:0:
320,192,162501,1,0,0:0:0:0:
192,192,162501,1,0,0:0:0:0:
448,192,162587,1,0,0:0:0:0:
320,192,162587,1,0,0:0:0:0:
192,192,162672,1,0,0:0:0:0:
64,192,162672,1,0,0:0:0:0:
320,192,162715,1,0,0:0:0:0:
64,192,162758,1,0,0:0:0:0:
448,192,162758,1,0,0:0:0:0:
320,192,162844,1,0,0:0:0:0:
192,192,162844,1,0,0:0:0:0:
448,192,162844,1,0,0:0:0:0:
192,192,162929,1,0,0:0:0:0:
64,192,162929,1,0,0:0:0:0:
64,192,163015,1,0,0:0:0:0:
192,192,163015,1,0,0:0:0:0:
320,192,163015,1,0,0:0:0:0:
448,192,163015,1,0,0:0:0:0:
448,192,163101,1,0,0:0:0:0:
320,192,163101,1,0,0:0:0:0:
64,192,163187,1,0,0:0:0:0:
192,192,163187,1,0,0:0:0:0:
448,192,163187,1,0,0:0:0:0:
192,192,163272,1,0,0:0:0:0:
64,192,163272,1,0,0:0:0:0:
448,192,163358,1,0,0:0:0:0:
320,192,163358,1,0,0:0:0:0:
64,192,163387,1,0,0:0:0:0:
192,192,163415,1,0,0:0:0:0:
448,192,163444,1,0,0:0:0:0:
320,192,163444,1,0,0:0:0:0:
64,192,163529,1,0,0:0:0:0:
192,192,163529,1,0,0:0:0:0:
448,192,163558,1,0,0:0:0:0:
320,192,163587,1,0,0:0:0:0:
64,192,163615,1,0,0:0:0:0:
192,192,163615,1,0,0:0:0:0:
320,192,163701,128,0,164044:0:0:0:0:
448,192,163701,128,0,164044:0:0:0:0:
64,192,164044,1,0,0:0:0:0:
192,192,164044,1,0,0:0:0:0:
64,192,164129,1,0,0:0:0:0:
192,192,164129,1,0,0:0:0:0:
320,192,164215,1,0,0:0:0:0:
448,192,164215,1,0,0:0:0:0:
320,192,164301,1,0,0:0:0:0:
448,192,164301,1,0,0:0:0:0:
64,192,164387,128,0,164687:0:0:0:0:
192,192,164387,128,0,164687:0:0:0:0:
320,192,164387,128,0,164687:0:0:0:0:
448,192,164387,128,0,164687:0:0:0:0:
320,192,164729,1,0,0:0:0:0:
448,192,164729,1,0,0:0:0:0:
192,192,164772,1,0,0:0:0:0:
64,192,164815,1,0,0:0:0:0:
448,192,164815,1,0,0:0:0:0:
192,192,164901,1,0,0:0:0:0:
64,192,164901,1,0,0:0:0:0:
320,192,164901,1,0,0:0:0:0:
448,192,164987,1,0,0:0:0:0:
320,192,164987,1,0,0:0:0:0:
192,192,165072,1,0,0:0:0:0:
64,192,165072,1,0,0:0:0:0:
320,192,165072,1,0,0:0:0:0:
448,192,165072,1,0,0:0:0:0:
64,192,165158,1,0,0:0:0:0:
192,192,165158,1,0,0:0:0:0:
320,192,165244,1,0,0:0:0:0:
192,192,165244,1,0,0:0:0:0:
448,192,165244,1,0,0:0:0:0:
320,192,165329,1,0,0:0:0:0:
448,192,165329,1,0,0:0:0:0:
64,192,165415,1,0,0:0:0:0:
192,192,165415,1,0,0:0:0:0:
320,192,165458,1,0,0:0:0:0:
64,192,165501,1,0,0:0:0:0:
448,192,165501,1,0,0:0:0:0:
320,192,165587,1,0,0:0:0:0:
192,192,165587,1,0,0:0:0:0:
448,192,165587,1,0,0:0:0:0:
64,192,165672,1,0,0:0:0:0:
192,192,165672,1,0,0:0:0:0:
192,192,165758,1,0,0:0:0:0:
64,192,165758,1,0,0:0:0:0:
448,192,165758,1,0,0:0:0:0:
320,192,165758,1,0,0:0:0:0:
320,192,165844,1,0,0:0:0:0:
448,192,165844,1,0,0:0:0:0:
64,192,165929,1,0,0:0:0:0:
320,192,165929,1,0,0:0:0:0:
192,192,165929,1,0,0:0:0:0:
64,192,166015,1,0,0:0:0:0:
192,192,166015,1,0,0:0:0:0:
64,192,166101,1,0,0:0:0:0:
448,192,166101,1,0,0:0:0:0:
320,192,166129,1,0,0:0:0:0:
192,192,166158,1,0,0:0:0:0:
64,192,166187,1,0,0:0:0:0:
448,192,166187,1,0,0:0:0:0:
320,192,166272,1,0,0:0:0:0:
448,192,166272,1,0,0:0:0:0:
192,192,166272,1,0,0:0:0:0:
64,192,166358,1,0,0:0:0:0:
192,192,166358,1,0,0:0:0:0:
448,192,166444,1,0,0:0:0:0:
320,192,166444,1,0,0:0:0:0:
64,192,166444,1,0,0:0:0:0:
192,192,166444,1,0,0:0:0:0:
320,192,166529,1,0,0:0:0:0:
448,192,166529,1,0,0:0:0:0:
64,192,166615,1,0,0:0:0:0:
192,192,166615,1,0,0:0:0:0:
320,192,166658,1,0,0:0:0:0:
64,192,166701,1,0,0:0:0:0:
448,192,166701,1,0,0:0:0:0:
448,192,166787,1,0,0:0:0:0:
320,192,166787,1,0,0:0:0:0:
192,192,166829,1,0,0:0:0:0:
64,192,166829,1,0,0:0:0:0:
320,192,166872,1,0,0:0:0:0:
448,192,166872,1,0,0:0:0:0:
64,192,166958,1,0,0:0:0:0:
448,192,166958,1,0,0:0:0:0:
192,192,166958,1,0,0:0:0:0:
64,192,167044,1,0,0:0:0:0:
192,192,167044,1,0,0:0:0:0:
320,192,167129,1,0,0:0:0:0:
448,192,167129,1,0,0:0:0:0:
64,192,167129,1,0,0:0:0:0:
320,192,167215,1,0,0:0:0:0:
448,192,167215,1,0,0:0:0:0:
320,192,167301,128,0,167429:0:0:0:0:
64,192,167301,128,0,167429:0:0:0:0:
192,192,167301,128,0,167429:0:0:0:0:
448,192,167301,128,0,167429:0:0:0:0:
64,192,167472,1,0,0:0:0:0:
192,192,167472,1,0,0:0:0:0:
320,192,167515,1,0,0:0:0:0:
64,192,167558,1,0,0:0:0:0:
448,192,167558,1,0,0:0:0:0:
192,192,167644,1,0,0:0:0:0:
448,192,167644,1,0,0:0:0:0:
320,192,167644,1,0,0:0:0:0:
64,192,167729,1,0,0:0:0:0:
192,192,167729,1,0,0:0:0:0:
64,192,167815,1,0,0:0:0:0:
192,192,167815,1,0,0:0:0:0:
448,192,167815,1,0,0:0:0:0:
320,192,167815,1,0,0:0:0:0:
320,192,167901,1,0,0:0:0:0:
448,192,167901,1,0,0:0:0:0:
64,192,167987,1,0,0:0:0:0:
320,192,167987,1,0,0:0:0:0:
192,192,167987,1,0,0:0:0:0:
64,192,168072,1,0,0:0:0:0:
192,192,168072,1,0,0:0:0:0:
320,192,168158,1,0,0:0:0:0:
448,192,168158,1,0,0:0:0:0:
192,192,168201,1,0,0:0:0:0:
64,192,168244,1,0,0:0:0:0:
448,192,168244,1,0,0:0:0:0:
64,192,168329,1,0,0:0:0:0:
320,192,168329,1,0,0:0:0:0:
192,192,168329,1,0,0:0:0:0:
448,192,168415,1,0,0:0:0:0:
320,192,168415,1,0,0:0:0:0:
192,192,168501,1,0,0:0:0:0:
64,192,168501,1,0,0:0:0:0:
320,192,168501,1,0,0:0:0:0:
448,192,168501,1,0,0:0:0:0:
64,192,168587,1,0,0:0:0:0:
192,192,168587,1,0,0:0:0:0:
448,192,168672,1,0,0:0:0:0:
192,192,168672,1,0,0:0:0:0:
320,192,168672,1,0,0:0:0:0:
320,192,168758,1,0,0:0:0:0:
448,192,168758,1,0,0:0:0:0:
448,192,168844,1,0,0:0:0:0:
64,192,168844,1,0,0:0:0:0:
192,192,168872,1,0,0:0:0:0:
320,192,168901,1,0,0:0:0:0:
64,192,168929,1,0,0:0:0:0:
448,192,168929,1,0,0:0:0:0:
320,192,169015,1,0,0:0:0:0:
64,192,169015,1,0,0:0:0:0:
192,192,169015,1,0,0:0:0:0:
448,192,169101,1,0,0:0:0:0:
320,192,169101,1,0,0:0:0:0:
320,192,169187,1,0,0:0:0:0:
192,192,169187,1,0,0:0:0:0:
64,192,169187,1,0,0:0:0:0:
448,192,169187,1,0,0:0:0:0:
192,192,169272,1,0,0:0:0:0:
64,192,169272,1,0,0:0:0:0:
448,192,169358,1,0,0:0:0:0:
320,192,169358,1,0,0:0:0:0:
192,192,169401,1,0,0:0:0:0:
64,192,169401,1,0,0:0:0:0:
448,192,169444,1,0,0:0:0:0:
320,192,169444,1,0,0:0:0:0:
192,192,169529,1,0,0:0:0:0:
64,192,169529,1,0,0:0:0:0:
448,192,169529,1,0,0:0:0:0:
64,192,169615,1,0,0:0:0:0:
192,192,169615,1,0,0:0:0:0:
320,192,169701,1,0,0:0:0:0:
448,192,169701,1,0,0:0:0:0:
64,192,169701,1,0,0:0:0:0:
320,192,169787,1,0,0:0:0:0:
448,192,169787,1,0,0:0:0:0:
448,192,169872,128,0,170172:0:0:0:0:
64,192,169872,128,0,170172:0:0:0:0:
320,192,169872,128,0,170172:0:0:0:0:
192,192,169872,128,0,170172:0:0:0:0:
64,192,170215,1,0,0:0:0:0:
192,192,170215,1,0,0:0:0:0:
320,192,170258,1,0,0:0:0:0:
448,192,170301,1,0,0:0:0:0:
64,192,170301,1,0,0:0:0:0:
320,192,170387,1,0,0:0:0:0:
448,192,170387,1,0,0:0:0:0:
192,192,170387,1,0,0:0:0:0:
64,192,170472,1,0,0:0:0:0:
192,192,170472,1,0,0:0:0:0:
192,192,170558,1,0,0:0:0:0:
64,192,170558,1,0,0:0:0:0:
320,192,170558,1,0,0:0:0:0:
448,192,170558,1,0,0:0:0:0:
448,192,170644,1,0,0:0:0:0:
320,192,170644,1,0,0:0:0:0:
64,192,170729,1,0,0:0:0:0:
192,192,170729,1,0,0:0:0:0:
320,192,170729,1,0,0:0:0:0:
192,192,170815,1,0,0:0:0:0:
64,192,170815,1,0,0:0:0:0:
448,192,170901,1,0,0:0:0:0:
320,192,170901,1,0,0:0:0:0:
192,192,170944,1,0,0:0:0:0:
448,192,170987,1,0,0:0:0:0:
64,192,170987,1,0,0:0:0:0:
192,192,171072,1,0,0:0:0:0:
320,192,171072,1,0,0:0:0:0:
64,192,171072,1,0,0:0:0:0:
448,192,171158,1,0,0:0:0:0:
320,192,171158,1,0,0:0:0:0:
448,192,171244,1,0,0:0:0:0:
320,192,171244,1,0,0:0:0:0:
192,192,171244,1,0,0:0:0:0:
64,192,171244,1,0,0:0:0:0:
192,192,171329,1,0,0:0:0:0:
64,192,171329,1,0,0:0:0:0:
320,192,171415,1,0,0:0:0:0:
448,192,171415,1,0,0:0:0:0:
192,192,171415,1,0,0:0:0:0:
448,192,171501,1,0,0:0:0:0:
320,192,171501,1,0,0:0:0:0:
448,192,171587,1,0,0:0:0:0:
64,192,171587,1,0,0:0:0:0:
192,192,171615,1,0,0:0:0:0:
320,192,171644,1,0,0:0:0:0:
448,192,171672,1,0,0:0:0:0:
64,192,171672,1,0,0:0:0:0:
192,192,171758,1,0,0:0:0:0:
64,192,171758,1,0,0:0:0:0:
320,192,171758,1,0,0:0:0:0:
448,192,171844,1,0,0:0:0:0:
320,192,171844,1,0,0:0:0:0:
64,192,171929,1,0,0:0:0:0:
192,192,171929,1,0,0:0:0:0:
448,192,171929,1,0,0:0:0:0:
320,192,171929,1,0,0:0:0:0:
192,192,172015,1,0,0:0:0:0:
64,192,172015,1,0,0:0:0:0:
448,192,172101,1,0,0:0:0:0:
320,192,172101,1,0,0:0:0:0:
192,192,172144,1,0,0:0:0:0:
448,192,172187,1,0,0:0:0:0:
64,192,172187,1,0,0:0:0:0:
64,192,172272,1,0,0:0:0:0:
192,192,172272,1,0,0:0:0:0:
320,192,172315,1,0,0:0:0:0:
448,192,172315,1,0,0:0:0:0:
192,192,172358,1,0,0:0:0:0:
64,192,172358,1,0,0:0:0:0:
64,192,172444,1,0,0:0:0:0:
320,192,172444,1,0,0:0:0:0:
448,192,172444,1,0,0:0:0:0:
448,192,172529,1,0,0:0:0:0:
320,192,172529,1,0,0:0:0:0:
192,192,172615,1,0,0:0:0:0:
64,192,172615,1,0,0:0:0:0:
448,192,172615,1,0,0:0:0:0:
192,192,172701,1,0,0:0:0:0:
64,192,172701,1,0,0:0:0:0:
192,192,172787,128,0,172915:0:0:0:0:
448,192,172787,128,0,172915:0:0:0:0:
320,192,172787,128,0,172915:0:0:0:0:
64,192,172787,128,0,172915:0:0:0:0:
448,192,172958,1,0,0:0:0:0:
320,192,172958,1,0,0:0:0:0:
192,192,173001,1,0,0:0:0:0:
448,192,173044,1,0,0:0:0:0:
64,192,173044,1,0,0:0:0:0:
320,192,173129,1,0,0:0:0:0:
64,192,173129,1,0,0:0:0:0:
192,192,173129,1,0,0:0:0:0:
448,192,173215,1,0,0:0:0:0:
320,192,173215,1,0,0:0:0:0:
448,192,173301,1,0,0:0:0:0:
320,192,173301,1,0,0:0:0:0:
64,192,173301,1,0,0:0:0:0:
192,192,173301,1,0,0:0:0:0:
192,192,173387,1,0,0:0:0:0:
64,192,173387,1,0,0:0:0:0:
448,192,173472,1,0,0:0:0:0:
320,192,173472,1,0,0:0:0:0:
64,192,173472,1,0,0:0:0:0:
448,192,173558,1,0,0:0:0:0:
320,192,173558,1,0,0:0:0:0:
192,192,173644,1,0,0:0:0:0:
64,192,173644,1,0,0:0:0:0:
320,192,173644,1,0,0:0:0:0:
448,192,173644,1,0,0:0:0:0:
64,192,173729,1,0,0:0:0:0:
192,192,173729,1,0,0:0:0:0:
320,192,173815,1,0,0:0:0:0:
448,192,173815,1,0,0:0:0:0:
192,192,173858,1,0,0:0:0:0:
64,192,173858,1,0,0:0:0:0:
320,192,173901,1,0,0:0:0:0:
448,192,173901,1,0,0:0:0:0:
192,192,173987,1,0,0:0:0:0:
64,192,173987,1,0,0:0:0:0:
320,192,173987,1,0,0:0:0:0:
448,192,173987,1,0,0:0:0:0:
64,192,174072,1,0,0:0:0:0:
192,192,174072,1,0,0:0:0:0:
320,192,174158,1,0,0:0:0:0:
448,192,174158,1,0,0:0:0:0:
192,192,174158,1,0,0:0:0:0:
320,192,174244,1,0,0:0:0:0:
448,192,174244,1,0,0:0:0:0:
448,192,174329,1,0,0:0:0:0:
64,192,174329,1,0,0:0:0:0:
192,192,174358,1,0,0:0:0:0:
320,192,174387,1,0,0:0:0:0:
64,192,174415,1,0,0:0:0:0:
448,192,174415,1,0,0:0:0:0:
320,192,174501,1,0,0:0:0:0:
64,192,174501,1,0,0:0:0:0:
192,192,174501,1,0,0:0:0:0:
448,192,174587,5,0,0:0:0:0:
320,192,174587,1,0,0:0:0:0:
448,192,174672,1,0,0:0:0:0:
64,192,174672,1,0,0:0:0:0:
320,192,174701,1,0,0:0:0:0:
192,192,174729,1,0,0:0:0:0:
64,192,174758,1,0,0:0:0:0:
448,192,174758,1,0,0:0:0:0:
192,192,174844,1,0,0:0:0:0:
320,192,174844,1,0,0:0:0:0:
448,192,174887,1,0,0:0:0:0:
64,192,174887,1,0,0:0:0:0:
192,192,174929,1,0,0:0:0:0:
320,192,174929,1,0,0:0:0:0:
448,192,175015,1,0,0:0:0:0:
64,192,175015,1,0,0:0:0:0:
320,192,175015,1,0,0:0:0:0:
448,192,175101,1,0,0:0:0:0:
320,192,175101,1,0,0:0:0:0:
192,192,175187,1,0,0:0:0:0:
64,192,175187,1,0,0:0:0:0:
448,192,175187,1,0,0:0:0:0:
192,192,175272,1,0,0:0:0:0:
64,192,175272,1,0,0:0:0:0:
192,192,175358,128,0,175658:0:0:0:0:
64,192,175358,128,0,175658:0:0:0:0:
320,192,175358,128,0,175658:0:0:0:0:
448,192,175358,128,0,175658:0:0:0:0:
64,192,175701,1,0,0:0:0:0:
320,192,175701,1,0,0:0:0:0:
192,192,175744,1,0,0:0:0:0:
448,192,175787,1,0,0:0:0:0:
64,192,175787,1,0,0:0:0:0:
192,192,175872,1,0,0:0:0:0:
448,192,175872,1,0,0:0:0:0:
320,192,175872,1,0,0:0:0:0:
64,192,175958,1,0,0:0:0:0:
320,192,175958,1,0,0:0:0:0:
192,192,176044,1,0,0:0:0:0:
448,192,176044,1,0,0:0:0:0:
320,192,176087,1,0,0:0:0:0:
64,192,176129,1,0,0:0:0:0:
448,192,176129,1,0,0:0:0:0:
64,192,176215,1,0,0:0:0:0:
320,192,176215,1,0,0:0:0:0:
192,192,176215,1,0,0:0:0:0:
192,192,176301,1,0,0:0:0:0:
448,192,176301,1,0,0:0:0:0:
64,192,176387,1,0,0:0:0:0:
320,192,176387,1,0,0:0:0:0:
192,192,176429,1,0,0:0:0:0:
448,192,176472,1,0,0:0:0:0:
64,192,176472,1,0,0:0:0:0:
192,192,176558,1,0,0:0:0:0:
448,192,176558,1,0,0:0:0:0:
320,192,176558,1,0,0:0:0:0:
64,192,176644,1,0,0:0:0:0:
320,192,176644,1,0,0:0:0:0:
64,192,176729,1,0,0:0:0:0:
320,192,176729,1,0,0:0:0:0:
192,192,176729,1,0,0:0:0:0:
448,192,176729,1,0,0:0:0:0:
192,192,176815,1,0,0:0:0:0:
448,192,176815,1,0,0:0:0:0:
448,192,176901,1,0,0:0:0:0:
320,192,176901,1,0,0:0:0:0:
64,192,176901,1,0,0:0:0:0:
64,192,176987,1,0,0:0:0:0:
320,192,176987,1,0,0:0:0:0:
448,192,177072,1,0,0:0:0:0:
64,192,177072,1,0,0:0:0:0:
320,192,177101,1,0,0:0:0:0:
192,192,177129,1,0,0:0:0:0:
448,192,177158,1,0,0:0:0:0:
64,192,177158,1,0,0:0:0:0:
320,192,177244,1,0,0:0:0:0:
64,192,177244,1,0,0:0:0:0:
192,192,177244,1,0,0:0:0:0:
448,192,177329,1,0,0:0:0:0:
192,192,177329,1,0,0:0:0:0:
64,192,177415,1,0,0:0:0:0:
192,192,177415,1,0,0:0:0:0:
448,192,177458,1,0,0:0:0:0:
320,192,177458,1,0,0:0:0:0:
64,192,177501,1,0,0:0:0:0:
192,192,177501,1,0,0:0:0:0:
448,192,177587,1,0,0:0:0:0:
320,192,177587,1,0,0:0:0:0:
64,192,177629,1,0,0:0:0:0:
192,192,177629,1,0,0:0:0:0:
448,192,177672,1,0,0:0:0:0:
320,192,177672,1,0,0:0:0:0:
64,192,177758,1,0,0:0:0:0:
192,192,177758,1,0,0:0:0:0:
448,192,177801,1,0,0:0:0:0:
320,192,177801,1,0,0:0:0:0:
64,192,177844,1,0,0:0:0:0:
192,192,177844,1,0,0:0:0:0:
448,192,177929,1,0,0:0:0:0:
64,192,177929,1,0,0:0:0:0:
320,192,177929,1,0,0:0:0:0:
448,192,178015,1,0,0:0:0:0:
192,192,178015,1,0,0:0:0:0:
448,192,178101,1,0,0:0:0:0:
192,192,178101,1,0,0:0:0:0:
320,192,178101,1,0,0:0:0:0:
64,192,178101,1,0,0:0:0:0:
320,192,178187,1,0,0:0:0:0:
64,192,178187,1,0,0:0:0:0:
192,192,178272,1,0,0:0:0:0:
448,192,178272,1,0,0:0:0:0:
320,192,178301,1,0,0:0:0:0:
64,192,178329,1,0,0:0:0:0:
192,192,178358,1,0,0:0:0:0:
320,192,178387,1,0,0:0:0:0:
64,192,178415,1,0,0:0:0:0:
192,192,178444,1,0,0:0:0:0:
448,192,178444,1,0,0:0:0:0:
320,192,178487,1,0,0:0:0:0:
64,192,178529,1,0,0:0:0:0:
448,192,178529,1,0,0:0:0:0:
320,192,178615,1,0,0:0:0:0:
64,192,178615,1,0,0:0:0:0:
192,192,178615,1,0,0:0:0:0:
448,192,178701,1,0,0:0:0:0:
192,192,178701,1,0,0:0:0:0:
320,192,178787,1,0,0:0:0:0:
64,192,178787,1,0,0:0:0:0:
192,192,178829,1,0,0:0:0:0:
448,192,178872,1,0,0:0:0:0:
64,192,178872,1,0,0:0:0:0:
448,192,178958,1,0,0:0:0:0:
192,192,178958,1,0,0:0:0:0:
320,192,178958,1,0,0:0:0:0:
320,192,179044,1,0,0:0:0:0:
64,192,179044,1,0,0:0:0:0:
448,192,179129,1,0,0:0:0:0:
192,192,179129,1,0,0:0:0:0:
320,192,179172,1,0,0:0:0:0:
64,192,179215,1,0,0:0:0:0:
448,192,179215,1,0,0:0:0:0:
320,192,179301,1,0,0:0:0:0:
64,192,179301,1,0,0:0:0:0:
192,192,179301,1,0,0:0:0:0:
448,192,179387,1,0,0:0:0:0:
192,192,179387,1,0,0:0:0:0:
448,192,179472,1,0,0:0:0:0:
192,192,179472,1,0,0:0:0:0:
320,192,179472,1,0,0:0:0:0:
64,192,179472,1,0,0:0:0:0:
320,192,179558,1,0,0:0:0:0:
64,192,179558,1,0,0:0:0:0:
64,192,179644,1,0,0:0:0:0:
192,192,179644,1,0,0:0:0:0:
448,192,179644,1,0,0:0:0:0:
448,192,179729,1,0,0:0:0:0:
192,192,179729,1,0,0:0:0:0:
64,192,179815,1,0,0:0:0:0:
448,192,179815,1,0,0:0:0:0:
192,192,179844,1,0,0:0:0:0:
320,192,179872,1,0,0:0:0:0:
64,192,179901,1,0,0:0:0:0:
448,192,179901,1,0,0:0:0:0:
192,192,179987,1,0,0:0:0:0:
448,192,179987,1,0,0:0:0:0:
320,192,179987,1,0,0:0:0:0:
64,192,180072,1,0,0:0:0:0:
320,192,180072,1,0,0:0:0:0:
448,192,180158,1,0,0:0:0:0:
192,192,180158,1,0,0:0:0:0:
64,192,180201,1,0,0:0:0:0:
320,192,180201,1,0,0:0:0:0:
448,192,180244,1,0,0:0:0:0:
192,192,180244,1,0,0:0:0:0:
64,192,180329,1,0,0:0:0:0:
320,192,180329,1,0,0:0:0:0:
448,192,180372,1,0,0:0:0:0:
192,192,180372,1,0,0:0:0:0:
64,192,180415,1,0,0:0:0:0:
320,192,180415,1,0,0:0:0:0:
448,192,180501,1,0,0:0:0:0:
192,192,180501,1,0,0:0:0:0:
448,192,180587,1,0,0:0:0:0:
192,192,180587,1,0,0:0:0:0:
64,192,180672,128,0,180801:0:0:0:0:
320,192,180672,128,0,180801:0:0:0:0:
192,192,180844,1,0,0:0:0:0:
448,192,180844,1,0,0:0:0:0:
320,192,180929,1,0,0:0:0:0:
64,192,180929,1,0,0:0:0:0:
64,192,181015,128,0,181144:0:0:0:0:
320,192,181015,128,0,181144:0:0:0:0:
192,192,181015,128,0,181144:0:0:0:0:
448,192,181015,128,0,181144:0:0:0:0:
448,192,181187,1,0,0:0:0:0:
192,192,181187,1,0,0:0:0:0:
320,192,181229,1,0,0:0:0:0:
448,192,181272,1,0,0:0:0:0:
64,192,181272,1,0,0:0:0:0:
192,192,181358,1,0,0:0:0:0:
64,192,181358,1,0,0:0:0:0:
320,192,181358,1,0,0:0:0:0:
192,192,181444,1,0,0:0:0:0:
448,192,181444,1,0,0:0:0:0:
64,192,181529,1,0,0:0:0:0:
320,192,181529,1,0,0:0:0:0:
192,192,181572,1,0,0:0:0:0:
64,192,181615,1,0,0:0:0:0:
448,192,181615,1,0,0:0:0:0:
448,192,181701,1,0,0:0:0:0:
320,192,181701,1,0,0:0:0:0:
192,192,181701,1,0,0:0:0:0:
64,192,181787,1,0,0:0:0:0:
320,192,181787,1,0,0:0:0:0:
192,192,181872,1,0,0:0:0:0:
448,192,181872,1,0,0:0:0:0:
320,192,181915,1,0,0:0:0:0:
64,192,181958,1,0,0:0:0:0:
448,192,181958,1,0,0:0:0:0:
320,192,182044,1,0,0:0:0:0:
64,192,182044,1,0,0:0:0:0:
192,192,182044,1,0,0:0:0:0:
448,192,182129,1,0,0:0:0:0:
192,192,182129,1,0,0:0:0:0:
64,192,182215,1,0,0:0:0:0:
320,192,182215,1,0,0:0:0:0:
192,192,182215,1,0,0:0:0:0:
448,192,182215,1,0,0:0:0:0:
64,192,182301,1,0,0:0:0:0:
320,192,182301,1,0,0:0:0:0:
448,192,182387,1,0,0:0:0:0:
192,192,182387,1,0,0:0:0:0:
64,192,182387,1,0,0:0:0:0:
192,192,182472,1,0,0:0:0:0:
448,192,182472,1,0,0:0:0:0:
448,192,182558,1,0,0:0:0:0:
64,192,182558,1,0,0:0:0:0:
192,192,182587,1,0,0:0:0:0:
320,192,182615,1,0,0:0:0:0:
64,192,182644,1,0,0:0:0:0:
448,192,182644,1,0,0:0:0:0:
320,192,182729,1,0,0:0:0:0:
448,192,182729,1,0,0:0:0:0:
192,192,182729,1,0,0:0:0:0:
64,192,182815,1,0,0:0:0:0:
320,192,182815,1,0,0:0:0:0:
448,192,182901,1,0,0:0:0:0:
320,192,182901,1,0,0:0:0:0:
64,192,182944,1,0,0:0:0:0:
192,192,182944,1,0,0:0:0:0:
448,192,182987,1,0,0:0:0:0:
320,192,182987,1,0,0:0:0:0:
64,192,183072,1,0,0:0:0:0:
192,192,183072,1,0,0:0:0:0:
448,192,183115,1,0,0:0:0:0:
320,192,183115,1,0,0:0:0:0:
64,192,183158,1,0,0:0:0:0:
192,192,183158,1,0,0:0:0:0:
448,192,183244,1,0,0:0:0:0:
320,192,183244,1,0,0:0:0:0:
64,192,183287,1,0,0:0:0:0:
192,192,183287,1,0,0:0:0:0:
448,192,183329,1,0,0:0:0:0:
320,192,183329,1,0,0:0:0:0:
448,192,183415,1,0,0:0:0:0:
64,192,183415,1,0,0:0:0:0:
192,192,183415,1,0,0:0:0:0:
64,192,183501,1,0,0:0:0:0:
320,192,183501,1,0,0:0:0:0:
64,192,183587,1,0,0:0:0:0:
320,192,183587,1,0,0:0:0:0:
192,192,183587,1,0,0:0:0:0:
448,192,183587,1,0,0:0:0:0:
448,192,183672,1,0,0:0:0:0:
192,192,183672,1,0,0:0:0:0:
64,192,183758,1,0,0:0:0:0:
320,192,183758,1,0,0:0:0:0:
192,192,183787,1,0,0:0:0:0:
448,192,183815,1,0,0:0:0:0:
320,192,183844,1,0,0:0:0:0:
192,192,183872,1,0,0:0:0:0:
448,192,183901,1,0,0:0:0:0:
64,192,183929,1,0,0:0:0:0:
320,192,183929,1,0,0:0:0:0:
192,192,183972,1,0,0:0:0:0:
448,192,184015,1,0,0:0:0:0:
64,192,184015,1,0,0:0:0:0:
320,192,184101,1,0,0:0:0:0:
192,192,184101,1,0,0:0:0:0:
448,192,184101,1,0,0:0:0:0:
320,192,184187,1,0,0:0:0:0:
64,192,184187,1,0,0:0:0:0:
448,192,184272,1,0,0:0:0:0:
192,192,184272,1,0,0:0:0:0:
320,192,184315,1,0,0:0:0:0:
448,192,184358,1,0,0:0:0:0:
64,192,184358,1,0,0:0:0:0:
64,192,184444,1,0,0:0:0:0:
192,192,184444,1,0,0:0:0:0:
320,192,184444,1,0,0:0:0:0:
448,192,184529,1,0,0:0:0:0:
192,192,184529,1,0,0:0:0:0:
320,192,184615,1,0,0:0:0:0:
64,192,184615,1,0,0:0:0:0:
192,192,184658,1,0,0:0:0:0:
64,192,184701,1,0,0:0:0:0:
448,192,184701,1,0,0:0:0:0:
192,192,184787,1,0,0:0:0:0:
320,192,184787,1,0,0:0:0:0:
448,192,184787,1,0,0:0:0:0:
320,192,184872,1,0,0:0:0:0:
64,192,184872,1,0,0:0:0:0:
64,192,184958,1,0,0:0:0:0:
320,192,184958,1,0,0:0:0:0:
192,192,184958,1,0,0:0:0:0:
448,192,184958,1,0,0:0:0:0:
448,192,185044,1,0,0:0:0:0:
192,192,185044,1,0,0:0:0:0:
64,192,185129,1,0,0:0:0:0:
320,192,185129,1,0,0:0:0:0:
448,192,185129,1,0,0:0:0:0:
320,192,185215,1,0,0:0:0:0:
64,192,185215,1,0,0:0:0:0:
448,192,185301,1,0,0:0:0:0:
192,192,185301,1,0,0:0:0:0:
64,192,185329,1,0,0:0:0:0:
320,192,185358,1,0,0:0:0:0:
448,192,185387,1,0,0:0:0:0:
192,192,185387,1,0,0:0:0:0:
64,192,185472,1,0,0:0:0:0:
320,192,185472,1,0,0:0:0:0:
448,192,185501,1,0,0:0:0:0:
192,192,185529,1,0,0:0:0:0:
64,192,185558,1,0,0:0:0:0:
320,192,185558,1,0,0:0:0:0:
192,192,185644,128,0,185987:0:0:0:0:
448,192,185644,128,0,185987:0:0:0:0:
64,192,185987,1,0,0:0:0:0:
320,192,185987,1,0,0:0:0:0:
64,192,186072,1,0,0:0:0:0:
320,192,186072,1,0,0:0:0:0:
192,192,186158,1,0,0:0:0:0:
448,192,186158,1,0,0:0:0:0:
192,192,186244,1,0,0:0:0:0:
448,192,186244,1,0,0:0:0:0:
64,192,186329,128,0,186629:0:0:0:0:
320,192,186329,128,0,186629:0:0:0:0:
192,192,186329,128,0,186629:0:0:0:0:
448,192,186329,128,0,186629:0:0:0:0:
448,192,186672,1,0,0:0:0:0:
192,192,186672,1,0,0:0:0:0:
320,192,186715,1,0,0:0:0:0:
64,192,186758,1,0,0:0:0:0:
448,192,186758,1,0,0:0:0:0:
64,192,186844,1,0,0:0:0:0:
192,192,186844,1,0,0:0:0:0:
320,192,186844,1,0,0:0:0:0:
448,192,186929,1,0,0:0:0:0:
192,192,186929,1,0,0:0:0:0:
448,192,187015,1,0,0:0:0:0:
320,192,187015,1,0,0:0:0:0:
64,192,187015,1,0,0:0:0:0:
192,192,187015,1,0,0:0:0:0:
320,192,187101,1,0,0:0:0:0:
64,192,187101,1,0,0:0:0:0:
448,192,187187,1,0,0:0:0:0:
192,192,187187,1,0,0:0:0:0:
320,192,187187,1,0,0:0:0:0:
192,192,187272,1,0,0:0:0:0:
448,192,187272,1,0,0:0:0:0:
320,192,187358,1,0,0:0:0:0:
64,192,187358,1,0,0:0:0:0:
192,192,187401,1,0,0:0:0:0:
448,192,187444,1,0,0:0:0:0:
64,192,187444,1,0,0:0:0:0:
320,192,187529,1,0,0:0:0:0:
192,192,187529,1,0,0:0:0:0:
448,192,187529,1,0,0:0:0:0:
320,192,187615,1,0,0:0:0:0:
64,192,187615,1,0,0:0:0:0:
64,192,187701,1,0,0:0:0:0:
448,192,187701,1,0,0:0:0:0:
192,192,187701,1,0,0:0:0:0:
320,192,187701,1,0,0:0:0:0:
192,192,187787,1,0,0:0:0:0:
448,192,187787,1,0,0:0:0:0:
64,192,187872,1,0,0:0:0:0:
320,192,187872,1,0,0:0:0:0:
192,192,187872,1,0,0:0:0:0:
64,192,187958,1,0,0:0:0:0:
320,192,187958,1,0,0:0:0:0:
64,192,188044,1,0,0:0:0:0:
448,192,188044,1,0,0:0:0:0:
192,192,188072,1,0,0:0:0:0:
320,192,188101,1,0,0:0:0:0:
64,192,188129,1,0,0:0:0:0:
448,192,188129,1,0,0:0:0:0:
448,192,188215,1,0,0:0:0:0:
320,192,188215,1,0,0:0:0:0:
192,192,188215,1,0,0:0:0:0:
320,192,188301,1,0,0:0:0:0:
64,192,188301,1,0,0:0:0:0:
192,192,188387,1,0,0:0:0:0:
448,192,188387,1,0,0:0:0:0:
320,192,188387,1,0,0:0:0:0:
64,192,188387,1,0,0:0:0:0:
448,192,188472,1,0,0:0:0:0:
192,192,188472,1,0,0:0:0:0:
320,192,188558,1,0,0:0:0:0:
64,192,188558,1,0,0:0:0:0:
192,192,188601,1,0,0:0:0:0:
448,192,188644,1,0,0:0:0:0:
64,192,188644,1,0,0:0:0:0:
192,192,188729,1,0,0:0:0:0:
448,192,188729,1,0,0:0:0:0:
320,192,188772,1,0,0:0:0:0:
64,192,188772,1,0,0:0:0:0:
448,192,188815,1,0,0:0:0:0:
192,192,188815,1,0,0:0:0:0:
320,192,188901,1,0,0:0:0:0:
448,192,188901,1,0,0:0:0:0:
64,192,188901,1,0,0:0:0:0:
64,192,188987,1,0,0:0:0:0:
320,192,188987,1,0,0:0:0:0:
64,192,189072,1,0,0:0:0:0:
192,192,189072,1,0,0:0:0:0:
448,192,189072,1,0,0:0:0:0:
448,192,189158,1,0,0:0:0:0:
192,192,189158,1,0,0:0:0:0:
448,192,189244,128,0,189372:0:0:0:0:
192,192,189244,128,0,189372:0:0:0:0:
320,192,189244,128,0,189372:0:0:0:0:
64,192,189244,128,0,189372:0:0:0:0:
64,192,189415,1,0,0:0:0:0:
320,192,189415,1,0,0:0:0:0:
192,192,189458,1,0,0:0:0:0:
64,192,189501,1,0,0:0:0:0:
448,192,189501,1,0,0:0:0:0:
448,192,189587,1,0,0:0:0:0:
320,192,189587,1,0,0:0:0:0:
192,192,189587,1,0,0:0:0:0:
320,192,189672,1,0,0:0:0:0:
64,192,189672,1,0,0:0:0:0:
64,192,189758,1,0,0:0:0:0:
320,192,189758,1,0,0:0:0:0:
192,192,189758,1,0,0:0:0:0:
448,192,189758,1,0,0:0:0:0:
192,192,189844,1,0,0:0:0:0:
448,192,189844,1,0,0:0:0:0:
64,192,189929,1,0,0:0:0:0:
320,192,189929,1,0,0:0:0:0:
192,192,189929,1,0,0:0:0:0:
64,192,190015,1,0,0:0:0:0:
320,192,190015,1,0,0:0:0:0:
448,192,190101,1,0,0:0:0:0:
192,192,190101,1,0,0:0:0:0:
320,192,190144,1,0,0:0:0:0:
64,192,190187,1,0,0:0:0:0:
448,192,190187,1,0,0:0:0:0:
64,192,190272,1,0,0:0:0:0:
192,192,190272,1,0,0:0:0:0:
320,192,190272,1,0,0:0:0:0:
192,192,190358,1,0,0:0:0:0:
448,192,190358,1,0,0:0:0:0:
448,192,190444,1,0,0:0:0:0:
320,192,190444,1,0,0:0:0:0:
64,192,190444,1,0,0:0:0:0:
192,192,190444,1,0,0:0:0:0:
64,192,190529,1,0,0:0:0:0:
320,192,190529,1,0,0:0:0:0:
448,192,190615,1,0,0:0:0:0:
192,192,190615,1,0,0:0:0:0:
320,192,190615,1,0,0:0:0:0:
448,192,190701,1,0,0:0:0:0:
192,192,190701,1,0,0:0:0:0:
448,192,190787,1,0,0:0:0:0:
64,192,190787,1,0,0:0:0:0:
320,192,190815,1,0,0:0:0:0:
192,192,190844,1,0,0:0:0:0:
64,192,190872,1,0,0:0:0:0:
448,192,190872,1,0,0:0:0:0:
192,192,190958,1,0,0:0:0:0:
320,192,190958,1,0,0:0:0:0:
64,192,190958,1,0,0:0:0:0:
192,192,191044,1,0,0:0:0:0:
448,192,191044,1,0,0:0:0:0:
64,192,191129,1,0,0:0:0:0:
192,192,191129,1,0,0:0:0:0:
448,192,191129,1,0,0:0:0:0:
320,192,191129,1,0,0:0:0:0:
320,192,191215,1,0,0:0:0:0:
64,192,191215,1,0,0:0:0:0:
448,192,191301,1,0,0:0:0:0:
192,192,191301,1,0,0:0:0:0:
320,192,191344,1,0,0:0:0:0:
64,192,191344,1,0,0:0:0:0:
192,192,191387,1,0,0:0:0:0:
448,192,191387,1,0,0:0:0:0:
64,192,191472,1,0,0:0:0:0:
320,192,191472,1,0,0:0:0:0:
448,192,191472,1,0,0:0:0:0:
320,192,191558,1,0,0:0:0:0:
64,192,191558,1,0,0:0:0:0:
448,192,191644,1,0,0:0:0:0:
64,192,191644,1,0,0:0:0:0:
192,192,191644,1,0,0:0:0:0:
448,192,191729,1,0,0:0:0:0:
192,192,191729,1,0,0:0:0:0:
320,192,191815,128,0,192115:0:0:0:0:
192,192,191815,128,0,192115:0:0:0:0:
64,192,191815,128,0,192115:0:0:0:0:
448,192,191815,128,0,192115:0:0:0:0:
64,192,192158,1,0,0:0:0:0:
320,192,192158,1,0,0:0:0:0:
192,192,192201,1,0,0:0:0:0:
448,192,192244,1,0,0:0:0:0:
64,192,192244,1,0,0:0:0:0:
448,192,192329,1,0,0:0:0:0:
320,192,192329,1,0,0:0:0:0:
192,192,192329,1,0,0:0:0:0:
320,192,192415,1,0,0:0:0:0:
64,192,192415,1,0,0:0:0:0:
64,192,192501,1,0,0:0:0:0:
192,192,192501,1,0,0:0:0:0:
448,192,192501,1,0,0:0:0:0:
320,192,192501,1,0,0:0:0:0:
448,192,192587,1,0,0:0:0:0:
192,192,192587,1,0,0:0:0:0:
320,192,192672,1,0,0:0:0:0:
64,192,192672,1,0,0:0:0:0:
192,192,192672,1,0,0:0:0:0:
64,192,192758,1,0,0:0:0:0:
320,192,192758,1,0,0:0:0:0:
448,192,192844,1,0,0:0:0:0:
192,192,192844,1,0,0:0:0:0:
320,192,192887,1,0,0:0:0:0:
448,192,192929,1,0,0:0:0:0:
64,192,192929,1,0,0:0:0:0:
192,192,193015,1,0,0:0:0:0:
64,192,193015,1,0,0:0:0:0:
320,192,193015,1,0,0:0:0:0:
192,192,193101,1,0,0:0:0:0:
448,192,193101,1,0,0:0:0:0:
448,192,193187,1,0,0:0:0:0:
192,192,193187,1,0,0:0:0:0:
64,192,193187,1,0,0:0:0:0:
320,192,193187,1,0,0:0:0:0:
320,192,193272,1,0,0:0:0:0:
64,192,193272,1,0,0:0:0:0:
448,192,193358,1,0,0:0:0:0:
192,192,193358,1,0,0:0:0:0:
320,192,193358,1,0,0:0:0:0:
192,192,193444,1,0,0:0:0:0:
448,192,193444,1,0,0:0:0:0:
448,192,193529,1,0,0:0:0:0:
64,192,193529,1,0,0:0:0:0:
320,192,193558,1,0,0:0:0:0:
192,192,193587,1,0,0:0:0:0:
64,192,193615,1,0,0:0:0:0:
448,192,193615,1,0,0:0:0:0:
192,192,193701,1,0,0:0:0:0:
320,192,193701,1,0,0:0:0:0:
64,192,193701,1,0,0:0:0:0:
192,192,193787,1,0,0:0:0:0:
448,192,193787,1,0,0:0:0:0:
320,192,193872,1,0,0:0:0:0:
64,192,193872,1,0,0:0:0:0:
192,192,193872,1,0,0:0:0:0:
448,192,193872,1,0,0:0:0:0:
64,192,193958,1,0,0:0:0:0:
320,192,193958,1,0,0:0:0:0:
192,192,194044,1,0,0:0:0:0:
448,192,194044,1,0,0:0:0:0:
320,192,194087,1,0,0:0:0:0:
448,192,194129,1,0,0:0:0:0:
64,192,194129,1,0,0:0:0:0:
320,192,194215,1,0,0:0:0:0:
64,192,194215,1,0,0:0:0:0:
448,192,194258,1,0,0:0:0:0:
192,192,194258,1,0,0:0:0:0:
320,192,194301,1,0,0:0:0:0:
64,192,194301,1,0,0:0:0:0:
64,192,194387,1,0,0:0:0:0:
448,192,194387,1,0,0:0:0:0:
192,192,194387,1,0,0:0:0:0:
192,192,194472,1,0,0:0:0:0:
448,192,194472,1,0,0:0:0:0:
320,192,194558,1,0,0:0:0:0:
64,192,194558,1,0,0:0:0:0:
448,192,194558,1,0,0:0:0:0:
64,192,194644,1,0,0:0:0:0:
320,192,194644,1,0,0:0:0:0:
320,192,194729,128,0,194858:0:0:0:0:
64,192,194729,128,0,194858:0:0:0:0:
192,192,194729,128,0,194858:0:0:0:0:
448,192,194729,128,0,194858:0:0:0:0:
448,192,194901,1,0,0:0:0:0:
192,192,194901,1,0,0:0:0:0:
320,192,194944,1,0,0:0:0:0:
448,192,194987,1,0,0:0:0:0:
64,192,194987,1,0,0:0:0:0:
192,192,195072,1,0,0:0:0:0:
64,192,195072,1,0,0:0:0:0:
320,192,195072,1,0,0:0:0:0:
448,192,195158,1,0,0:0:0:0:
192,192,195158,1,0,0:0:0:0:
64,192,195244,1,0,0:0:0:0:
192,192,195244,1,0,0:0:0:0:
320,192,195244,1,0,0:0:0:0:
448,192,195244,1,0,0:0:0:0:
320,192,195329,1,0,0:0:0:0:
64,192,195329,1,0,0:0:0:0:
448,192,195415,1,0,0:0:0:0:
192,192,195415,1,0,0:0:0:0:
64,192,195415,1,0,0:0:0:0:
448,192,195501,1,0,0:0:0:0:
192,192,195501,1,0,0:0:0:0:
192,192,195587,1,0,0:0:0:0:
64,192,195587,1,0,0:0:0:0:
448,192,195587,1,0,0:0:0:0:
320,192,195587,1,0,0:0:0:0:
64,192,195672,1,0,0:0:0:0:
320,192,195672,1,0,0:0:0:0:
192,192,195758,1,0,0:0:0:0:
448,192,195758,1,0,0:0:0:0:
320,192,195801,1,0,0:0:0:0:
64,192,195801,1,0,0:0:0:0:
192,192,195844,1,0,0:0:0:0:
448,192,195844,1,0,0:0:0:0:
192,192,195929,1,0,0:0:0:0:
448,192,195929,1,0,0:0:0:0:
320,192,195929,1,0,0:0:0:0:
64,192,195929,1,0,0:0:0:0:
64,192,196015,1,0,0:0:0:0:
320,192,196015,1,0,0:0:0:0:
448,192,196101,1,0,0:0:0:0:
320,192,196101,1,0,0:0:0:0:
192,192,196101,1,0,0:0:0:0:
192,192,196187,1,0,0:0:0:0:
448,192,196187,1,0,0:0:0:0:
448,192,196272,1,0,0:0:0:0:
64,192,196272,1,0,0:0:0:0:
320,192,196301,1,0,0:0:0:0:
192,192,196329,1,0,0:0:0:0:
64,192,196358,1,0,0:0:0:0:
448,192,196358,1,0,0:0:0:0:
192,192,196444,1,0,0:0:0:0:
64,192,196444,1,0,0:0:0:0:
320,192,196444,1,0,0:0:0:0:
448,192,196529,5,0,0:0:0:0:
192,192,196529,1,0,0:0:0:0:
448,192,196615,1,0,0:0:0:0:
64,192,196615,1,0,0:0:0:0:
192,192,196644,1,0,0:0:0:0:
320,192,196672,1,0,0:0:0:0:
64,192,196701,1,0,0:0:0:0:
448,192,196701,1,0,0:0:0:0:
320,192,196787,1,0,0:0:0:0:
192,192,196787,1,0,0:0:0:0:
448,192,196829,1,0,0:0:0:0:
64,192,196829,1,0,0:0:0:0:
320,192,196872,1,0,0:0:0:0:
192,192,196872,1,0,0:0:0:0:
64,192,196958,1,0,0:0:0:0:
192,192,196958,1,0,0:0:0:0:
448,192,196958,1,0,0:0:0:0:
448,192,197044,1,0,0:0:0:0:
192,192,197044,1,0,0:0:0:0:
320,192,197129,1,0,0:0:0:0:
64,192,197129,1,0,0:0:0:0:
448,192,197129,1,0,0:0:0:0:
64,192,197215,1,0,0:0:0:0:
320,192,197215,1,0,0:0:0:0:
320,192,197301,128,0,197601:0:0:0:0:
64,192,197301,128,0,197601:0:0:0:0:
448,192,197301,128,0,197601:0:0:0:0:
192,192,197301,128,0,197601:0:0:0:0:
64,192,197644,1,0,0:0:0:0:
192,192,197644,1,0,0:0:0:0:
320,192,197644,1,0,0:0:0:0:
448,192,197644,1,0,0:0:0:0:
