osu file format v14

[General]
AudioFilename: audio.mp3
AudioLeadIn: 0
PreviewTime: -1
Countdown: 1
SampleSet: None
StackLeniency: 0.7
Mode: 0
LetterboxInBreaks: 0
WidescreenStoryboard: 0

[Editor]
DistanceSpacing: 1.8
BeatDivisor: 4
GridSize: 16
TimelineZoom: 1

[Metadata]
Title:Green-Eyed Jealousy (Instrumental)
TitleUnicode:Green-Eyed Jealousy (Instrumental)
Artist:touhou / Dark phoenix
ArtistUnicode:touhou / Dark phoenix
Creator:kricher
Version:Envy
Source:touhou
Tags:touhou , japan, metal,instrumental,marathon,eyes,dark phoenix
BeatmapID:1354285
BeatmapSetID:638401

[Difficulty]
HPDrainRate:5.8
CircleSize:3.8
OverallDifficulty:9
ApproachRate:9.3
SliderMultiplier:1.3
SliderTickRate:1

[Events]
//Background and Video events
//Break Periods
//Storyboard Layer 0 (Background)
//Storyboard Layer 1 (Fail)
//Storyboard Layer 2 (Pass)
//Storyboard Layer 3 (Foreground)
//Storyboard Sound Samples

[TimingPoints]
1096.83472720032,275.229357798165,4,2,0,5,1,0
34124,-133.333333333333,4,2,0,5,0,0
34399,-100,4,2,0,5,0,0
34674,-80,4,2,0,5,0,0
34950,-66.6666666666667,4,2,0,5,0,0
35362,-100,4,2,0,5,0,0
36326,-133.333333333333,4,2,0,5,0,0
36601,-100,4,2,0,5,0,0
36876,-80,4,2,0,5,0,0
37289,-66.6666666666667,4,2,0,5,0,0
38528,-100,4,2,0,5,0,0
57106,-66.6666666666667,4,2,0,5,0,0

[HitObjects]
368,88,1096,5,0,0:0:0:0:
176,160,1372,1,0,0:0:0:0:
376,208,1647,1,0,0:0:0:0:
480,320,1922,1,0,0:0:0:0:
480,320,2060,2,0,P|448:248|448:240,1,65
456,200,2335,5,0,0:0:0:0:
456,136,2472,1,0,0:0:0:0:
424,80,2610,1,0,0:0:0:0:
368,56,2748,1,0,0:0:0:0:
304,56,2885,1,0,0:0:0:0:
240,72,3023,2,0,P|208:96|160:112,1,65
120,64,3298,2,0,P|152:40|200:24,1,65
304,56,3573,5,0,0:0:0:0:
256,192,3849,1,0,0:0:0:0:
424,152,4124,1,0,0:0:0:0:
424,152,4261,2,0,P|376:216|368:224,1,65
328,240,4537,5,0,0:0:0:0:
264,264,4674,1,0,0:0:0:0:
200,256,4812,1,0,0:0:0:0:
144,224,4950,1,0,0:0:0:0:
112,168,5087,1,0,0:0:0:0:
128,104,5225,1,0,0:0:0:0:
168,56,5362,1,0,0:0:0:0:
272,40,5500,5,0,0:0:0:0:
272,40,5638,2,0,P|328:40|352:48,1,65
384,88,5913,2,0,P|424:136|448:152,1,65
425,137,6188,1,0,0:0:0:0:
368,224,6326,5,0,0:0:0:0:
368,224,6463,2,0,P|320:264|240:264,1,130
216,112,6876,2,0,P|216:72|208:48,1,65
296,104,7151,1,0,0:0:0:0:
296,104,7289,2,0,P|328:144|352:168,1,65
392,256,7564,6,0,P|392:288|320:352,1,130
248,288,7977,1,0,0:0:0:0:
304,160,8252,1,0,0:0:0:0:
176,224,8390,2,0,P|128:248|88:256,1,65
120,104,8665,6,0,P|160:64|184:48,1,65
312,72,8940,1,0,0:0:0:0:
248,200,9078,1,0,0:0:0:0:
312,72,9353,5,0,0:0:0:0:
408,176,9491,2,0,P|424:224|424:248,1,65
232,152,9766,6,0,P|224:112|224:80,1,65
336,144,10041,1,0,0:0:0:0:
336,264,10179,1,0,0:0:0:0:
232,320,10317,1,0,0:0:0:0:
136,256,10454,2,0,P|104:224|80:192,1,65
64,96,10729,1,0,0:0:0:0:
136,256,10867,1,0,0:0:0:0:
184,136,11142,5,0,0:0:0:0:
256,48,11280,1,0,0:0:0:0:
256,168,11417,1,0,0:0:0:0:
176,64,11555,2,0,P|144:32|104:16,1,65
96,160,11830,1,0,0:0:0:0:
32,40,11968,2,0,P|56:64|96:88,1,65
206,124,12243,5,0,0:0:0:0:
218,154,12312,1,0,0:0:0:0:
222,186,12381,1,0,0:0:0:0:
217,218,12450,1,0,0:0:0:0:
203,248,12518,1,0,0:0:0:0:
176,272,12587,1,0,0:0:0:0:
149,289,12655,1,0,0:0:0:0:
145,320,12724,1,0,0:0:0:0:
166,343,12793,1,0,0:0:0:0:
198,341,12862,1,0,0:0:0:0:
248,328,12931,5,0,0:0:0:0:
296,176,13069,1,0,0:0:0:0:
384,304,13206,1,0,0:0:0:0:
496,184,13344,1,0,0:0:0:0:
440,248,13482,1,0,0:0:0:0:
400,80,13757,5,0,0:0:0:0:
248,120,13894,1,0,0:0:0:0:
384,200,14032,1,0,0:0:0:0:
384,200,14101,1,0,0:0:0:0:
384,200,14170,1,0,0:0:0:0:
304,64,14307,5,0,0:0:0:0:
152,96,14445,1,0,0:0:0:0:
152,96,14583,1,0,0:0:0:0:
424,120,14720,1,0,0:0:0:0:
168,208,15133,5,0,0:0:0:0:
384,40,15408,1,0,0:0:0:0:
304,128,15683,1,0,0:0:0:0:
304,192,15821,1,0,0:0:0:0:
328,256,15959,1,0,0:0:0:0:
368,304,16096,1,0,0:0:0:0:
448,200,16372,5,0,0:0:0:0:
264,104,16647,1,0,0:0:0:0:
184,168,16784,1,0,0:0:0:0:
328,56,16922,1,0,0:0:0:0:
392,48,17060,1,0,0:0:0:0:
424,104,17197,1,0,0:0:0:0:
384,160,17335,1,0,0:0:0:0:
192,72,17472,5,0,0:0:0:0:
240,232,17748,5,0,0:0:0:0:
264,296,17885,1,0,0:0:0:0:
312,336,18023,1,0,0:0:0:0:
376,352,18161,1,0,0:0:0:0:
464,256,18298,5,0,0:0:0:0:
216,184,18573,1,0,0:0:0:0:
448,64,18849,1,0,0:0:0:0:
448,64,18986,2,0,P|392:96|368:104,1,65
328,208,19261,2,0,P|384:176|408:168,1,65
456,288,19537,1,0,0:0:0:0:
272,104,19674,6,0,P|248:80|216:56,1,65
144,160,19950,1,0,0:0:0:0:
272,104,20087,1,0,0:0:0:0:
272,104,20156,1,0,0:0:0:0:
272,104,20225,1,0,0:0:0:0:
232,232,20362,1,0,0:0:0:0:
344,168,20500,1,0,0:0:0:0:
352,256,20638,5,0,0:0:0:0:
337,285,20706,1,0,0:0:0:0:
313,306,20775,1,0,0:0:0:0:
282,315,20844,1,0,0:0:0:0:
250,312,20913,1,0,0:0:0:0:
176,264,21050,5,0,0:0:0:0:
156,238,21118,1,0,0:0:0:0:
125,227,21187,1,0,0:0:0:0:
94,233,21256,1,0,0:0:0:0:
70,255,21325,1,0,0:0:0:0:
40,288,21394,1,0,0:0:0:0:
30,318,21462,1,0,0:0:0:0:
44,346,21531,1,0,0:0:0:0:
104,352,21600,5,0,0:0:0:0:
200,240,21739,1,0,0:0:0:0:
408,368,21876,1,0,0:0:0:0:
416,160,22151,5,0,0:0:0:0:
272,72,22289,1,0,0:0:0:0:
416,160,22427,1,0,0:0:0:0:
400,224,22564,5,0,0:0:0:0:
352,264,22702,1,0,0:0:0:0:
288,288,22839,1,0,0:0:0:0:
224,288,22977,1,0,0:0:0:0:
160,264,23115,1,0,0:0:0:0:
160,264,23252,1,0,0:0:0:0:
240,160,23528,1,0,0:0:0:0:
144,72,23803,6,0,P|112:96|88:128,1,65
160,264,24078,1,0,0:0:0:0:
408,64,24491,5,0,0:0:0:0:
256,104,24766,1,0,0:0:0:0:
256,104,24904,1,0,0:0:0:0:
408,192,25179,6,0,P|376:216|288:224,1,130
184,128,25592,2,0,P|208:160|248:192,1,65
336,32,25867,1,0,0:0:0:0:
336,32,26005,1,0,0:0:0:0:
112,48,26280,6,0,P|112:96|112:128,1,65
208,160,26555,1,0,0:0:0:0:
208,160,26693,2,0,L|232:224,1,65
336,216,26968,1,0,0:0:0:0:
336,216,27106,2,0,L|392:264,1,65
288,72,27381,5,0,0:0:0:0:
168,72,27656,5,0,0:0:0:0:
112,104,27794,1,0,0:0:0:0:
80,160,27931,1,0,0:0:0:0:
112,256,28069,6,0,P|136:304|160:328,1,65
248,336,28344,1,0,0:0:0:0:
112,256,28482,2,0,P|112:208|72:128,1,130
40,80,28894,1,0,0:0:0:0:
96,48,29032,1,0,0:0:0:0:
152,80,29170,1,0,0:0:0:0:
96,48,29307,5,0,0:0:0:0:
40,80,29445,1,0,0:0:0:0:
56,144,29583,1,0,0:0:0:0:
88,200,29720,5,0,0:0:0:0:
93,231,29788,1,0,0:0:0:0:
113,257,29857,1,0,0:0:0:0:
142,271,29926,1,0,0:0:0:0:
184,272,29995,5,0,0:0:0:0:
217,252,30063,1,0,0:0:0:0:
255,244,30132,1,0,0:0:0:0:
294,249,30201,1,0,0:0:0:0:
328,288,30271,5,0,0:0:0:0:
356,322,30339,1,0,0:0:0:0:
400,325,30408,1,0,0:0:0:0:
432,295,30477,1,0,0:0:0:0:
464,256,30546,5,0,0:0:0:0:
480,207,30614,1,0,0:0:0:0:
462,160,30683,1,0,0:0:0:0:
418,134,30752,1,0,0:0:0:0:
360,128,30821,5,0,0:0:0:0:
305,132,30889,1,0,0:0:0:0:
285,81,30958,1,0,0:0:0:0:
328,40,31028,1,0,0:0:0:0:
392,56,31096,5,0,0:0:0:0:
420,111,31164,1,0,0:0:0:0:
394,169,31233,1,0,0:0:0:0:
333,184,31302,1,0,0:0:0:0:
264,192,31372,5,0,0:0:0:0:
195,197,31440,1,0,0:0:0:0:
164,258,31509,1,0,0:0:0:0:
176,328,31578,1,0,0:0:0:0:
240,360,31647,5,0,0:0:0:0:
306,331,31715,1,0,0:0:0:0:
292,260,31784,1,0,0:0:0:0:
224,224,31853,1,0,0:0:0:0:
144,208,31922,5,0,0:0:0:0:
104,128,32060,1,0,0:0:0:0:
176,72,32197,1,0,0:0:0:0:
264,96,32335,2,0,P|312:128|336:128,1,65
400,96,32610,1,0,0:0:0:0:
432,184,32748,2,0,P|432:248|424:264,1,65
352,288,33023,1,0,0:0:0:0:
280,80,34124,6,0,P|240:96|224:112,1,48.750001859665
224,208,34399,2,0,P|208:240|176:264,1,65
80,264,34674,2,0,P|32:320|16:352,1,81.25
194,252,34950,1,0,0:0:0:0:
304,336,35087,2,0,P|360:344|400:336,1,97.50000371933
464,272,35362,1,0,0:0:0:0:
464,272,35500,1,0,0:0:0:0:
72,56,36326,6,0,P|96:104|104:112,1,48.750001859665
176,144,36601,2,0,P|224:176|240:192,1,65
272,288,36876,2,0,P|320:336|352:352,1,81.25
192,256,37151,1,0,0:0:0:0:
112,288,37289,2,0,P|64:320|16:336,1,97.50000371933
96,208,37564,1,0,0:0:0:0:
96,208,37702,1,0,0:0:0:0:
144,96,38528,6,0,P|160:144|208:208,1,130
368,288,38940,2,0,P|352:240|304:176,1,130
240,112,39353,1,0,0:0:0:0:
384,112,39491,6,0,P|416:144|448:224,1,130
304,64,39904,2,0,P|272:48|243:40,1,65,0|0,0:3|0:0,0:0:0:0:
96,64,40179,1,0,0:0:0:0:
224,144,40317,2,0,P|256:176|272:208,1,65
304,336,40592,2,0,P|320:304|336:192,1,130
384,64,41005,2,0,P|409:123|416:144,1,65
432,208,41280,1,0,0:0:0:0:
432,304,41417,1,0,0:0:0:0:
272,224,41693,6,0,P|208:192|192:160,1,65
144,128,41968,1,0,0:0:0:0:
112,32,42106,1,0,0:0:0:0:
304,32,42381,5,0,0:0:0:0:
336,128,42519,1,0,0:0:0:0:
400,320,42794,1,0,0:0:0:0:
336,128,43069,1,0,0:0:0:0:
336,128,43206,1,0,0:0:0:0:
256,192,43482,6,0,P|208:240|144:272,1,130
256,112,43894,2,0,P|304:64|368:32,1,130
448,80,44307,1,0,0:0:0:0:
448,80,44583,1,0,0:0:0:0:
448,80,44858,1,0,0:0:0:0:
400,160,45133,6,0,P|352:224|304:272,1,130
224,304,45683,1,0,0:0:0:0:
208,208,45959,5,0,0:0:0:0:
208,208,46096,1,0,0:0:0:0:
208,208,46234,2,0,P|256:144|272:96,1,130
271,97,46647,1,0,0:0:0:0:
128,112,47060,5,0,0:0:0:0:
80,160,47197,1,0,0:0:0:0:
64,224,47335,5,0,0:0:0:0:
58,255,47403,1,0,0:0:0:0:
63,287,47472,1,0,0:0:0:0:
80,315,47541,1,0,0:0:0:0:
105,335,47610,1,0,0:0:0:0:
136,345,47679,1,0,0:0:0:0:
176,336,47748,5,0,0:0:0:0:
202,317,47816,1,0,0:0:0:0:
232,305,47885,1,0,0:0:0:0:
264,301,47954,1,0,0:0:0:0:
297,305,48023,1,0,0:0:0:0:
327,317,48092,1,0,0:0:0:0:
368,352,48160,5,0,0:0:0:0:
400,272,48298,5,0,0:0:0:0:
384,240,48367,1,0,0:0:0:0:
352,208,48436,2,0,P|320:176|288:160,1,65
192,96,48711,1,0,0:0:0:0:
320,80,48849,2,0,P|368:64|400:64,1,65
496,64,49124,5,0,0:0:0:0:
480,192,49261,1,0,0:0:0:0:
384,64,49399,2,0,P|336:32|304:32,1,65
256,144,49674,1,0,0:0:0:0:
176,32,49812,1,0,0:0:0:0:
144,160,49950,2,0,P|128:224|112:240,1,65
64,112,50225,1,0,0:0:0:0:
32,240,50362,1,0,0:0:0:0:
144,160,50500,2,0,P|176:112|176:96,1,65
256,208,50775,5,0,0:0:0:0:
352,112,50913,1,0,0:0:0:0:
400,224,51050,2,0,P|416:288|416:304,1,65
480,176,51326,2,0,P|490:145|495:113,1,65
368,128,51601,2,0,P|320:160|288:176,1,65
208,80,51876,2,0,P|160:48|128:32,1,65
96,160,52151,2,0,P|48:192|16:208,1,65
160,256,52427,2,0,P|192:288|224:304,1,65
320,96,52702,6,0,P|336:64|352:16,1,65
416,144,52977,2,0,P|432:176|448:224,1,65
480,80,53252,2,0,P|496:48|512:0,1,65
416,144,53528,2,0,P|432:176|448:224,1,65
416,336,53803,6,0,P|384:304|368:272,1,65
304,176,54078,2,0,P|272:208|256:240,1,65
192,336,54353,2,0,P|160:304|144:272,1,65
80,176,54628,2,0,P|48:208|32:240,1,65
144,144,54904,6,0,P|176:96|192:64,1,65
272,176,55179,2,0,P|304:224|320:256,1,65
400,144,55454,2,0,P|432:96|448:64,1,65
448,224,55729,2,0,P|480:272|496:304,1,65
400,144,56005,2,0,P|432:96|448:64,1,65
448,224,56280,2,0,P|480:272|496:304,1,65
320,208,56555,6,0,P|272:176|240:176,1,65
320,288,56830,2,0,P|272:320|240:320,1,65
160,272,57106,6,0,P|112:224|208:160,1,195.00000743866
288,192,57518,2,0,P|336:208|384:208,1,97.50000371933
384,96,57794,2,0,P|432:80|480:80,1,97.50000371933
384,96,58069,2,0,P|335:95|289:79,1,97.50000371933
176,32,58344,2,0,P|127:32|81:48,1,97.50000371933
128,160,58619,2,0,P|144:208|176:240,1,97.50000371933
304,224,58894,6,0,P|352:208|400:176,1,97.50000371933
480,96,59170,1,0,0:0:0:0:
304,224,59307,2,0,P|352:192|272:128,1,195.00000743866
160,96,59720,6,0,P|80:80|64:80,1,97.50000371933
160,192,59995,2,0,P|208:188|255:175,1,97.50000371933
368,80,60271,2,0,P|288:64|272:64,1,97.50000371933
128,160,60546,6,0,L|64:256,1,97.50000371933
240,192,60821,2,0,L|304:96,1,97.50000371933
368,272,61096,2,0,L|304:368,1,97.50000371933
384,192,61372,5,0,0:0:0:0:
128,64,61509,2,0,P|80:32|32:16,1,97.50000371933
128,176,61784,1,0,0:0:0:0:
288,112,61922,2,0,P|336:80|400:64,1,97.50000371933
