osu file format v14

[General]
AudioFilename: tothelimit.mp3
AudioLeadIn: 0
PreviewTime: -1
Countdown: 0
SampleSet: Normal
StackLeniency: 0.7
Mode: 3
LetterboxInBreaks: 0
SpecialStyle: 0
WidescreenStoryboard: 0

[Editor]
DistanceSpacing: 0.8
BeatDivisor: 6
GridSize: 16
TimelineZoom: 1

[Metadata]
Title:Weabonie's Practice Pack
TitleUnicode:Weabonie's Practice Pack
Artist:
ArtistUnicode:
Creator:Weabonie
Version:(JACK) To The Limit 1.1x
Source:
Tags:
BeatmapID:1704804
BeatmapSetID:812823

[Difficulty]
HPDrainRate:8
CircleSize:4
OverallDifficulty:9
ApproachRate:5
SliderMultiplier:1.4
SliderTickRate:1

[Events]
//Background and Video events
0,0,"background2.jpg",0,0
//Break Periods
//Storyboard Layer 0 (Background)
//Storyboard Layer 1 (Fail)
//Storyboard Layer 2 (Pass)
//Storyboard Layer 3 (Foreground)
//Storyboard Sound Samples

[TimingPoints]
2500,231.124545454545,4,1,0,24,1,0
133211,499.5005,4,1,0,24,1,0
133211,-46.2962962962963,4,1,0,24,0,0
224838,294.766173913043,4,1,0,24,1,0
224838,-78.125,4,1,0,24,0,0
354662,269.6484,4,1,0,24,1,0
354662,-85.4700854700855,4,1,0,24,0,0

[HitObjects]
64,192,2499,5,0,0:0:0:0:
320,192,2499,1,0,0:0:0:0:
192,192,2499,1,0,0:0:0:0:
448,192,2499,1,0,0:0:0:0:
320,192,2615,1,0,0:0:0:0:
192,192,2731,1,0,0:0:0:0:
64,192,2846,1,0,0:0:0:0:
320,192,2846,1,0,0:0:0:0:
192,192,2962,1,0,0:0:0:0:
320,192,2962,1,0,0:0:0:0:
192,192,3077,1,0,0:0:0:0:
448,192,3077,1,0,0:0:0:0:
64,192,3193,1,0,0:0:0:0:
320,192,3193,1,0,0:0:0:0:
320,192,3308,1,0,0:0:0:0:
64,192,3424,1,0,0:0:0:0:
192,192,3424,1,0,0:0:0:0:
448,192,3424,1,0,0:0:0:0:
64,192,3540,1,0,0:0:0:0:
192,192,3655,1,0,0:0:0:0:
320,192,3655,1,0,0:0:0:0:
448,192,3655,1,0,0:0:0:0:
192,192,3771,1,0,0:0:0:0:
64,192,3886,1,0,0:0:0:0:
320,192,3886,1,0,0:0:0:0:
448,192,3886,1,0,0:0:0:0:
320,192,4002,1,0,0:0:0:0:
64,192,4117,1,0,0:0:0:0:
192,192,4117,1,0,0:0:0:0:
448,192,4117,1,0,0:0:0:0:
448,192,4233,1,0,0:0:0:0:
64,192,4348,1,0,0:0:0:0:
192,192,4348,1,0,0:0:0:0:
320,192,4348,1,0,0:0:0:0:
192,192,4464,1,0,0:0:0:0:
448,192,4580,1,0,0:0:0:0:
64,192,4695,1,0,0:0:0:0:
320,192,4695,1,0,0:0:0:0:
192,192,4811,1,0,0:0:0:0:
320,192,4811,1,0,0:0:0:0:
192,192,4926,1,0,0:0:0:0:
448,192,4926,1,0,0:0:0:0:
64,192,5042,1,0,0:0:0:0:
320,192,5042,1,0,0:0:0:0:
320,192,5157,1,0,0:0:0:0:
64,192,5273,1,0,0:0:0:0:
192,192,5273,1,0,0:0:0:0:
448,192,5273,1,0,0:0:0:0:
192,192,5389,1,0,0:0:0:0:
320,192,5504,1,0,0:0:0:0:
192,192,5620,1,0,0:0:0:0:
64,192,5735,1,0,0:0:0:0:
320,192,5735,1,0,0:0:0:0:
448,192,5735,1,0,0:0:0:0:
320,192,5851,1,0,0:0:0:0:
192,192,5966,1,0,0:0:0:0:
320,192,6082,1,0,0:0:0:0:
64,192,6197,1,0,0:0:0:0:
192,192,6197,1,0,0:0:0:0:
320,192,6197,1,0,0:0:0:0:
448,192,6197,1,0,0:0:0:0:
64,192,6313,1,0,0:0:0:0:
192,192,6429,1,0,0:0:0:0:
320,192,6544,1,0,0:0:0:0:
448,192,6544,1,0,0:0:0:0:
192,192,6660,1,0,0:0:0:0:
320,192,6660,1,0,0:0:0:0:
64,192,6775,1,0,0:0:0:0:
192,192,6775,1,0,0:0:0:0:
320,192,6891,1,0,0:0:0:0:
448,192,6891,1,0,0:0:0:0:
192,192,7006,1,0,0:0:0:0:
64,192,7122,1,0,0:0:0:0:
320,192,7122,1,0,0:0:0:0:
448,192,7122,1,0,0:0:0:0:
448,192,7238,1,0,0:0:0:0:
64,192,7353,1,0,0:0:0:0:
192,192,7353,1,0,0:0:0:0:
320,192,7353,1,0,0:0:0:0:
320,192,7469,1,0,0:0:0:0:
64,192,7584,1,0,0:0:0:0:
192,192,7584,1,0,0:0:0:0:
448,192,7584,1,0,0:0:0:0:
192,192,7700,1,0,0:0:0:0:
64,192,7815,1,0,0:0:0:0:
320,192,7815,1,0,0:0:0:0:
448,192,7815,1,0,0:0:0:0:
64,192,7931,1,0,0:0:0:0:
192,192,8046,1,0,0:0:0:0:
320,192,8046,1,0,0:0:0:0:
448,192,8046,1,0,0:0:0:0:
320,192,8162,1,0,0:0:0:0:
448,192,8278,1,0,0:0:0:0:
64,192,8393,1,0,0:0:0:0:
192,192,8393,1,0,0:0:0:0:
192,192,8509,1,0,0:0:0:0:
320,192,8509,1,0,0:0:0:0:
320,192,8624,1,0,0:0:0:0:
448,192,8624,1,0,0:0:0:0:
64,192,8740,1,0,0:0:0:0:
192,192,8740,1,0,0:0:0:0:
192,192,8855,1,0,0:0:0:0:
64,192,8971,1,0,0:0:0:0:
320,192,8971,1,0,0:0:0:0:
448,192,8971,1,0,0:0:0:0:
320,192,9087,1,0,0:0:0:0:
64,192,9202,1,0,0:0:0:0:
192,192,9202,1,0,0:0:0:0:
448,192,9202,1,0,0:0:0:0:
192,192,9318,1,0,0:0:0:0:
64,192,9433,1,0,0:0:0:0:
192,192,9433,1,0,0:0:0:0:
320,192,9433,1,0,0:0:0:0:
448,192,9433,1,0,0:0:0:0:
320,192,9549,1,0,0:0:0:0:
320,192,9664,1,0,0:0:0:0:
320,192,9780,1,0,0:0:0:0:
64,192,9895,1,0,0:0:0:0:
192,192,9895,1,0,0:0:0:0:
320,192,9895,1,0,0:0:0:0:
448,192,9895,1,0,0:0:0:0:
192,192,10011,1,0,0:0:0:0:
320,192,10127,1,0,0:0:0:0:
192,192,10242,1,0,0:0:0:0:
448,192,10242,1,0,0:0:0:0:
192,192,10358,1,0,0:0:0:0:
320,192,10358,1,0,0:0:0:0:
64,192,10473,1,0,0:0:0:0:
320,192,10473,1,0,0:0:0:0:
192,192,10589,1,0,0:0:0:0:
448,192,10589,1,0,0:0:0:0:
192,192,10704,1,0,0:0:0:0:
64,192,10820,1,0,0:0:0:0:
320,192,10820,1,0,0:0:0:0:
448,192,10820,1,0,0:0:0:0:
448,192,10936,1,0,0:0:0:0:
64,192,11051,1,0,0:0:0:0:
192,192,11051,1,0,0:0:0:0:
320,192,11051,1,0,0:0:0:0:
320,192,11167,1,0,0:0:0:0:
64,192,11282,1,0,0:0:0:0:
192,192,11282,1,0,0:0:0:0:
448,192,11282,1,0,0:0:0:0:
192,192,11398,1,0,0:0:0:0:
64,192,11513,1,0,0:0:0:0:
320,192,11513,1,0,0:0:0:0:
448,192,11513,1,0,0:0:0:0:
64,192,11629,1,0,0:0:0:0:
192,192,11744,1,0,0:0:0:0:
320,192,11744,1,0,0:0:0:0:
448,192,11744,1,0,0:0:0:0:
320,192,11860,1,0,0:0:0:0:
64,192,11976,1,0,0:0:0:0:
192,192,12091,1,0,0:0:0:0:
448,192,12091,1,0,0:0:0:0:
192,192,12207,1,0,0:0:0:0:
320,192,12207,1,0,0:0:0:0:
64,192,12322,1,0,0:0:0:0:
320,192,12322,1,0,0:0:0:0:
192,192,12438,1,0,0:0:0:0:
448,192,12438,1,0,0:0:0:0:
192,192,12553,1,0,0:0:0:0:
64,192,12669,1,0,0:0:0:0:
320,192,12669,1,0,0:0:0:0:
448,192,12669,1,0,0:0:0:0:
320,192,12785,1,0,0:0:0:0:
192,192,12900,1,0,0:0:0:0:
320,192,13016,1,0,0:0:0:0:
64,192,13131,1,0,0:0:0:0:
192,192,13131,1,0,0:0:0:0:
448,192,13131,1,0,0:0:0:0:
192,192,13247,1,0,0:0:0:0:
320,192,13362,1,0,0:0:0:0:
192,192,13478,1,0,0:0:0:0:
64,192,13593,1,0,0:0:0:0:
192,192,13593,1,0,0:0:0:0:
320,192,13593,1,0,0:0:0:0:
448,192,13593,1,0,0:0:0:0:
448,192,13709,1,0,0:0:0:0:
320,192,13825,1,0,0:0:0:0:
64,192,13940,1,0,0:0:0:0:
192,192,13940,1,0,0:0:0:0:
192,192,14056,1,0,0:0:0:0:
320,192,14056,1,0,0:0:0:0:
320,192,14171,1,0,0:0:0:0:
448,192,14171,1,0,0:0:0:0:
64,192,14287,1,0,0:0:0:0:
192,192,14287,1,0,0:0:0:0:
320,192,14402,1,0,0:0:0:0:
64,192,14518,1,0,0:0:0:0:
192,192,14518,1,0,0:0:0:0:
448,192,14518,1,0,0:0:0:0:
64,192,14634,1,0,0:0:0:0:
192,192,14749,1,0,0:0:0:0:
320,192,14749,1,0,0:0:0:0:
448,192,14749,1,0,0:0:0:0:
192,192,14865,1,0,0:0:0:0:
64,192,14980,1,0,0:0:0:0:
320,192,14980,1,0,0:0:0:0:
448,192,14980,1,0,0:0:0:0:
320,192,15096,1,0,0:0:0:0:
64,192,15211,1,0,0:0:0:0:
192,192,15211,1,0,0:0:0:0:
448,192,15211,1,0,0:0:0:0:
448,192,15327,1,0,0:0:0:0:
64,192,15442,1,0,0:0:0:0:
192,192,15442,1,0,0:0:0:0:
320,192,15442,1,0,0:0:0:0:
192,192,15558,1,0,0:0:0:0:
64,192,15674,1,0,0:0:0:0:
320,192,15789,1,0,0:0:0:0:
448,192,15789,1,0,0:0:0:0:
192,192,15905,1,0,0:0:0:0:
320,192,15905,1,0,0:0:0:0:
64,192,16020,1,0,0:0:0:0:
192,192,16020,1,0,0:0:0:0:
320,192,16136,1,0,0:0:0:0:
448,192,16136,1,0,0:0:0:0:
320,192,16251,1,0,0:0:0:0:
64,192,16367,1,0,0:0:0:0:
192,192,16367,1,0,0:0:0:0:
448,192,16367,1,0,0:0:0:0:
192,192,16483,1,0,0:0:0:0:
64,192,16598,1,0,0:0:0:0:
320,192,16598,1,0,0:0:0:0:
448,192,16598,1,0,0:0:0:0:
320,192,16714,1,0,0:0:0:0:
64,192,16829,1,0,0:0:0:0:
192,192,16829,1,0,0:0:0:0:
320,192,16829,1,0,0:0:0:0:
448,192,16829,1,0,0:0:0:0:
192,192,16945,1,0,0:0:0:0:
192,192,17060,1,0,0:0:0:0:
192,192,17176,1,0,0:0:0:0:
64,192,17291,1,0,0:0:0:0:
320,192,17291,1,0,0:0:0:0:
448,192,17291,1,0,0:0:0:0:
192,192,17407,1,0,0:0:0:0:
64,192,17523,1,0,0:0:0:0:
64,192,17638,1,0,0:0:0:0:
192,192,17638,1,0,0:0:0:0:
320,192,17638,1,0,0:0:0:0:
448,192,17638,1,0,0:0:0:0:
320,192,17754,1,0,0:0:0:0:
320,192,17869,1,0,0:0:0:0:
64,192,17985,1,0,0:0:0:0:
192,192,17985,1,0,0:0:0:0:
448,192,17985,1,0,0:0:0:0:
448,192,18100,1,0,0:0:0:0:
64,192,18216,1,0,0:0:0:0:
192,192,18216,1,0,0:0:0:0:
320,192,18216,1,0,0:0:0:0:
448,192,18332,1,0,0:0:0:0:
192,192,18447,1,0,0:0:0:0:
64,192,18563,1,0,0:0:0:0:
192,192,18563,1,0,0:0:0:0:
320,192,18563,1,0,0:0:0:0:
448,192,18563,1,0,0:0:0:0:
448,192,18678,1,0,0:0:0:0:
448,192,18794,1,0,0:0:0:0:
64,192,18909,1,0,0:0:0:0:
192,192,18909,1,0,0:0:0:0:
320,192,18909,1,0,0:0:0:0:
320,192,19025,1,0,0:0:0:0:
64,192,19140,1,0,0:0:0:0:
192,192,19140,1,0,0:0:0:0:
448,192,19140,1,0,0:0:0:0:
64,192,19256,1,0,0:0:0:0:
192,192,19372,1,0,0:0:0:0:
320,192,19372,1,0,0:0:0:0:
320,192,19487,1,0,0:0:0:0:
448,192,19487,1,0,0:0:0:0:
64,192,19603,1,0,0:0:0:0:
448,192,19603,1,0,0:0:0:0:
64,192,19718,1,0,0:0:0:0:
192,192,19718,1,0,0:0:0:0:
192,192,19834,1,0,0:0:0:0:
448,192,19834,1,0,0:0:0:0:
320,192,19949,1,0,0:0:0:0:
448,192,19949,1,0,0:0:0:0:
64,192,20065,1,0,0:0:0:0:
192,192,20065,1,0,0:0:0:0:
320,192,20065,1,0,0:0:0:0:
320,192,20181,1,0,0:0:0:0:
64,192,20296,1,0,0:0:0:0:
192,192,20296,1,0,0:0:0:0:
448,192,20296,1,0,0:0:0:0:
192,192,20412,1,0,0:0:0:0:
64,192,20527,1,0,0:0:0:0:
320,192,20527,1,0,0:0:0:0:
448,192,20527,1,0,0:0:0:0:
320,192,20643,1,0,0:0:0:0:
448,192,20643,1,0,0:0:0:0:
64,192,20758,1,0,0:0:0:0:
192,192,20787,1,0,0:0:0:0:
320,192,20816,1,0,0:0:0:0:
448,192,20845,1,0,0:0:0:0:
64,192,20874,1,0,0:0:0:0:
192,192,20903,1,0,0:0:0:0:
320,192,20932,1,0,0:0:0:0:
448,192,20961,1,0,0:0:0:0:
64,192,20989,1,0,0:0:0:0:
192,192,20989,1,0,0:0:0:0:
320,192,21105,1,0,0:0:0:0:
192,192,21221,1,0,0:0:0:0:
448,192,21221,1,0,0:0:0:0:
320,192,21336,1,0,0:0:0:0:
64,192,21452,1,0,0:0:0:0:
192,192,21452,1,0,0:0:0:0:
320,192,21567,1,0,0:0:0:0:
64,192,21683,1,0,0:0:0:0:
448,192,21683,1,0,0:0:0:0:
192,192,21798,1,0,0:0:0:0:
320,192,21914,1,0,0:0:0:0:
448,192,21914,1,0,0:0:0:0:
192,192,22030,1,0,0:0:0:0:
320,192,22030,1,0,0:0:0:0:
64,192,22145,1,0,0:0:0:0:
192,192,22261,1,0,0:0:0:0:
320,192,22261,1,0,0:0:0:0:
192,192,22376,1,0,0:0:0:0:
448,192,22376,1,0,0:0:0:0:
64,192,22492,1,0,0:0:0:0:
192,192,22607,1,0,0:0:0:0:
448,192,22607,1,0,0:0:0:0:
320,192,22723,1,0,0:0:0:0:
448,192,22838,1,0,0:0:0:0:
64,192,22954,1,0,0:0:0:0:
192,192,23070,1,0,0:0:0:0:
320,192,23070,1,0,0:0:0:0:
64,192,23185,1,0,0:0:0:0:
320,192,23301,1,0,0:0:0:0:
448,192,23301,1,0,0:0:0:0:
192,192,23416,1,0,0:0:0:0:
320,192,23532,1,0,0:0:0:0:
448,192,23647,1,0,0:0:0:0:
64,192,23763,1,0,0:0:0:0:
192,192,23763,1,0,0:0:0:0:
320,192,23879,1,0,0:0:0:0:
448,192,23994,1,0,0:0:0:0:
64,192,24110,1,0,0:0:0:0:
192,192,24110,1,0,0:0:0:0:
320,192,24225,1,0,0:0:0:0:
448,192,24225,1,0,0:0:0:0:
192,192,24341,1,0,0:0:0:0:
64,192,24456,1,0,0:0:0:0:
448,192,24456,1,0,0:0:0:0:
192,192,24572,1,0,0:0:0:0:
64,192,24687,1,0,0:0:0:0:
448,192,24687,1,0,0:0:0:0:
320,192,24803,1,0,0:0:0:0:
64,192,24919,1,0,0:0:0:0:
192,192,24919,1,0,0:0:0:0:
320,192,25034,1,0,0:0:0:0:
64,192,25150,1,0,0:0:0:0:
448,192,25150,1,0,0:0:0:0:
320,192,25265,1,0,0:0:0:0:
192,192,25381,1,0,0:0:0:0:
448,192,25381,1,0,0:0:0:0:
320,192,25496,1,0,0:0:0:0:
64,192,25612,1,0,0:0:0:0:
192,192,25612,1,0,0:0:0:0:
192,192,25728,1,0,0:0:0:0:
320,192,25728,1,0,0:0:0:0:
448,192,25843,1,0,0:0:0:0:
64,192,25959,1,0,0:0:0:0:
320,192,25959,1,0,0:0:0:0:
192,192,26074,1,0,0:0:0:0:
320,192,26074,1,0,0:0:0:0:
64,192,26190,1,0,0:0:0:0:
320,192,26305,1,0,0:0:0:0:
448,192,26305,1,0,0:0:0:0:
192,192,26421,1,0,0:0:0:0:
320,192,26536,1,0,0:0:0:0:
448,192,26652,1,0,0:0:0:0:
192,192,26768,1,0,0:0:0:0:
320,192,26768,1,0,0:0:0:0:
448,192,26883,1,0,0:0:0:0:
64,192,26999,1,0,0:0:0:0:
192,192,26999,1,0,0:0:0:0:
320,192,27114,1,0,0:0:0:0:
64,192,27230,1,0,0:0:0:0:
448,192,27230,1,0,0:0:0:0:
192,192,27345,1,0,0:0:0:0:
64,192,27461,1,0,0:0:0:0:
448,192,27461,1,0,0:0:0:0:
64,192,27577,1,0,0:0:0:0:
448,192,27577,1,0,0:0:0:0:
320,192,27692,1,0,0:0:0:0:
64,192,27808,1,0,0:0:0:0:
448,192,27808,1,0,0:0:0:0:
192,192,27923,1,0,0:0:0:0:
448,192,27923,1,0,0:0:0:0:
320,192,28039,1,0,0:0:0:0:
64,192,28154,1,0,0:0:0:0:
448,192,28154,1,0,0:0:0:0:
64,192,28270,1,0,0:0:0:0:
320,192,28270,1,0,0:0:0:0:
192,192,28385,1,0,0:0:0:0:
320,192,28385,1,0,0:0:0:0:
448,192,28385,1,0,0:0:0:0:
192,192,28501,1,0,0:0:0:0:
64,192,28617,1,0,0:0:0:0:
320,192,28617,1,0,0:0:0:0:
192,192,28732,1,0,0:0:0:0:
320,192,28848,1,0,0:0:0:0:
448,192,28848,1,0,0:0:0:0:
192,192,28963,1,0,0:0:0:0:
64,192,29079,1,0,0:0:0:0:
448,192,29079,1,0,0:0:0:0:
320,192,29194,1,0,0:0:0:0:
64,192,29310,1,0,0:0:0:0:
192,192,29310,1,0,0:0:0:0:
192,192,29426,1,0,0:0:0:0:
320,192,29426,1,0,0:0:0:0:
448,192,29541,1,0,0:0:0:0:
192,192,29657,1,0,0:0:0:0:
320,192,29657,1,0,0:0:0:0:
64,192,29772,1,0,0:0:0:0:
320,192,29772,1,0,0:0:0:0:
448,192,29888,1,0,0:0:0:0:
64,192,30003,1,0,0:0:0:0:
320,192,30003,1,0,0:0:0:0:
192,192,30119,1,0,0:0:0:0:
64,192,30234,1,0,0:0:0:0:
448,192,30350,1,0,0:0:0:0:
192,192,30466,1,0,0:0:0:0:
320,192,30466,1,0,0:0:0:0:
448,192,30581,1,0,0:0:0:0:
64,192,30697,1,0,0:0:0:0:
192,192,30697,1,0,0:0:0:0:
320,192,30812,1,0,0:0:0:0:
192,192,30928,1,0,0:0:0:0:
64,192,31043,1,0,0:0:0:0:
320,192,31159,1,0,0:0:0:0:
448,192,31159,1,0,0:0:0:0:
192,192,31275,1,0,0:0:0:0:
64,192,31390,1,0,0:0:0:0:
320,192,31506,1,0,0:0:0:0:
448,192,31506,1,0,0:0:0:0:
64,192,31621,1,0,0:0:0:0:
192,192,31621,1,0,0:0:0:0:
320,192,31737,1,0,0:0:0:0:
64,192,31852,1,0,0:0:0:0:
448,192,31852,1,0,0:0:0:0:
320,192,31968,1,0,0:0:0:0:
64,192,32083,1,0,0:0:0:0:
448,192,32083,1,0,0:0:0:0:
192,192,32199,1,0,0:0:0:0:
320,192,32315,1,0,0:0:0:0:
448,192,32315,1,0,0:0:0:0:
192,192,32430,1,0,0:0:0:0:
64,192,32546,1,0,0:0:0:0:
448,192,32546,1,0,0:0:0:0:
192,192,32661,1,0,0:0:0:0:
64,192,32777,1,0,0:0:0:0:
320,192,32777,1,0,0:0:0:0:
192,192,32892,1,0,0:0:0:0:
320,192,33008,1,0,0:0:0:0:
448,192,33008,1,0,0:0:0:0:
192,192,33124,1,0,0:0:0:0:
320,192,33124,1,0,0:0:0:0:
64,192,33239,1,0,0:0:0:0:
192,192,33355,1,0,0:0:0:0:
448,192,33355,1,0,0:0:0:0:
192,192,33470,1,0,0:0:0:0:
320,192,33470,1,0,0:0:0:0:
448,192,33586,1,0,0:0:0:0:
64,192,33701,1,0,0:0:0:0:
192,192,33701,1,0,0:0:0:0:
320,192,33817,1,0,0:0:0:0:
192,192,33932,1,0,0:0:0:0:
64,192,34048,1,0,0:0:0:0:
192,192,34164,1,0,0:0:0:0:
320,192,34164,1,0,0:0:0:0:
64,192,34279,1,0,0:0:0:0:
320,192,34395,1,0,0:0:0:0:
448,192,34395,1,0,0:0:0:0:
192,192,34510,1,0,0:0:0:0:
64,192,34626,1,0,0:0:0:0:
448,192,34626,1,0,0:0:0:0:
320,192,34741,1,0,0:0:0:0:
64,192,34857,1,0,0:0:0:0:
448,192,34857,1,0,0:0:0:0:
192,192,34972,1,0,0:0:0:0:
448,192,34972,1,0,0:0:0:0:
320,192,35088,1,0,0:0:0:0:
64,192,35204,1,0,0:0:0:0:
448,192,35204,1,0,0:0:0:0:
64,192,35319,1,0,0:0:0:0:
320,192,35319,1,0,0:0:0:0:
192,192,35435,1,0,0:0:0:0:
64,192,35550,1,0,0:0:0:0:
320,192,35550,1,0,0:0:0:0:
448,192,35550,1,0,0:0:0:0:
64,192,35666,1,0,0:0:0:0:
320,192,35666,1,0,0:0:0:0:
448,192,35666,1,0,0:0:0:0:
64,192,35781,1,0,0:0:0:0:
192,192,35781,1,0,0:0:0:0:
320,192,35781,1,0,0:0:0:0:
448,192,35781,1,0,0:0:0:0:
192,192,35897,1,0,0:0:0:0:
320,192,36013,1,0,0:0:0:0:
320,192,36128,1,0,0:0:0:0:
64,192,36244,1,0,0:0:0:0:
192,192,36244,1,0,0:0:0:0:
448,192,36244,1,0,0:0:0:0:
448,192,36359,1,0,0:0:0:0:
64,192,36475,1,0,0:0:0:0:
192,192,36475,1,0,0:0:0:0:
320,192,36475,1,0,0:0:0:0:
64,192,36590,1,0,0:0:0:0:
192,192,36706,1,0,0:0:0:0:
448,192,36706,1,0,0:0:0:0:
320,192,36821,1,0,0:0:0:0:
64,192,36937,1,0,0:0:0:0:
448,192,36937,1,0,0:0:0:0:
192,192,37053,1,0,0:0:0:0:
320,192,37168,1,0,0:0:0:0:
448,192,37168,1,0,0:0:0:0:
192,192,37284,1,0,0:0:0:0:
64,192,37399,1,0,0:0:0:0:
192,192,37399,1,0,0:0:0:0:
320,192,37399,1,0,0:0:0:0:
320,192,37515,1,0,0:0:0:0:
64,192,37630,1,0,0:0:0:0:
192,192,37630,1,0,0:0:0:0:
448,192,37630,1,0,0:0:0:0:
320,192,37746,1,0,0:0:0:0:
192,192,37862,1,0,0:0:0:0:
192,192,37977,1,0,0:0:0:0:
64,192,38093,1,0,0:0:0:0:
320,192,38093,1,0,0:0:0:0:
448,192,38093,1,0,0:0:0:0:
320,192,38208,1,0,0:0:0:0:
64,192,38324,1,0,0:0:0:0:
192,192,38324,1,0,0:0:0:0:
448,192,38324,1,0,0:0:0:0:
192,192,38439,1,0,0:0:0:0:
320,192,38555,1,0,0:0:0:0:
448,192,38555,1,0,0:0:0:0:
64,192,38670,1,0,0:0:0:0:
192,192,38786,1,0,0:0:0:0:
320,192,38786,1,0,0:0:0:0:
448,192,38902,1,0,0:0:0:0:
64,192,39017,1,0,0:0:0:0:
320,192,39017,1,0,0:0:0:0:
192,192,39133,1,0,0:0:0:0:
64,192,39248,1,0,0:0:0:0:
192,192,39248,1,0,0:0:0:0:
320,192,39248,1,0,0:0:0:0:
64,192,39364,1,0,0:0:0:0:
192,192,39479,1,0,0:0:0:0:
320,192,39479,1,0,0:0:0:0:
448,192,39479,1,0,0:0:0:0:
192,192,39595,1,0,0:0:0:0:
320,192,39711,1,0,0:0:0:0:
320,192,39826,1,0,0:0:0:0:
64,192,39942,1,0,0:0:0:0:
192,192,39942,1,0,0:0:0:0:
448,192,39942,1,0,0:0:0:0:
448,192,40057,1,0,0:0:0:0:
64,192,40173,1,0,0:0:0:0:
192,192,40173,1,0,0:0:0:0:
320,192,40173,1,0,0:0:0:0:
64,192,40288,1,0,0:0:0:0:
320,192,40404,1,0,0:0:0:0:
448,192,40404,1,0,0:0:0:0:
192,192,40519,1,0,0:0:0:0:
64,192,40635,1,0,0:0:0:0:
320,192,40635,1,0,0:0:0:0:
448,192,40751,1,0,0:0:0:0:
64,192,40866,1,0,0:0:0:0:
192,192,40866,1,0,0:0:0:0:
320,192,40982,1,0,0:0:0:0:
192,192,41097,1,0,0:0:0:0:
320,192,41097,1,0,0:0:0:0:
448,192,41097,1,0,0:0:0:0:
192,192,41213,1,0,0:0:0:0:
64,192,41328,1,0,0:0:0:0:
320,192,41328,1,0,0:0:0:0:
448,192,41328,1,0,0:0:0:0:
192,192,41444,1,0,0:0:0:0:
320,192,41560,1,0,0:0:0:0:
448,192,41560,1,0,0:0:0:0:
448,192,41675,1,0,0:0:0:0:
64,192,41791,1,0,0:0:0:0:
192,192,41791,1,0,0:0:0:0:
320,192,41791,1,0,0:0:0:0:
64,192,41906,1,0,0:0:0:0:
192,192,42022,1,0,0:0:0:0:
320,192,42022,1,0,0:0:0:0:
448,192,42022,1,0,0:0:0:0:
64,192,42137,1,0,0:0:0:0:
192,192,42137,1,0,0:0:0:0:
320,192,42137,1,0,0:0:0:0:
192,192,42253,1,0,0:0:0:0:
448,192,42253,1,0,0:0:0:0:
320,192,42368,1,0,0:0:0:0:
64,192,42484,1,0,0:0:0:0:
448,192,42484,1,0,0:0:0:0:
192,192,42600,1,0,0:0:0:0:
320,192,42715,1,0,0:0:0:0:
448,192,42715,1,0,0:0:0:0:
64,192,42831,1,0,0:0:0:0:
192,192,42946,1,0,0:0:0:0:
448,192,42946,1,0,0:0:0:0:
320,192,43062,1,0,0:0:0:0:
64,192,43177,1,0,0:0:0:0:
192,192,43177,1,0,0:0:0:0:
320,192,43177,1,0,0:0:0:0:
448,192,43177,1,0,0:0:0:0:
64,192,43293,1,0,0:0:0:0:
64,192,43409,1,0,0:0:0:0:
64,192,43524,1,0,0:0:0:0:
192,192,43640,1,0,0:0:0:0:
320,192,43640,1,0,0:0:0:0:
448,192,43640,1,0,0:0:0:0:
448,192,43755,1,0,0:0:0:0:
64,192,43871,1,0,0:0:0:0:
192,192,43871,1,0,0:0:0:0:
320,192,43871,1,0,0:0:0:0:
320,192,43986,1,0,0:0:0:0:
64,192,44102,1,0,0:0:0:0:
192,192,44102,1,0,0:0:0:0:
320,192,44217,1,0,0:0:0:0:
64,192,44333,1,0,0:0:0:0:
448,192,44333,1,0,0:0:0:0:
192,192,44449,1,0,0:0:0:0:
320,192,44564,1,0,0:0:0:0:
448,192,44564,1,0,0:0:0:0:
192,192,44680,1,0,0:0:0:0:
64,192,44795,1,0,0:0:0:0:
192,192,44795,1,0,0:0:0:0:
448,192,44795,1,0,0:0:0:0:
320,192,44911,1,0,0:0:0:0:
64,192,45026,1,0,0:0:0:0:
320,192,45026,1,0,0:0:0:0:
448,192,45026,1,0,0:0:0:0:
192,192,45142,1,0,0:0:0:0:
320,192,45258,1,0,0:0:0:0:
320,192,45373,1,0,0:0:0:0:
64,192,45489,1,0,0:0:0:0:
192,192,45489,1,0,0:0:0:0:
448,192,45489,1,0,0:0:0:0:
448,192,45604,1,0,0:0:0:0:
64,192,45720,1,0,0:0:0:0:
192,192,45720,1,0,0:0:0:0:
320,192,45720,1,0,0:0:0:0:
192,192,45835,1,0,0:0:0:0:
64,192,45951,1,0,0:0:0:0:
320,192,45951,1,0,0:0:0:0:
448,192,46066,1,0,0:0:0:0:
192,192,46182,1,0,0:0:0:0:
320,192,46182,1,0,0:0:0:0:
64,192,46298,1,0,0:0:0:0:
320,192,46413,1,0,0:0:0:0:
448,192,46413,1,0,0:0:0:0:
64,192,46529,1,0,0:0:0:0:
192,192,46529,1,0,0:0:0:0:
192,192,46644,1,0,0:0:0:0:
448,192,46760,1,0,0:0:0:0:
64,192,46875,1,0,0:0:0:0:
192,192,46875,1,0,0:0:0:0:
320,192,46875,1,0,0:0:0:0:
448,192,46875,1,0,0:0:0:0:
192,192,46991,1,0,0:0:0:0:
320,192,46991,1,0,0:0:0:0:
64,192,47107,1,0,0:0:0:0:
320,192,47222,1,0,0:0:0:0:
448,192,47222,1,0,0:0:0:0:
64,192,47280,1,0,0:0:0:0:
192,192,47280,1,0,0:0:0:0:
320,192,47338,1,0,0:0:0:0:
448,192,47338,1,0,0:0:0:0:
64,192,47395,1,0,0:0:0:0:
192,192,47395,1,0,0:0:0:0:
320,192,47453,1,0,0:0:0:0:
448,192,47453,1,0,0:0:0:0:
64,192,47511,1,0,0:0:0:0:
192,192,47511,1,0,0:0:0:0:
320,192,47569,1,0,0:0:0:0:
448,192,47569,1,0,0:0:0:0:
192,192,47684,1,0,0:0:0:0:
64,192,47800,1,0,0:0:0:0:
192,192,47800,1,0,0:0:0:0:
320,192,47800,1,0,0:0:0:0:
448,192,47800,1,0,0:0:0:0:
64,192,47915,1,0,0:0:0:0:
320,192,47915,1,0,0:0:0:0:
448,192,48031,1,0,0:0:0:0:
64,192,48147,1,0,0:0:0:0:
192,192,48147,1,0,0:0:0:0:
320,192,48204,1,0,0:0:0:0:
448,192,48204,1,0,0:0:0:0:
64,192,48262,1,0,0:0:0:0:
192,192,48262,1,0,0:0:0:0:
320,192,48320,1,0,0:0:0:0:
448,192,48320,1,0,0:0:0:0:
64,192,48378,1,0,0:0:0:0:
192,192,48378,1,0,0:0:0:0:
320,192,48436,1,0,0:0:0:0:
448,192,48436,1,0,0:0:0:0:
64,192,48493,1,0,0:0:0:0:
192,192,48493,1,0,0:0:0:0:
320,192,48609,1,0,0:0:0:0:
64,192,48724,1,0,0:0:0:0:
192,192,48724,1,0,0:0:0:0:
320,192,48724,1,0,0:0:0:0:
448,192,48724,1,0,0:0:0:0:
64,192,48840,1,0,0:0:0:0:
448,192,48840,1,0,0:0:0:0:
192,192,48956,1,0,0:0:0:0:
320,192,49071,1,0,0:0:0:0:
448,192,49071,1,0,0:0:0:0:
64,192,49129,1,0,0:0:0:0:
192,192,49129,1,0,0:0:0:0:
320,192,49187,1,0,0:0:0:0:
448,192,49187,1,0,0:0:0:0:
64,192,49244,1,0,0:0:0:0:
192,192,49244,1,0,0:0:0:0:
320,192,49302,1,0,0:0:0:0:
448,192,49302,1,0,0:0:0:0:
64,192,49360,1,0,0:0:0:0:
192,192,49360,1,0,0:0:0:0:
320,192,49418,1,0,0:0:0:0:
448,192,49418,1,0,0:0:0:0:
192,192,49533,1,0,0:0:0:0:
64,192,49649,1,0,0:0:0:0:
192,192,49649,1,0,0:0:0:0:
320,192,49649,1,0,0:0:0:0:
448,192,49649,1,0,0:0:0:0:
64,192,49764,1,0,0:0:0:0:
320,192,49764,1,0,0:0:0:0:
64,192,49880,1,0,0:0:0:0:
192,192,49880,1,0,0:0:0:0:
448,192,49880,1,0,0:0:0:0:
320,192,49996,1,0,0:0:0:0:
448,192,49996,1,0,0:0:0:0:
64,192,50111,1,0,0:0:0:0:
192,192,50111,1,0,0:0:0:0:
320,192,50169,1,0,0:0:0:0:
448,192,50169,1,0,0:0:0:0:
64,192,50227,1,0,0:0:0:0:
192,192,50227,1,0,0:0:0:0:
320,192,50284,1,0,0:0:0:0:
448,192,50284,1,0,0:0:0:0:
64,192,50342,1,0,0:0:0:0:
192,192,50342,1,0,0:0:0:0:
320,192,50458,1,0,0:0:0:0:
64,192,50573,1,0,0:0:0:0:
192,192,50573,1,0,0:0:0:0:
320,192,50573,1,0,0:0:0:0:
448,192,50573,1,0,0:0:0:0:
448,192,50689,1,0,0:0:0:0:
64,192,50805,1,0,0:0:0:0:
192,192,50805,1,0,0:0:0:0:
320,192,50805,1,0,0:0:0:0:
64,192,50920,1,0,0:0:0:0:
64,192,51036,1,0,0:0:0:0:
192,192,51036,1,0,0:0:0:0:
320,192,51036,1,0,0:0:0:0:
448,192,51036,1,0,0:0:0:0:
320,192,51151,1,0,0:0:0:0:
192,192,51267,1,0,0:0:0:0:
320,192,51267,1,0,0:0:0:0:
448,192,51267,1,0,0:0:0:0:
192,192,51382,1,0,0:0:0:0:
64,192,51498,1,0,0:0:0:0:
192,192,51498,1,0,0:0:0:0:
320,192,51498,1,0,0:0:0:0:
448,192,51498,1,0,0:0:0:0:
320,192,51613,1,0,0:0:0:0:
448,192,51613,1,0,0:0:0:0:
64,192,51729,1,0,0:0:0:0:
192,192,51729,1,0,0:0:0:0:
320,192,51729,1,0,0:0:0:0:
448,192,51729,1,0,0:0:0:0:
64,192,51845,1,0,0:0:0:0:
192,192,51845,1,0,0:0:0:0:
320,192,51845,1,0,0:0:0:0:
448,192,51845,1,0,0:0:0:0:
64,192,51960,1,0,0:0:0:0:
192,192,52076,1,0,0:0:0:0:
320,192,52076,1,0,0:0:0:0:
448,192,52076,1,0,0:0:0:0:
64,192,52191,1,0,0:0:0:0:
320,192,52191,1,0,0:0:0:0:
448,192,52191,1,0,0:0:0:0:
64,192,52307,1,0,0:0:0:0:
192,192,52307,1,0,0:0:0:0:
320,192,52307,1,0,0:0:0:0:
64,192,52422,1,0,0:0:0:0:
192,192,52422,1,0,0:0:0:0:
320,192,52422,1,0,0:0:0:0:
448,192,52422,1,0,0:0:0:0:
192,192,52538,1,0,0:0:0:0:
448,192,52538,1,0,0:0:0:0:
64,192,52654,1,0,0:0:0:0:
320,192,52654,1,0,0:0:0:0:
448,192,52654,1,0,0:0:0:0:
64,192,52769,1,0,0:0:0:0:
64,192,52885,1,0,0:0:0:0:
192,192,52885,1,0,0:0:0:0:
320,192,52885,1,0,0:0:0:0:
448,192,52885,1,0,0:0:0:0:
192,192,53000,1,0,0:0:0:0:
320,192,53000,1,0,0:0:0:0:
64,192,53116,1,0,0:0:0:0:
192,192,53116,1,0,0:0:0:0:
448,192,53116,1,0,0:0:0:0:
448,192,53231,1,0,0:0:0:0:
64,192,53347,1,0,0:0:0:0:
192,192,53347,1,0,0:0:0:0:
320,192,53347,1,0,0:0:0:0:
448,192,53347,1,0,0:0:0:0:
192,192,53462,1,0,0:0:0:0:
64,192,53578,1,0,0:0:0:0:
192,192,53578,1,0,0:0:0:0:
320,192,53578,1,0,0:0:0:0:
448,192,53578,1,0,0:0:0:0:
192,192,53694,1,0,0:0:0:0:
64,192,53809,1,0,0:0:0:0:
192,192,53809,1,0,0:0:0:0:
320,192,53809,1,0,0:0:0:0:
448,192,53809,1,0,0:0:0:0:
64,192,53925,1,0,0:0:0:0:
448,192,53925,1,0,0:0:0:0:
192,192,54040,1,0,0:0:0:0:
320,192,54156,1,0,0:0:0:0:
64,192,54271,1,0,0:0:0:0:
192,192,54271,1,0,0:0:0:0:
320,192,54271,1,0,0:0:0:0:
448,192,54271,1,0,0:0:0:0:
64,192,54387,1,0,0:0:0:0:
192,192,54387,1,0,0:0:0:0:
64,192,54503,1,0,0:0:0:0:
320,192,54503,1,0,0:0:0:0:
448,192,54503,1,0,0:0:0:0:
320,192,54618,1,0,0:0:0:0:
448,192,54618,1,0,0:0:0:0:
64,192,54734,1,0,0:0:0:0:
192,192,54734,1,0,0:0:0:0:
320,192,54734,1,0,0:0:0:0:
448,192,54734,1,0,0:0:0:0:
64,192,54849,1,0,0:0:0:0:
320,192,54849,1,0,0:0:0:0:
64,192,54965,1,0,0:0:0:0:
192,192,54965,1,0,0:0:0:0:
448,192,54965,1,0,0:0:0:0:
192,192,55080,1,0,0:0:0:0:
448,192,55080,1,0,0:0:0:0:
64,192,55196,1,0,0:0:0:0:
192,192,55196,1,0,0:0:0:0:
320,192,55196,1,0,0:0:0:0:
448,192,55196,1,0,0:0:0:0:
448,192,55311,1,0,0:0:0:0:
64,192,55427,1,0,0:0:0:0:
192,192,55427,1,0,0:0:0:0:
320,192,55427,1,0,0:0:0:0:
448,192,55427,1,0,0:0:0:0:
64,192,55543,1,0,0:0:0:0:
192,192,55543,1,0,0:0:0:0:
320,192,55543,1,0,0:0:0:0:
64,192,55658,1,0,0:0:0:0:
448,192,55658,1,0,0:0:0:0:
192,192,55774,1,0,0:0:0:0:
320,192,55774,1,0,0:0:0:0:
448,192,55774,1,0,0:0:0:0:
64,192,55889,1,0,0:0:0:0:
192,192,55889,1,0,0:0:0:0:
320,192,55889,1,0,0:0:0:0:
448,192,55889,1,0,0:0:0:0:
64,192,56005,1,0,0:0:0:0:
192,192,56005,1,0,0:0:0:0:
64,192,56120,1,0,0:0:0:0:
192,192,56120,1,0,0:0:0:0:
320,192,56120,1,0,0:0:0:0:
448,192,56120,1,0,0:0:0:0:
320,192,56236,1,0,0:0:0:0:
448,192,56236,1,0,0:0:0:0:
64,192,56352,1,0,0:0:0:0:
192,192,56352,1,0,0:0:0:0:
320,192,56352,1,0,0:0:0:0:
64,192,56467,1,0,0:0:0:0:
192,192,56467,1,0,0:0:0:0:
64,192,56583,1,0,0:0:0:0:
192,192,56583,1,0,0:0:0:0:
320,192,56583,1,0,0:0:0:0:
448,192,56583,1,0,0:0:0:0:
192,192,56698,1,0,0:0:0:0:
448,192,56698,1,0,0:0:0:0:
192,192,56814,1,0,0:0:0:0:
320,192,56814,1,0,0:0:0:0:
448,192,56814,1,0,0:0:0:0:
64,192,56929,1,0,0:0:0:0:
320,192,56929,1,0,0:0:0:0:
64,192,57045,1,0,0:0:0:0:
192,192,57045,1,0,0:0:0:0:
320,192,57045,1,0,0:0:0:0:
448,192,57045,1,0,0:0:0:0:
192,192,57160,1,0,0:0:0:0:
320,192,57160,1,0,0:0:0:0:
64,192,57276,1,0,0:0:0:0:
192,192,57276,1,0,0:0:0:0:
320,192,57276,1,0,0:0:0:0:
448,192,57276,1,0,0:0:0:0:
64,192,57392,1,0,0:0:0:0:
448,192,57392,1,0,0:0:0:0:
64,192,57507,1,0,0:0:0:0:
192,192,57507,1,0,0:0:0:0:
320,192,57507,1,0,0:0:0:0:
448,192,57507,1,0,0:0:0:0:
192,192,57623,1,0,0:0:0:0:
320,192,57623,1,0,0:0:0:0:
448,192,57738,1,0,0:0:0:0:
320,192,57854,1,0,0:0:0:0:
64,192,57969,1,0,0:0:0:0:
192,192,57969,1,0,0:0:0:0:
320,192,57969,1,0,0:0:0:0:
448,192,57969,1,0,0:0:0:0:
192,192,58085,1,0,0:0:0:0:
64,192,58201,1,0,0:0:0:0:
320,192,58201,1,0,0:0:0:0:
448,192,58201,1,0,0:0:0:0:
448,192,58316,1,0,0:0:0:0:
64,192,58432,1,0,0:0:0:0:
192,192,58432,1,0,0:0:0:0:
320,192,58432,1,0,0:0:0:0:
448,192,58432,1,0,0:0:0:0:
320,192,58547,1,0,0:0:0:0:
64,192,58663,1,0,0:0:0:0:
192,192,58663,1,0,0:0:0:0:
448,192,58663,1,0,0:0:0:0:
64,192,58778,1,0,0:0:0:0:
64,192,58894,1,0,0:0:0:0:
192,192,58894,1,0,0:0:0:0:
320,192,58894,1,0,0:0:0:0:
448,192,58894,1,0,0:0:0:0:
192,192,59009,1,0,0:0:0:0:
64,192,59125,1,0,0:0:0:0:
192,192,59125,1,0,0:0:0:0:
320,192,59125,1,0,0:0:0:0:
448,192,59125,1,0,0:0:0:0:
64,192,59241,1,0,0:0:0:0:
192,192,59241,1,0,0:0:0:0:
320,192,59241,1,0,0:0:0:0:
448,192,59241,1,0,0:0:0:0:
320,192,59356,1,0,0:0:0:0:
64,192,59472,1,0,0:0:0:0:
192,192,59472,1,0,0:0:0:0:
448,192,59472,1,0,0:0:0:0:
64,192,59587,1,0,0:0:0:0:
320,192,59587,1,0,0:0:0:0:
448,192,59587,1,0,0:0:0:0:
192,192,59703,1,0,0:0:0:0:
320,192,59703,1,0,0:0:0:0:
448,192,59703,1,0,0:0:0:0:
64,192,59818,1,0,0:0:0:0:
192,192,59818,1,0,0:0:0:0:
320,192,59818,1,0,0:0:0:0:
448,192,59818,1,0,0:0:0:0:
64,192,59934,1,0,0:0:0:0:
64,192,60050,1,0,0:0:0:0:
192,192,60050,1,0,0:0:0:0:
320,192,60050,1,0,0:0:0:0:
320,192,60165,1,0,0:0:0:0:
64,192,60281,1,0,0:0:0:0:
192,192,60281,1,0,0:0:0:0:
320,192,60281,1,0,0:0:0:0:
448,192,60281,1,0,0:0:0:0:
64,192,60396,1,0,0:0:0:0:
192,192,60396,1,0,0:0:0:0:
192,192,60512,1,0,0:0:0:0:
320,192,60512,1,0,0:0:0:0:
448,192,60512,1,0,0:0:0:0:
320,192,60627,1,0,0:0:0:0:
64,192,60743,1,0,0:0:0:0:
192,192,60743,1,0,0:0:0:0:
320,192,60743,1,0,0:0:0:0:
448,192,60743,1,0,0:0:0:0:
192,192,60858,1,0,0:0:0:0:
64,192,60974,1,0,0:0:0:0:
192,192,60974,1,0,0:0:0:0:
320,192,60974,1,0,0:0:0:0:
448,192,60974,1,0,0:0:0:0:
64,192,61090,1,0,0:0:0:0:
64,192,61205,1,0,0:0:0:0:
192,192,61205,1,0,0:0:0:0:
320,192,61205,1,0,0:0:0:0:
448,192,61205,1,0,0:0:0:0:
192,192,61321,1,0,0:0:0:0:
448,192,61321,1,0,0:0:0:0:
320,192,61436,1,0,0:0:0:0:
448,192,61552,1,0,0:0:0:0:
64,192,61667,1,0,0:0:0:0:
192,192,61667,1,0,0:0:0:0:
320,192,61667,1,0,0:0:0:0:
448,192,61667,1,0,0:0:0:0:
64,192,61783,1,0,0:0:0:0:
192,192,61783,1,0,0:0:0:0:
64,192,61899,1,0,0:0:0:0:
192,192,61899,1,0,0:0:0:0:
320,192,61899,1,0,0:0:0:0:
320,192,62014,1,0,0:0:0:0:
448,192,62014,1,0,0:0:0:0:
64,192,62130,1,0,0:0:0:0:
192,192,62130,1,0,0:0:0:0:
320,192,62130,1,0,0:0:0:0:
448,192,62130,1,0,0:0:0:0:
64,192,62245,1,0,0:0:0:0:
320,192,62245,1,0,0:0:0:0:
192,192,62361,1,0,0:0:0:0:
320,192,62361,1,0,0:0:0:0:
448,192,62361,1,0,0:0:0:0:
192,192,62476,1,0,0:0:0:0:
448,192,62476,1,0,0:0:0:0:
64,192,62592,1,0,0:0:0:0:
192,192,62592,1,0,0:0:0:0:
320,192,62592,1,0,0:0:0:0:
448,192,62592,1,0,0:0:0:0:
64,192,62707,1,0,0:0:0:0:
320,192,62707,1,0,0:0:0:0:
64,192,62823,1,0,0:0:0:0:
192,192,62823,1,0,0:0:0:0:
320,192,62823,1,0,0:0:0:0:
448,192,62823,1,0,0:0:0:0:
64,192,62939,1,0,0:0:0:0:
192,192,62939,1,0,0:0:0:0:
448,192,62939,1,0,0:0:0:0:
192,192,63054,1,0,0:0:0:0:
64,192,63170,1,0,0:0:0:0:
320,192,63170,1,0,0:0:0:0:
448,192,63170,1,0,0:0:0:0:
64,192,63285,1,0,0:0:0:0:
192,192,63285,1,0,0:0:0:0:
448,192,63285,1,0,0:0:0:0:
64,192,63401,1,0,0:0:0:0:
192,192,63401,1,0,0:0:0:0:
320,192,63401,1,0,0:0:0:0:
64,192,63516,1,0,0:0:0:0:
192,192,63516,1,0,0:0:0:0:
320,192,63516,1,0,0:0:0:0:
448,192,63516,1,0,0:0:0:0:
64,192,63632,1,0,0:0:0:0:
320,192,63632,1,0,0:0:0:0:
192,192,63748,1,0,0:0:0:0:
320,192,63748,1,0,0:0:0:0:
448,192,63748,1,0,0:0:0:0:
320,192,63863,1,0,0:0:0:0:
64,192,63979,1,0,0:0:0:0:
192,192,63979,1,0,0:0:0:0:
320,192,63979,1,0,0:0:0:0:
448,192,63979,1,0,0:0:0:0:
192,192,64094,1,0,0:0:0:0:
448,192,64094,1,0,0:0:0:0:
64,192,64210,1,0,0:0:0:0:
192,192,64210,1,0,0:0:0:0:
320,192,64210,1,0,0:0:0:0:
64,192,64325,1,0,0:0:0:0:
64,192,64441,1,0,0:0:0:0:
192,192,64441,1,0,0:0:0:0:
320,192,64441,1,0,0:0:0:0:
448,192,64441,1,0,0:0:0:0:
192,192,64556,1,0,0:0:0:0:
448,192,64556,1,0,0:0:0:0:
64,192,64672,1,0,0:0:0:0:
192,192,64672,1,0,0:0:0:0:
320,192,64672,1,0,0:0:0:0:
448,192,64672,1,0,0:0:0:0:
64,192,64788,1,0,0:0:0:0:
320,192,64788,1,0,0:0:0:0:
64,192,64903,1,0,0:0:0:0:
192,192,64903,1,0,0:0:0:0:
320,192,64903,1,0,0:0:0:0:
448,192,64903,1,0,0:0:0:0:
192,192,65019,1,0,0:0:0:0:
448,192,65019,1,0,0:0:0:0:
64,192,65134,1,0,0:0:0:0:
192,192,65134,1,0,0:0:0:0:
320,192,65134,1,0,0:0:0:0:
448,192,65134,1,0,0:0:0:0:
192,192,65250,1,0,0:0:0:0:
320,192,65250,1,0,0:0:0:0:
64,192,65365,1,0,0:0:0:0:
192,192,65365,1,0,0:0:0:0:
320,192,65365,1,0,0:0:0:0:
448,192,65365,1,0,0:0:0:0:
64,192,65481,1,0,0:0:0:0:
448,192,65481,1,0,0:0:0:0:
64,192,65597,1,0,0:0:0:0:
448,192,65597,1,0,0:0:0:0:
192,192,65712,1,0,0:0:0:0:
448,192,65712,1,0,0:0:0:0:
192,192,65828,1,0,0:0:0:0:
320,192,65828,1,0,0:0:0:0:
64,192,65943,1,0,0:0:0:0:
320,192,65943,1,0,0:0:0:0:
64,192,66059,1,0,0:0:0:0:
192,192,66059,1,0,0:0:0:0:
64,192,66174,1,0,0:0:0:0:
192,192,66174,1,0,0:0:0:0:
192,192,66290,1,0,0:0:0:0:
320,192,66290,1,0,0:0:0:0:
448,192,66290,1,0,0:0:0:0:
448,192,66405,1,0,0:0:0:0:
64,192,66521,1,0,0:0:0:0:
192,192,66521,1,0,0:0:0:0:
320,192,66521,1,0,0:0:0:0:
320,192,66637,1,0,0:0:0:0:
64,192,66752,1,0,0:0:0:0:
192,192,66752,1,0,0:0:0:0:
448,192,66752,1,0,0:0:0:0:
192,192,66868,1,0,0:0:0:0:
64,192,66983,1,0,0:0:0:0:
320,192,66983,1,0,0:0:0:0:
448,192,66983,1,0,0:0:0:0:
64,192,67099,1,0,0:0:0:0:
192,192,67214,1,0,0:0:0:0:
320,192,67214,1,0,0:0:0:0:
448,192,67214,1,0,0:0:0:0:
320,192,67330,1,0,0:0:0:0:
64,192,67445,1,0,0:0:0:0:
192,192,67561,1,0,0:0:0:0:
448,192,67561,1,0,0:0:0:0:
192,192,67677,1,0,0:0:0:0:
320,192,67677,1,0,0:0:0:0:
64,192,67792,1,0,0:0:0:0:
320,192,67792,1,0,0:0:0:0:
192,192,67908,1,0,0:0:0:0:
448,192,67908,1,0,0:0:0:0:
192,192,68023,1,0,0:0:0:0:
64,192,68139,1,0,0:0:0:0:
320,192,68139,1,0,0:0:0:0:
448,192,68139,1,0,0:0:0:0:
320,192,68254,1,0,0:0:0:0:
192,192,68370,1,0,0:0:0:0:
320,192,68486,1,0,0:0:0:0:
64,192,68601,1,0,0:0:0:0:
192,192,68601,1,0,0:0:0:0:
448,192,68601,1,0,0:0:0:0:
192,192,68717,1,0,0:0:0:0:
320,192,68832,1,0,0:0:0:0:
192,192,68948,1,0,0:0:0:0:
64,192,69063,1,0,0:0:0:0:
192,192,69063,1,0,0:0:0:0:
320,192,69063,1,0,0:0:0:0:
448,192,69063,1,0,0:0:0:0:
448,192,69179,1,0,0:0:0:0:
320,192,69294,1,0,0:0:0:0:
64,192,69410,1,0,0:0:0:0:
192,192,69410,1,0,0:0:0:0:
192,192,69526,1,0,0:0:0:0:
320,192,69526,1,0,0:0:0:0:
320,192,69641,1,0,0:0:0:0:
448,192,69641,1,0,0:0:0:0:
64,192,69757,1,0,0:0:0:0:
192,192,69757,1,0,0:0:0:0:
320,192,69872,1,0,0:0:0:0:
64,192,69988,1,0,0:0:0:0:
192,192,69988,1,0,0:0:0:0:
448,192,69988,1,0,0:0:0:0:
64,192,70103,1,0,0:0:0:0:
192,192,70219,1,0,0:0:0:0:
320,192,70219,1,0,0:0:0:0:
448,192,70219,1,0,0:0:0:0:
192,192,70335,1,0,0:0:0:0:
64,192,70450,1,0,0:0:0:0:
320,192,70450,1,0,0:0:0:0:
448,192,70450,1,0,0:0:0:0:
320,192,70566,1,0,0:0:0:0:
64,192,70681,1,0,0:0:0:0:
192,192,70681,1,0,0:0:0:0:
448,192,70681,1,0,0:0:0:0:
448,192,70797,1,0,0:0:0:0:
64,192,70912,1,0,0:0:0:0:
192,192,70912,1,0,0:0:0:0:
320,192,70912,1,0,0:0:0:0:
192,192,71028,1,0,0:0:0:0:
64,192,71143,1,0,0:0:0:0:
320,192,71259,1,0,0:0:0:0:
448,192,71259,1,0,0:0:0:0:
192,192,71375,1,0,0:0:0:0:
320,192,71375,1,0,0:0:0:0:
64,192,71490,1,0,0:0:0:0:
192,192,71490,1,0,0:0:0:0:
320,192,71606,1,0,0:0:0:0:
448,192,71606,1,0,0:0:0:0:
320,192,71721,1,0,0:0:0:0:
64,192,71837,1,0,0:0:0:0:
192,192,71837,1,0,0:0:0:0:
448,192,71837,1,0,0:0:0:0:
192,192,71952,1,0,0:0:0:0:
64,192,72068,1,0,0:0:0:0:
320,192,72068,1,0,0:0:0:0:
448,192,72068,1,0,0:0:0:0:
320,192,72184,1,0,0:0:0:0:
64,192,72299,1,0,0:0:0:0:
192,192,72299,1,0,0:0:0:0:
320,192,72299,1,0,0:0:0:0:
448,192,72299,1,0,0:0:0:0:
192,192,72415,1,0,0:0:0:0:
192,192,72530,1,0,0:0:0:0:
192,192,72646,1,0,0:0:0:0:
64,192,72761,1,0,0:0:0:0:
192,192,72761,1,0,0:0:0:0:
320,192,72761,1,0,0:0:0:0:
448,192,72761,1,0,0:0:0:0:
320,192,72877,1,0,0:0:0:0:
192,192,72992,1,0,0:0:0:0:
64,192,73108,1,0,0:0:0:0:
320,192,73108,1,0,0:0:0:0:
192,192,73224,1,0,0:0:0:0:
320,192,73224,1,0,0:0:0:0:
192,192,73339,1,0,0:0:0:0:
448,192,73339,1,0,0:0:0:0:
64,192,73455,1,0,0:0:0:0:
320,192,73455,1,0,0:0:0:0:
320,192,73570,1,0,0:0:0:0:
64,192,73686,1,0,0:0:0:0:
192,192,73686,1,0,0:0:0:0:
448,192,73686,1,0,0:0:0:0:
64,192,73801,1,0,0:0:0:0:
192,192,73917,1,0,0:0:0:0:
320,192,73917,1,0,0:0:0:0:
448,192,73917,1,0,0:0:0:0:
192,192,74033,1,0,0:0:0:0:
64,192,74148,1,0,0:0:0:0:
320,192,74148,1,0,0:0:0:0:
448,192,74148,1,0,0:0:0:0:
320,192,74264,1,0,0:0:0:0:
64,192,74379,1,0,0:0:0:0:
192,192,74379,1,0,0:0:0:0:
448,192,74379,1,0,0:0:0:0:
448,192,74495,1,0,0:0:0:0:
64,192,74610,1,0,0:0:0:0:
192,192,74610,1,0,0:0:0:0:
320,192,74610,1,0,0:0:0:0:
192,192,74726,1,0,0:0:0:0:
448,192,74841,1,0,0:0:0:0:
64,192,74957,1,0,0:0:0:0:
320,192,74957,1,0,0:0:0:0:
192,192,75073,1,0,0:0:0:0:
320,192,75073,1,0,0:0:0:0:
192,192,75188,1,0,0:0:0:0:
448,192,75188,1,0,0:0:0:0:
64,192,75304,1,0,0:0:0:0:
320,192,75304,1,0,0:0:0:0:
320,192,75419,1,0,0:0:0:0:
64,192,75535,1,0,0:0:0:0:
192,192,75535,1,0,0:0:0:0:
448,192,75535,1,0,0:0:0:0:
192,192,75650,1,0,0:0:0:0:
320,192,75766,1,0,0:0:0:0:
192,192,75882,1,0,0:0:0:0:
64,192,75997,1,0,0:0:0:0:
320,192,75997,1,0,0:0:0:0:
448,192,75997,1,0,0:0:0:0:
320,192,76113,1,0,0:0:0:0:
192,192,76228,1,0,0:0:0:0:
320,192,76344,1,0,0:0:0:0:
64,192,76459,1,0,0:0:0:0:
192,192,76459,1,0,0:0:0:0:
320,192,76459,1,0,0:0:0:0:
448,192,76459,1,0,0:0:0:0:
64,192,76575,1,0,0:0:0:0:
192,192,76690,1,0,0:0:0:0:
320,192,76806,1,0,0:0:0:0:
448,192,76806,1,0,0:0:0:0:
192,192,76922,1,0,0:0:0:0:
320,192,76922,1,0,0:0:0:0:
64,192,77037,1,0,0:0:0:0:
192,192,77037,1,0,0:0:0:0:
320,192,77153,1,0,0:0:0:0:
448,192,77153,1,0,0:0:0:0:
192,192,77268,1,0,0:0:0:0:
64,192,77384,1,0,0:0:0:0:
320,192,77384,1,0,0:0:0:0:
448,192,77384,1,0,0:0:0:0:
448,192,77499,1,0,0:0:0:0:
64,192,77615,1,0,0:0:0:0:
192,192,77615,1,0,0:0:0:0:
320,192,77615,1,0,0:0:0:0:
320,192,77731,1,0,0:0:0:0:
64,192,77846,1,0,0:0:0:0:
192,192,77846,1,0,0:0:0:0:
448,192,77846,1,0,0:0:0:0:
192,192,77962,1,0,0:0:0:0:
64,192,78077,1,0,0:0:0:0:
320,192,78077,1,0,0:0:0:0:
448,192,78077,1,0,0:0:0:0:
64,192,78193,1,0,0:0:0:0:
192,192,78308,1,0,0:0:0:0:
320,192,78308,1,0,0:0:0:0:
448,192,78308,1,0,0:0:0:0:
320,192,78424,1,0,0:0:0:0:
448,192,78539,1,0,0:0:0:0:
64,192,78655,1,0,0:0:0:0:
192,192,78655,1,0,0:0:0:0:
192,192,78771,1,0,0:0:0:0:
320,192,78771,1,0,0:0:0:0:
320,192,78886,1,0,0:0:0:0:
448,192,78886,1,0,0:0:0:0:
64,192,79002,1,0,0:0:0:0:
192,192,79002,1,0,0:0:0:0:
192,192,79117,1,0,0:0:0:0:
64,192,79233,1,0,0:0:0:0:
320,192,79233,1,0,0:0:0:0:
448,192,79233,1,0,0:0:0:0:
320,192,79348,1,0,0:0:0:0:
64,192,79464,1,0,0:0:0:0:
192,192,79464,1,0,0:0:0:0:
448,192,79464,1,0,0:0:0:0:
192,192,79580,1,0,0:0:0:0:
64,192,79695,1,0,0:0:0:0:
192,192,79695,1,0,0:0:0:0:
320,192,79695,1,0,0:0:0:0:
448,192,79695,1,0,0:0:0:0:
320,192,79811,1,0,0:0:0:0:
320,192,79926,1,0,0:0:0:0:
320,192,80042,1,0,0:0:0:0:
64,192,80157,1,0,0:0:0:0:
192,192,80157,1,0,0:0:0:0:
448,192,80157,1,0,0:0:0:0:
320,192,80273,1,0,0:0:0:0:
448,192,80388,1,0,0:0:0:0:
64,192,80504,1,0,0:0:0:0:
192,192,80504,1,0,0:0:0:0:
320,192,80504,1,0,0:0:0:0:
448,192,80504,1,0,0:0:0:0:
192,192,80620,1,0,0:0:0:0:
192,192,80735,1,0,0:0:0:0:
64,192,80851,1,0,0:0:0:0:
320,192,80851,1,0,0:0:0:0:
448,192,80851,1,0,0:0:0:0:
64,192,80966,1,0,0:0:0:0:
192,192,81082,1,0,0:0:0:0:
320,192,81082,1,0,0:0:0:0:
448,192,81082,1,0,0:0:0:0:
64,192,81197,1,0,0:0:0:0:
320,192,81313,1,0,0:0:0:0:
64,192,81429,1,0,0:0:0:0:
192,192,81429,1,0,0:0:0:0:
320,192,81429,1,0,0:0:0:0:
448,192,81429,1,0,0:0:0:0:
64,192,81544,1,0,0:0:0:0:
64,192,81660,1,0,0:0:0:0:
192,192,81775,1,0,0:0:0:0:
320,192,81775,1,0,0:0:0:0:
448,192,81775,1,0,0:0:0:0:
192,192,81891,1,0,0:0:0:0:
64,192,82006,1,0,0:0:0:0:
320,192,82006,1,0,0:0:0:0:
448,192,82006,1,0,0:0:0:0:
448,192,82122,1,0,0:0:0:0:
192,192,82237,1,0,0:0:0:0:
320,192,82237,1,0,0:0:0:0:
64,192,82353,1,0,0:0:0:0:
192,192,82353,1,0,0:0:0:0:
64,192,82469,1,0,0:0:0:0:
448,192,82469,1,0,0:0:0:0:
320,192,82584,1,0,0:0:0:0:
448,192,82584,1,0,0:0:0:0:
64,192,82700,1,0,0:0:0:0:
320,192,82700,1,0,0:0:0:0:
64,192,82815,1,0,0:0:0:0:
192,192,82815,1,0,0:0:0:0:
192,192,82931,1,0,0:0:0:0:
320,192,82931,1,0,0:0:0:0:
448,192,82931,1,0,0:0:0:0:
192,192,83046,1,0,0:0:0:0:
64,192,83162,1,0,0:0:0:0:
320,192,83162,1,0,0:0:0:0:
448,192,83162,1,0,0:0:0:0:
320,192,83278,1,0,0:0:0:0:
64,192,83393,1,0,0:0:0:0:
192,192,83393,1,0,0:0:0:0:
448,192,83393,1,0,0:0:0:0:
192,192,83509,1,0,0:0:0:0:
448,192,83509,1,0,0:0:0:0:
64,192,83624,1,0,0:0:0:0:
192,192,83653,1,0,0:0:0:0:
320,192,83682,1,0,0:0:0:0:
448,192,83711,1,0,0:0:0:0:
64,192,83740,1,0,0:0:0:0:
192,192,83769,1,0,0:0:0:0:
320,192,83798,1,0,0:0:0:0:
448,192,83826,1,0,0:0:0:0:
64,192,83855,1,0,0:0:0:0:
192,192,83855,1,0,0:0:0:0:
320,192,83971,1,0,0:0:0:0:
64,192,84086,1,0,0:0:0:0:
448,192,84086,1,0,0:0:0:0:
192,192,84202,1,0,0:0:0:0:
320,192,84318,1,0,0:0:0:0:
448,192,84318,1,0,0:0:0:0:
192,192,84433,1,0,0:0:0:0:
64,192,84549,1,0,0:0:0:0:
448,192,84549,1,0,0:0:0:0:
320,192,84664,1,0,0:0:0:0:
64,192,84780,1,0,0:0:0:0:
192,192,84780,1,0,0:0:0:0:
192,192,84895,1,0,0:0:0:0:
320,192,84895,1,0,0:0:0:0:
448,192,85011,1,0,0:0:0:0:
192,192,85127,1,0,0:0:0:0:
320,192,85127,1,0,0:0:0:0:
64,192,85242,1,0,0:0:0:0:
320,192,85242,1,0,0:0:0:0:
448,192,85358,1,0,0:0:0:0:
64,192,85473,1,0,0:0:0:0:
320,192,85473,1,0,0:0:0:0:
192,192,85589,1,0,0:0:0:0:
64,192,85704,1,0,0:0:0:0:
448,192,85820,1,0,0:0:0:0:
192,192,85935,1,0,0:0:0:0:
320,192,85935,1,0,0:0:0:0:
448,192,86051,1,0,0:0:0:0:
64,192,86167,1,0,0:0:0:0:
192,192,86167,1,0,0:0:0:0:
320,192,86282,1,0,0:0:0:0:
192,192,86398,1,0,0:0:0:0:
64,192,86513,1,0,0:0:0:0:
320,192,86629,1,0,0:0:0:0:
448,192,86629,1,0,0:0:0:0:
192,192,86744,1,0,0:0:0:0:
64,192,86860,1,0,0:0:0:0:
320,192,86976,1,0,0:0:0:0:
448,192,86976,1,0,0:0:0:0:
64,192,87091,1,0,0:0:0:0:
192,192,87091,1,0,0:0:0:0:
320,192,87207,1,0,0:0:0:0:
64,192,87322,1,0,0:0:0:0:
448,192,87322,1,0,0:0:0:0:
320,192,87438,1,0,0:0:0:0:
64,192,87553,1,0,0:0:0:0:
448,192,87553,1,0,0:0:0:0:
192,192,87669,1,0,0:0:0:0:
320,192,87784,1,0,0:0:0:0:
448,192,87784,1,0,0:0:0:0:
192,192,87900,1,0,0:0:0:0:
64,192,88016,1,0,0:0:0:0:
448,192,88016,1,0,0:0:0:0:
192,192,88131,1,0,0:0:0:0:
64,192,88247,1,0,0:0:0:0:
320,192,88247,1,0,0:0:0:0:
192,192,88362,1,0,0:0:0:0:
320,192,88478,1,0,0:0:0:0:
448,192,88478,1,0,0:0:0:0:
192,192,88593,1,0,0:0:0:0:
320,192,88593,1,0,0:0:0:0:
64,192,88709,1,0,0:0:0:0:
192,192,88825,1,0,0:0:0:0:
448,192,88825,1,0,0:0:0:0:
192,192,88940,1,0,0:0:0:0:
320,192,88940,1,0,0:0:0:0:
448,192,89056,1,0,0:0:0:0:
64,192,89171,1,0,0:0:0:0:
192,192,89171,1,0,0:0:0:0:
320,192,89287,1,0,0:0:0:0:
192,192,89402,1,0,0:0:0:0:
64,192,89518,1,0,0:0:0:0:
192,192,89633,1,0,0:0:0:0:
320,192,89633,1,0,0:0:0:0:
64,192,89749,1,0,0:0:0:0:
320,192,89865,1,0,0:0:0:0:
448,192,89865,1,0,0:0:0:0:
192,192,89980,1,0,0:0:0:0:
64,192,90096,1,0,0:0:0:0:
448,192,90096,1,0,0:0:0:0:
320,192,90211,1,0,0:0:0:0:
64,192,90327,1,0,0:0:0:0:
448,192,90327,1,0,0:0:0:0:
64,192,90442,1,0,0:0:0:0:
448,192,90442,1,0,0:0:0:0:
192,192,90558,1,0,0:0:0:0:
64,192,90674,1,0,0:0:0:0:
448,192,90674,1,0,0:0:0:0:
64,192,90789,1,0,0:0:0:0:
320,192,90789,1,0,0:0:0:0:
192,192,90905,1,0,0:0:0:0:
64,192,91020,1,0,0:0:0:0:
448,192,91020,1,0,0:0:0:0:
192,192,91136,1,0,0:0:0:0:
448,192,91136,1,0,0:0:0:0:
64,192,91251,1,0,0:0:0:0:
192,192,91251,1,0,0:0:0:0:
320,192,91251,1,0,0:0:0:0:
320,192,91367,1,0,0:0:0:0:
192,192,91482,1,0,0:0:0:0:
448,192,91482,1,0,0:0:0:0:
320,192,91598,1,0,0:0:0:0:
64,192,91714,1,0,0:0:0:0:
192,192,91714,1,0,0:0:0:0:
320,192,91829,1,0,0:0:0:0:
64,192,91945,1,0,0:0:0:0:
448,192,91945,1,0,0:0:0:0:
192,192,92060,1,0,0:0:0:0:
320,192,92176,1,0,0:0:0:0:
448,192,92176,1,0,0:0:0:0:
192,192,92291,1,0,0:0:0:0:
320,192,92291,1,0,0:0:0:0:
64,192,92407,1,0,0:0:0:0:
192,192,92523,1,0,0:0:0:0:
320,192,92523,1,0,0:0:0:0:
192,192,92638,1,0,0:0:0:0:
448,192,92638,1,0,0:0:0:0:
64,192,92754,1,0,0:0:0:0:
192,192,92869,1,0,0:0:0:0:
448,192,92869,1,0,0:0:0:0:
320,192,92985,1,0,0:0:0:0:
448,192,93100,1,0,0:0:0:0:
64,192,93216,1,0,0:0:0:0:
192,192,93331,1,0,0:0:0:0:
320,192,93331,1,0,0:0:0:0:
64,192,93447,1,0,0:0:0:0:
320,192,93563,1,0,0:0:0:0:
448,192,93563,1,0,0:0:0:0:
192,192,93678,1,0,0:0:0:0:
320,192,93794,1,0,0:0:0:0:
448,192,93909,1,0,0:0:0:0:
64,192,94025,1,0,0:0:0:0:
192,192,94025,1,0,0:0:0:0:
320,192,94140,1,0,0:0:0:0:
448,192,94256,1,0,0:0:0:0:
64,192,94372,1,0,0:0:0:0:
192,192,94372,1,0,0:0:0:0:
320,192,94487,1,0,0:0:0:0:
448,192,94487,1,0,0:0:0:0:
192,192,94603,1,0,0:0:0:0:
64,192,94718,1,0,0:0:0:0:
448,192,94718,1,0,0:0:0:0:
192,192,94834,1,0,0:0:0:0:
64,192,94949,1,0,0:0:0:0:
448,192,94949,1,0,0:0:0:0:
320,192,95065,1,0,0:0:0:0:
64,192,95180,1,0,0:0:0:0:
192,192,95180,1,0,0:0:0:0:
320,192,95296,1,0,0:0:0:0:
64,192,95412,1,0,0:0:0:0:
448,192,95412,1,0,0:0:0:0:
320,192,95527,1,0,0:0:0:0:
192,192,95643,1,0,0:0:0:0:
448,192,95643,1,0,0:0:0:0:
320,192,95758,1,0,0:0:0:0:
64,192,95874,1,0,0:0:0:0:
192,192,95874,1,0,0:0:0:0:
192,192,95989,1,0,0:0:0:0:
320,192,95989,1,0,0:0:0:0:
448,192,96105,1,0,0:0:0:0:
64,192,96221,1,0,0:0:0:0:
320,192,96221,1,0,0:0:0:0:
192,192,96336,1,0,0:0:0:0:
320,192,96336,1,0,0:0:0:0:
64,192,96452,1,0,0:0:0:0:
320,192,96567,1,0,0:0:0:0:
448,192,96567,1,0,0:0:0:0:
192,192,96683,1,0,0:0:0:0:
320,192,96798,1,0,0:0:0:0:
448,192,96914,1,0,0:0:0:0:
192,192,97029,1,0,0:0:0:0:
320,192,97029,1,0,0:0:0:0:
448,192,97145,1,0,0:0:0:0:
64,192,97261,1,0,0:0:0:0:
192,192,97261,1,0,0:0:0:0:
320,192,97376,1,0,0:0:0:0:
64,192,97492,1,0,0:0:0:0:
448,192,97492,1,0,0:0:0:0:
192,192,97607,1,0,0:0:0:0:
64,192,97723,1,0,0:0:0:0:
448,192,97723,1,0,0:0:0:0:
64,192,97838,1,0,0:0:0:0:
320,192,97838,1,0,0:0:0:0:
192,192,97954,1,0,0:0:0:0:
64,192,98069,1,0,0:0:0:0:
448,192,98069,1,0,0:0:0:0:
192,192,98185,1,0,0:0:0:0:
448,192,98185,1,0,0:0:0:0:
320,192,98301,1,0,0:0:0:0:
64,192,98416,1,0,0:0:0:0:
192,192,98416,1,0,0:0:0:0:
448,192,98416,1,0,0:0:0:0:
64,192,98532,1,0,0:0:0:0:
192,192,98532,1,0,0:0:0:0:
448,192,98532,1,0,0:0:0:0:
64,192,98647,1,0,0:0:0:0:
192,192,98647,1,0,0:0:0:0:
320,192,98647,1,0,0:0:0:0:
448,192,98647,1,0,0:0:0:0:
320,192,98763,1,0,0:0:0:0:
192,192,98878,1,0,0:0:0:0:
192,192,98994,1,0,0:0:0:0:
64,192,99110,1,0,0:0:0:0:
320,192,99110,1,0,0:0:0:0:
448,192,99110,1,0,0:0:0:0:
64,192,99225,1,0,0:0:0:0:
192,192,99341,1,0,0:0:0:0:
320,192,99341,1,0,0:0:0:0:
448,192,99341,1,0,0:0:0:0:
448,192,99456,1,0,0:0:0:0:
64,192,99572,1,0,0:0:0:0:
320,192,99572,1,0,0:0:0:0:
192,192,99687,1,0,0:0:0:0:
64,192,99803,1,0,0:0:0:0:
448,192,99803,1,0,0:0:0:0:
320,192,99918,1,0,0:0:0:0:
64,192,100034,1,0,0:0:0:0:
192,192,100034,1,0,0:0:0:0:
320,192,100150,1,0,0:0:0:0:
192,192,100265,1,0,0:0:0:0:
320,192,100265,1,0,0:0:0:0:
448,192,100265,1,0,0:0:0:0:
192,192,100381,1,0,0:0:0:0:
64,192,100496,1,0,0:0:0:0:
320,192,100496,1,0,0:0:0:0:
448,192,100496,1,0,0:0:0:0:
192,192,100612,1,0,0:0:0:0:
320,192,100727,1,0,0:0:0:0:
320,192,100843,1,0,0:0:0:0:
64,192,100959,1,0,0:0:0:0:
192,192,100959,1,0,0:0:0:0:
448,192,100959,1,0,0:0:0:0:
192,192,101074,1,0,0:0:0:0:
64,192,101190,1,0,0:0:0:0:
320,192,101190,1,0,0:0:0:0:
448,192,101190,1,0,0:0:0:0:
320,192,101305,1,0,0:0:0:0:
64,192,101421,1,0,0:0:0:0:
192,192,101421,1,0,0:0:0:0:
448,192,101536,1,0,0:0:0:0:
192,192,101652,1,0,0:0:0:0:
320,192,101652,1,0,0:0:0:0:
64,192,101767,1,0,0:0:0:0:
192,192,101883,1,0,0:0:0:0:
448,192,101883,1,0,0:0:0:0:
320,192,101999,1,0,0:0:0:0:
192,192,102114,1,0,0:0:0:0:
320,192,102114,1,0,0:0:0:0:
448,192,102114,1,0,0:0:0:0:
448,192,102230,1,0,0:0:0:0:
64,192,102345,1,0,0:0:0:0:
192,192,102345,1,0,0:0:0:0:
320,192,102345,1,0,0:0:0:0:
320,192,102461,1,0,0:0:0:0:
192,192,102576,1,0,0:0:0:0:
192,192,102692,1,0,0:0:0:0:
64,192,102808,1,0,0:0:0:0:
320,192,102808,1,0,0:0:0:0:
448,192,102808,1,0,0:0:0:0:
64,192,102923,1,0,0:0:0:0:
192,192,103039,1,0,0:0:0:0:
320,192,103039,1,0,0:0:0:0:
448,192,103039,1,0,0:0:0:0:
448,192,103154,1,0,0:0:0:0:
64,192,103270,1,0,0:0:0:0:
192,192,103270,1,0,0:0:0:0:
320,192,103385,1,0,0:0:0:0:
192,192,103501,1,0,0:0:0:0:
448,192,103501,1,0,0:0:0:0:
64,192,103616,1,0,0:0:0:0:
320,192,103732,1,0,0:0:0:0:
448,192,103732,1,0,0:0:0:0:
192,192,103848,1,0,0:0:0:0:
64,192,103963,1,0,0:0:0:0:
192,192,103963,1,0,0:0:0:0:
320,192,103963,1,0,0:0:0:0:
320,192,104079,1,0,0:0:0:0:
64,192,104194,1,0,0:0:0:0:
192,192,104194,1,0,0:0:0:0:
448,192,104194,1,0,0:0:0:0:
320,192,104310,1,0,0:0:0:0:
64,192,104425,1,0,0:0:0:0:
192,192,104425,1,0,0:0:0:0:
64,192,104541,1,0,0:0:0:0:
192,192,104657,1,0,0:0:0:0:
320,192,104657,1,0,0:0:0:0:
448,192,104657,1,0,0:0:0:0:
448,192,104772,1,0,0:0:0:0:
64,192,104888,1,0,0:0:0:0:
192,192,104888,1,0,0:0:0:0:
320,192,104888,1,0,0:0:0:0:
192,192,105003,1,0,0:0:0:0:
320,192,105003,1,0,0:0:0:0:
448,192,105003,1,0,0:0:0:0:
64,192,105119,1,0,0:0:0:0:
320,192,105119,1,0,0:0:0:0:
192,192,105234,1,0,0:0:0:0:
64,192,105350,1,0,0:0:0:0:
448,192,105350,1,0,0:0:0:0:
320,192,105465,1,0,0:0:0:0:
64,192,105581,1,0,0:0:0:0:
192,192,105581,1,0,0:0:0:0:
448,192,105697,1,0,0:0:0:0:
64,192,105812,1,0,0:0:0:0:
320,192,105812,1,0,0:0:0:0:
192,192,105928,1,0,0:0:0:0:
64,192,106043,1,0,0:0:0:0:
192,192,106043,1,0,0:0:0:0:
320,192,106043,1,0,0:0:0:0:
448,192,106043,1,0,0:0:0:0:
448,192,106159,1,0,0:0:0:0:
448,192,106274,1,0,0:0:0:0:
448,192,106390,1,0,0:0:0:0:
64,192,106506,1,0,0:0:0:0:
192,192,106506,1,0,0:0:0:0:
320,192,106506,1,0,0:0:0:0:
64,192,106621,1,0,0:0:0:0:
192,192,106737,1,0,0:0:0:0:
320,192,106737,1,0,0:0:0:0:
448,192,106737,1,0,0:0:0:0:
192,192,106852,1,0,0:0:0:0:
320,192,106968,1,0,0:0:0:0:
448,192,106968,1,0,0:0:0:0:
192,192,107083,1,0,0:0:0:0:
64,192,107199,1,0,0:0:0:0:
448,192,107199,1,0,0:0:0:0:
320,192,107314,1,0,0:0:0:0:
64,192,107430,1,0,0:0:0:0:
192,192,107430,1,0,0:0:0:0:
320,192,107546,1,0,0:0:0:0:
64,192,107661,1,0,0:0:0:0:
320,192,107661,1,0,0:0:0:0:
448,192,107661,1,0,0:0:0:0:
192,192,107777,1,0,0:0:0:0:
64,192,107892,1,0,0:0:0:0:
192,192,107892,1,0,0:0:0:0:
448,192,107892,1,0,0:0:0:0:
320,192,108008,1,0,0:0:0:0:
192,192,108123,1,0,0:0:0:0:
192,192,108239,1,0,0:0:0:0:
64,192,108355,1,0,0:0:0:0:
320,192,108355,1,0,0:0:0:0:
448,192,108355,1,0,0:0:0:0:
64,192,108470,1,0,0:0:0:0:
192,192,108586,1,0,0:0:0:0:
320,192,108586,1,0,0:0:0:0:
448,192,108586,1,0,0:0:0:0:
320,192,108701,1,0,0:0:0:0:
192,192,108817,1,0,0:0:0:0:
448,192,108817,1,0,0:0:0:0:
64,192,108932,1,0,0:0:0:0:
192,192,109048,1,0,0:0:0:0:
320,192,109048,1,0,0:0:0:0:
448,192,109163,1,0,0:0:0:0:
64,192,109279,1,0,0:0:0:0:
192,192,109279,1,0,0:0:0:0:
320,192,109395,1,0,0:0:0:0:
448,192,109395,1,0,0:0:0:0:
320,192,109510,1,0,0:0:0:0:
64,192,109626,1,0,0:0:0:0:
64,192,109741,1,0,0:0:0:0:
192,192,109741,1,0,0:0:0:0:
320,192,109741,1,0,0:0:0:0:
448,192,109741,1,0,0:0:0:0:
192,192,109857,1,0,0:0:0:0:
320,192,109857,1,0,0:0:0:0:
448,192,109972,1,0,0:0:0:0:
64,192,110088,1,0,0:0:0:0:
192,192,110088,1,0,0:0:0:0:
320,192,110146,1,0,0:0:0:0:
448,192,110146,1,0,0:0:0:0:
64,192,110204,1,0,0:0:0:0:
192,192,110204,1,0,0:0:0:0:
320,192,110261,1,0,0:0:0:0:
448,192,110261,1,0,0:0:0:0:
64,192,110319,1,0,0:0:0:0:
192,192,110319,1,0,0:0:0:0:
320,192,110377,1,0,0:0:0:0:
448,192,110377,1,0,0:0:0:0:
64,192,110435,1,0,0:0:0:0:
192,192,110435,1,0,0:0:0:0:
320,192,110550,1,0,0:0:0:0:
64,192,110666,1,0,0:0:0:0:
192,192,110666,1,0,0:0:0:0:
320,192,110666,1,0,0:0:0:0:
448,192,110666,1,0,0:0:0:0:
192,192,110781,1,0,0:0:0:0:
448,192,110781,1,0,0:0:0:0:
64,192,110897,1,0,0:0:0:0:
320,192,111012,1,0,0:0:0:0:
448,192,111012,1,0,0:0:0:0:
64,192,111070,1,0,0:0:0:0:
192,192,111070,1,0,0:0:0:0:
320,192,111128,1,0,0:0:0:0:
448,192,111128,1,0,0:0:0:0:
64,192,111186,1,0,0:0:0:0:
192,192,111186,1,0,0:0:0:0:
320,192,111244,1,0,0:0:0:0:
448,192,111244,1,0,0:0:0:0:
64,192,111301,1,0,0:0:0:0:
192,192,111301,1,0,0:0:0:0:
320,192,111359,1,0,0:0:0:0:
448,192,111359,1,0,0:0:0:0:
192,192,111475,1,0,0:0:0:0:
64,192,111590,1,0,0:0:0:0:
192,192,111590,1,0,0:0:0:0:
320,192,111590,1,0,0:0:0:0:
448,192,111590,1,0,0:0:0:0:
64,192,111706,1,0,0:0:0:0:
448,192,111706,1,0,0:0:0:0:
320,192,111821,1,0,0:0:0:0:
64,192,111937,1,0,0:0:0:0:
192,192,111937,1,0,0:0:0:0:
320,192,111995,1,0,0:0:0:0:
448,192,111995,1,0,0:0:0:0:
64,192,112053,1,0,0:0:0:0:
192,192,112053,1,0,0:0:0:0:
320,192,112110,1,0,0:0:0:0:
448,192,112110,1,0,0:0:0:0:
64,192,112168,1,0,0:0:0:0:
192,192,112168,1,0,0:0:0:0:
320,192,112226,1,0,0:0:0:0:
448,192,112226,1,0,0:0:0:0:
64,192,112284,1,0,0:0:0:0:
192,192,112284,1,0,0:0:0:0:
320,192,112399,1,0,0:0:0:0:
64,192,112515,1,0,0:0:0:0:
192,192,112515,1,0,0:0:0:0:
320,192,112515,1,0,0:0:0:0:
448,192,112515,1,0,0:0:0:0:
192,192,112630,1,0,0:0:0:0:
448,192,112630,1,0,0:0:0:0:
64,192,112746,1,0,0:0:0:0:
320,192,112746,1,0,0:0:0:0:
448,192,112746,1,0,0:0:0:0:
64,192,112861,1,0,0:0:0:0:
192,192,112861,1,0,0:0:0:0:
320,192,112977,1,0,0:0:0:0:
448,192,112977,1,0,0:0:0:0:
64,192,113035,1,0,0:0:0:0:
192,192,113035,1,0,0:0:0:0:
320,192,113093,1,0,0:0:0:0:
448,192,113093,1,0,0:0:0:0:
64,192,113150,1,0,0:0:0:0:
192,192,113150,1,0,0:0:0:0:
320,192,113208,1,0,0:0:0:0:
448,192,113208,1,0,0:0:0:0:
192,192,113324,1,0,0:0:0:0:
64,192,113439,1,0,0:0:0:0:
192,192,113439,1,0,0:0:0:0:
320,192,113439,1,0,0:0:0:0:
448,192,113439,1,0,0:0:0:0:
64,192,113555,1,0,0:0:0:0:
192,192,113670,1,0,0:0:0:0:
320,192,113670,1,0,0:0:0:0:
448,192,113670,1,0,0:0:0:0:
448,192,113786,1,0,0:0:0:0:
64,192,113902,1,0,0:0:0:0:
192,192,113902,1,0,0:0:0:0:
320,192,113902,1,0,0:0:0:0:
448,192,113902,1,0,0:0:0:0:
192,192,114017,1,0,0:0:0:0:
64,192,114133,1,0,0:0:0:0:
192,192,114133,1,0,0:0:0:0:
320,192,114133,1,0,0:0:0:0:
320,192,114248,1,0,0:0:0:0:
64,192,114364,1,0,0:0:0:0:
192,192,114364,1,0,0:0:0:0:
320,192,114364,1,0,0:0:0:0:
448,192,114364,1,0,0:0:0:0:
64,192,114479,1,0,0:0:0:0:
192,192,114479,1,0,0:0:0:0:
64,192,114595,1,0,0:0:0:0:
192,192,114595,1,0,0:0:0:0:
320,192,114595,1,0,0:0:0:0:
448,192,114595,1,0,0:0:0:0:
64,192,114710,1,0,0:0:0:0:
192,192,114710,1,0,0:0:0:0:
320,192,114710,1,0,0:0:0:0:
448,192,114710,1,0,0:0:0:0:
448,192,114826,1,0,0:0:0:0:
64,192,114942,1,0,0:0:0:0:
192,192,114942,1,0,0:0:0:0:
320,192,114942,1,0,0:0:0:0:
64,192,115057,1,0,0:0:0:0:
192,192,115057,1,0,0:0:0:0:
448,192,115057,1,0,0:0:0:0:
192,192,115173,1,0,0:0:0:0:
320,192,115173,1,0,0:0:0:0:
448,192,115173,1,0,0:0:0:0:
64,192,115288,1,0,0:0:0:0:
192,192,115288,1,0,0:0:0:0:
320,192,115288,1,0,0:0:0:0:
448,192,115288,1,0,0:0:0:0:
64,192,115404,1,0,0:0:0:0:
320,192,115404,1,0,0:0:0:0:
64,192,115519,1,0,0:0:0:0:
192,192,115519,1,0,0:0:0:0:
448,192,115519,1,0,0:0:0:0:
448,192,115635,1,0,0:0:0:0:
64,192,115751,1,0,0:0:0:0:
192,192,115751,1,0,0:0:0:0:
320,192,115751,1,0,0:0:0:0:
448,192,115751,1,0,0:0:0:0:
192,192,115866,1,0,0:0:0:0:
320,192,115866,1,0,0:0:0:0:
64,192,115982,1,0,0:0:0:0:
320,192,115982,1,0,0:0:0:0:
448,192,115982,1,0,0:0:0:0:
64,192,116097,1,0,0:0:0:0:
64,192,116213,1,0,0:0:0:0:
192,192,116213,1,0,0:0:0:0:
320,192,116213,1,0,0:0:0:0:
448,192,116213,1,0,0:0:0:0:
320,192,116328,1,0,0:0:0:0:
64,192,116444,1,0,0:0:0:0:
192,192,116444,1,0,0:0:0:0:
320,192,116444,1,0,0:0:0:0:
448,192,116444,1,0,0:0:0:0:
320,192,116559,1,0,0:0:0:0:
64,192,116675,1,0,0:0:0:0:
192,192,116675,1,0,0:0:0:0:
320,192,116675,1,0,0:0:0:0:
448,192,116675,1,0,0:0:0:0:
64,192,116791,1,0,0:0:0:0:
448,192,116791,1,0,0:0:0:0:
320,192,116906,1,0,0:0:0:0:
192,192,117022,1,0,0:0:0:0:
64,192,117137,1,0,0:0:0:0:
192,192,117137,1,0,0:0:0:0:
320,192,117137,1,0,0:0:0:0:
448,192,117137,1,0,0:0:0:0:
320,192,117253,1,0,0:0:0:0:
448,192,117253,1,0,0:0:0:0:
64,192,117368,1,0,0:0:0:0:
192,192,117368,1,0,0:0:0:0:
448,192,117368,1,0,0:0:0:0:
64,192,117484,1,0,0:0:0:0:
192,192,117484,1,0,0:0:0:0:
64,192,117600,1,0,0:0:0:0:
192,192,117600,1,0,0:0:0:0:
320,192,117600,1,0,0:0:0:0:
448,192,117600,1,0,0:0:0:0:
192,192,117715,1,0,0:0:0:0:
448,192,117715,1,0,0:0:0:0:
64,192,117831,1,0,0:0:0:0:
320,192,117831,1,0,0:0:0:0:
448,192,117831,1,0,0:0:0:0:
64,192,117946,1,0,0:0:0:0:
320,192,117946,1,0,0:0:0:0:
64,192,118062,1,0,0:0:0:0:
192,192,118062,1,0,0:0:0:0:
320,192,118062,1,0,0:0:0:0:
448,192,118062,1,0,0:0:0:0:
64,192,118177,1,0,0:0:0:0:
64,192,118293,1,0,0:0:0:0:
192,192,118293,1,0,0:0:0:0:
320,192,118293,1,0,0:0:0:0:
448,192,118293,1,0,0:0:0:0:
192,192,118408,1,0,0:0:0:0:
320,192,118408,1,0,0:0:0:0:
448,192,118408,1,0,0:0:0:0:
64,192,118524,1,0,0:0:0:0:
448,192,118524,1,0,0:0:0:0:
64,192,118640,1,0,0:0:0:0:
192,192,118640,1,0,0:0:0:0:
320,192,118640,1,0,0:0:0:0:
64,192,118755,1,0,0:0:0:0:
192,192,118755,1,0,0:0:0:0:
320,192,118755,1,0,0:0:0:0:
448,192,118755,1,0,0:0:0:0:
320,192,118871,1,0,0:0:0:0:
448,192,118871,1,0,0:0:0:0:
64,192,118986,1,0,0:0:0:0:
192,192,118986,1,0,0:0:0:0:
320,192,118986,1,0,0:0:0:0:
448,192,118986,1,0,0:0:0:0:
64,192,119102,1,0,0:0:0:0:
192,192,119102,1,0,0:0:0:0:
192,192,119217,1,0,0:0:0:0:
320,192,119217,1,0,0:0:0:0:
448,192,119217,1,0,0:0:0:0:
320,192,119333,1,0,0:0:0:0:
448,192,119333,1,0,0:0:0:0:
64,192,119449,1,0,0:0:0:0:
192,192,119449,1,0,0:0:0:0:
320,192,119449,1,0,0:0:0:0:
448,192,119449,1,0,0:0:0:0:
64,192,119564,1,0,0:0:0:0:
320,192,119564,1,0,0:0:0:0:
64,192,119680,1,0,0:0:0:0:
192,192,119680,1,0,0:0:0:0:
320,192,119680,1,0,0:0:0:0:
192,192,119795,1,0,0:0:0:0:
448,192,119795,1,0,0:0:0:0:
64,192,119911,1,0,0:0:0:0:
192,192,119911,1,0,0:0:0:0:
320,192,119911,1,0,0:0:0:0:
448,192,119911,1,0,0:0:0:0:
192,192,120026,1,0,0:0:0:0:
320,192,120026,1,0,0:0:0:0:
64,192,120142,1,0,0:0:0:0:
192,192,120142,1,0,0:0:0:0:
320,192,120142,1,0,0:0:0:0:
448,192,120142,1,0,0:0:0:0:
64,192,120257,1,0,0:0:0:0:
448,192,120257,1,0,0:0:0:0:
64,192,120373,1,0,0:0:0:0:
192,192,120373,1,0,0:0:0:0:
320,192,120373,1,0,0:0:0:0:
448,192,120373,1,0,0:0:0:0:
192,192,120489,1,0,0:0:0:0:
320,192,120489,1,0,0:0:0:0:
64,192,120604,1,0,0:0:0:0:
192,192,120720,1,0,0:0:0:0:
64,192,120835,1,0,0:0:0:0:
192,192,120835,1,0,0:0:0:0:
320,192,120835,1,0,0:0:0:0:
448,192,120835,1,0,0:0:0:0:
320,192,120951,1,0,0:0:0:0:
64,192,121066,1,0,0:0:0:0:
192,192,121066,1,0,0:0:0:0:
448,192,121066,1,0,0:0:0:0:
64,192,121182,1,0,0:0:0:0:
64,192,121298,1,0,0:0:0:0:
192,192,121298,1,0,0:0:0:0:
320,192,121298,1,0,0:0:0:0:
448,192,121298,1,0,0:0:0:0:
192,192,121413,1,0,0:0:0:0:
64,192,121529,1,0,0:0:0:0:
320,192,121529,1,0,0:0:0:0:
448,192,121529,1,0,0:0:0:0:
448,192,121644,1,0,0:0:0:0:
64,192,121760,1,0,0:0:0:0:
192,192,121760,1,0,0:0:0:0:
320,192,121760,1,0,0:0:0:0:
448,192,121760,1,0,0:0:0:0:
320,192,121875,1,0,0:0:0:0:
64,192,121991,1,0,0:0:0:0:
192,192,121991,1,0,0:0:0:0:
320,192,121991,1,0,0:0:0:0:
448,192,121991,1,0,0:0:0:0:
64,192,122106,1,0,0:0:0:0:
192,192,122106,1,0,0:0:0:0:
320,192,122106,1,0,0:0:0:0:
448,192,122106,1,0,0:0:0:0:
192,192,122222,1,0,0:0:0:0:
64,192,122338,1,0,0:0:0:0:
320,192,122338,1,0,0:0:0:0:
448,192,122338,1,0,0:0:0:0:
64,192,122453,1,0,0:0:0:0:
192,192,122453,1,0,0:0:0:0:
448,192,122453,1,0,0:0:0:0:
64,192,122569,1,0,0:0:0:0:
192,192,122569,1,0,0:0:0:0:
320,192,122569,1,0,0:0:0:0:
64,192,122684,1,0,0:0:0:0:
192,192,122684,1,0,0:0:0:0:
320,192,122684,1,0,0:0:0:0:
448,192,122684,1,0,0:0:0:0:
448,192,122800,1,0,0:0:0:0:
192,192,122915,1,0,0:0:0:0:
320,192,122915,1,0,0:0:0:0:
448,192,122915,1,0,0:0:0:0:
192,192,123031,1,0,0:0:0:0:
64,192,123147,1,0,0:0:0:0:
192,192,123147,1,0,0:0:0:0:
320,192,123147,1,0,0:0:0:0:
448,192,123147,1,0,0:0:0:0:
320,192,123262,1,0,0:0:0:0:
448,192,123262,1,0,0:0:0:0:
64,192,123378,1,0,0:0:0:0:
192,192,123378,1,0,0:0:0:0:
320,192,123378,1,0,0:0:0:0:
192,192,123493,1,0,0:0:0:0:
64,192,123609,1,0,0:0:0:0:
192,192,123609,1,0,0:0:0:0:
320,192,123609,1,0,0:0:0:0:
448,192,123609,1,0,0:0:0:0:
320,192,123724,1,0,0:0:0:0:
64,192,123840,1,0,0:0:0:0:
192,192,123840,1,0,0:0:0:0:
320,192,123840,1,0,0:0:0:0:
448,192,123840,1,0,0:0:0:0:
448,192,123955,1,0,0:0:0:0:
64,192,124071,1,0,0:0:0:0:
192,192,124071,1,0,0:0:0:0:
320,192,124071,1,0,0:0:0:0:
448,192,124071,1,0,0:0:0:0:
64,192,124187,1,0,0:0:0:0:
320,192,124187,1,0,0:0:0:0:
192,192,124302,1,0,0:0:0:0:
64,192,124418,1,0,0:0:0:0:
64,192,124533,1,0,0:0:0:0:
192,192,124533,1,0,0:0:0:0:
320,192,124533,1,0,0:0:0:0:
448,192,124533,1,0,0:0:0:0:
320,192,124649,1,0,0:0:0:0:
448,192,124649,1,0,0:0:0:0:
192,192,124764,1,0,0:0:0:0:
320,192,124764,1,0,0:0:0:0:
448,192,124764,1,0,0:0:0:0:
64,192,124880,1,0,0:0:0:0:
192,192,124880,1,0,0:0:0:0:
64,192,124996,1,0,0:0:0:0:
192,192,124996,1,0,0:0:0:0:
320,192,124996,1,0,0:0:0:0:
448,192,124996,1,0,0:0:0:0:
192,192,125111,1,0,0:0:0:0:
448,192,125111,1,0,0:0:0:0:
64,192,125227,1,0,0:0:0:0:
192,192,125227,1,0,0:0:0:0:
320,192,125227,1,0,0:0:0:0:
64,192,125342,1,0,0:0:0:0:
320,192,125342,1,0,0:0:0:0:
64,192,125458,1,0,0:0:0:0:
192,192,125458,1,0,0:0:0:0:
320,192,125458,1,0,0:0:0:0:
448,192,125458,1,0,0:0:0:0:
192,192,125573,1,0,0:0:0:0:
448,192,125573,1,0,0:0:0:0:
64,192,125689,1,0,0:0:0:0:
192,192,125689,1,0,0:0:0:0:
320,192,125689,1,0,0:0:0:0:
448,192,125689,1,0,0:0:0:0:
64,192,125804,1,0,0:0:0:0:
320,192,125804,1,0,0:0:0:0:
448,192,125804,1,0,0:0:0:0:
320,192,125920,1,0,0:0:0:0:
64,192,126036,1,0,0:0:0:0:
192,192,126036,1,0,0:0:0:0:
448,192,126036,1,0,0:0:0:0:
64,192,126151,1,0,0:0:0:0:
320,192,126151,1,0,0:0:0:0:
448,192,126151,1,0,0:0:0:0:
192,192,126267,1,0,0:0:0:0:
320,192,126267,1,0,0:0:0:0:
448,192,126267,1,0,0:0:0:0:
64,192,126382,1,0,0:0:0:0:
192,192,126382,1,0,0:0:0:0:
320,192,126382,1,0,0:0:0:0:
448,192,126382,1,0,0:0:0:0:
192,192,126498,1,0,0:0:0:0:
448,192,126498,1,0,0:0:0:0:
64,192,126613,1,0,0:0:0:0:
192,192,126613,1,0,0:0:0:0:
320,192,126613,1,0,0:0:0:0:
192,192,126729,1,0,0:0:0:0:
64,192,126845,1,0,0:0:0:0:
192,192,126845,1,0,0:0:0:0:
320,192,126845,1,0,0:0:0:0:
448,192,126845,1,0,0:0:0:0:
64,192,126960,1,0,0:0:0:0:
320,192,126960,1,0,0:0:0:0:
192,192,127076,1,0,0:0:0:0:
320,192,127076,1,0,0:0:0:0:
448,192,127076,1,0,0:0:0:0:
448,192,127191,1,0,0:0:0:0:
64,192,127307,1,0,0:0:0:0:
192,192,127307,1,0,0:0:0:0:
320,192,127307,1,0,0:0:0:0:
448,192,127307,1,0,0:0:0:0:
64,192,127422,1,0,0:0:0:0:
320,192,127422,1,0,0:0:0:0:
64,192,127538,1,0,0:0:0:0:
192,192,127538,1,0,0:0:0:0:
320,192,127538,1,0,0:0:0:0:
448,192,127538,1,0,0:0:0:0:
192,192,127653,1,0,0:0:0:0:
448,192,127653,1,0,0:0:0:0:
64,192,127769,1,0,0:0:0:0:
192,192,127769,1,0,0:0:0:0:
320,192,127769,1,0,0:0:0:0:
448,192,127769,1,0,0:0:0:0:
64,192,127885,1,0,0:0:0:0:
320,192,127885,1,0,0:0:0:0:
64,192,128000,1,0,0:0:0:0:
192,192,128000,1,0,0:0:0:0:
320,192,128000,1,0,0:0:0:0:
448,192,128000,1,0,0:0:0:0:
192,192,128116,1,0,0:0:0:0:
320,192,128116,1,0,0:0:0:0:
64,192,128231,1,0,0:0:0:0:
192,192,128231,1,0,0:0:0:0:
320,192,128231,1,0,0:0:0:0:
448,192,128231,1,0,0:0:0:0:
