osu file format v14

[General]
AudioFilename: audio.mp3
AudioLeadIn: 0
PreviewTime: 25573
Countdown: 1
SampleSet: Normal
StackLeniency: 0.7
Mode: 0
LetterboxInBreaks: 0
WidescreenStoryboard: 0

[Editor]
DistanceSpacing: 1.5
BeatDivisor: 4
GridSize: 4
TimelineZoom: 2.5

[Metadata]
Title:DIOVANIA
TitleUnicode:DIOVANIA
Artist:tosochika
ArtistUnicode:とそちか
Creator:Morbon
Version:Uselessness
Source:ニコニコ動画
Tags:ジョジョの奇妙な冒険 JoJo's Bizarre Adventure Castlevania The Silence of the Daylight
BeatmapID:1351225
BeatmapSetID:636911

[Difficulty]
HPDrainRate:4
CircleSize:4
OverallDifficulty:8.9
ApproachRate:10
SliderMultiplier:2
SliderTickRate:1

[Events]
//Background and Video events
0,0,"STANDOPOWAH.png",0,0
//Break Periods
2,67194,67876
//Storyboard Layer 0 (Background)
//Storyboard Layer 1 (Fail)
//Storyboard Layer 2 (Pass)
//Storyboard Layer 3 (Foreground)
//Storyboard Sound Samples

[TimingPoints]
17183,266.370699223085,4,1,0,100,1,0
19313,-50,4,1,0,100,0,0
19846,-100,4,1,0,100,0,0
25706,-66.6666666666667,4,1,0,100,0,1
34230,-100,4,1,0,100,0,0
43820,-50,4,1,0,100,0,0
44485,-100,4,1,0,100,0,0
51278,-66.6666666666667,4,1,0,100,0,1
59802,-100,4,1,0,100,0,0

[Colours]
Combo1 : 168,81,255
Combo2 : 0,255,0
Combo3 : 255,255,0

[HitObjects]
256,192,12922,12,0,17051,0:0:0:0:
224,64,17183,5,0,0:0:0:0:
264,296,17316,1,0,0:0:0:0:
106,30,17449,2,0,P|100:79|112:128,1,100
348,38,17715,1,0,0:0:0:0:
441,236,17848,1,0,0:0:0:0:
494,91,17981,1,0,0:0:0:0:
296,184,18115,1,0,0:0:0:0:
88,164,18248,6,0,B|4:168|4:168|72:248,1,150
260,344,18514,2,0,B|344:340|344:340|276:260,1,150
260,108,18781,2,0,P|324:104|364:132,1,100
160,288,19047,1,0,0:0:0:0:
128,32,19180,1,0,0:0:0:0:
296,156,19313,22,0,B|328:92|328:92|288:72|288:72|376:116,1,200
428,172,19580,2,0,B|424:224|424:224|468:192|468:192|476:240|476:240|516:208,1,200
296,296,19846,1,0,0:0:0:0:
120,324,19979,1,0,0:0:0:0:
36,124,20113,2,0,P|24:176|28:232,1,100
394,306,20379,6,0,P|406:254|402:198,1,100
24,300,20645,2,0,P|68:320|136:320,1,100
328,80,20912,2,0,P|284:60|216:60,1,100
296,312,21178,1,0,0:0:0:0:
474,340,21311,1,0,0:0:0:0:
56,336,21444,22,0,L|36:228,1,100
128,184,21711,2,0,L|136:80,1,100
24,128,21977,1,0,0:0:0:0:
280,224,22110,1,0,0:0:0:0:
216,32,22244,1,0,0:0:0:0:
152,288,22377,1,0,0:0:0:0:
376,68,22510,6,0,B|396:44|396:44|428:52|472:44,1,100
280,224,22776,1,0,0:0:0:0:
216,32,22909,1,0,0:0:0:0:
152,288,23043,22,0,B|132:312|132:312|100:304|56:312,1,100
128,64,23309,1,0,0:0:0:0:
352,160,23442,1,0,0:0:0:0:
28,200,23575,6,0,B|8:144|8:144|16:60|16:60|4:0,1,200
272,216,23975,1,0,0:0:0:0:
152,336,24108,2,0,P|132:284|136:236,1,100
359,335,24375,2,0,P|379:289|377:240,1,100
64,352,24641,21,0,0:0:0:0:
480,224,24774,1,0,0:0:0:0:
32,224,24907,1,0,0:0:0:0:
448,352,25040,1,0,0:0:0:0:
0,296,25174,5,0,0:0:0:0:
512,296,25307,1,0,0:0:0:0:
8,140,25440,1,0,0:0:0:0:
504,140,25573,1,0,0:0:0:0:
96,164,25706,21,0,0:0:0:0:
212,96,25840,1,0,0:0:0:0:
96,28,25973,1,0,0:0:0:0:
372,260,26106,5,0,0:0:0:0:
256,192,26240,1,0,0:0:0:0:
372,124,26373,1,0,0:0:0:0:
32,96,26505,21,0,0:0:0:0:
448,192,26639,1,0,0:0:0:0:
112,296,26772,5,0,0:0:0:0:
256,220,26906,1,0,0:0:0:0:
112,136,27039,1,0,0:0:0:0:
464,384,27172,21,0,0:0:0:0:
312,300,27306,1,0,0:0:0:0:
464,212,27439,1,0,0:0:0:0:
0,220,27571,5,0,0:0:0:0:
512,296,27704,1,0,0:0:0:0:
68,348,27837,21,0,0:0:0:0:
256,220,27971,1,0,0:0:0:0:
68,92,28104,1,0,0:0:0:0:
336,84,28237,5,0,0:0:0:0:
148,212,28371,1,0,0:0:0:0:
336,340,28504,1,0,0:0:0:0:
32,288,28636,21,0,0:0:0:0:
480,192,28770,1,0,0:0:0:0:
112,60,28903,6,0,L|164:68,1,50.0000019073487
144,196,29036,2,0,L|204:192,1,50.0000019073487
244,52,29169,22,0,L|312:64,1,50.0000019073487
272,212,29302,2,0,L|332:204,1,50
368,40,29436,6,0,L|428:48,1,50
396,224,29569,2,0,L|456:216,1,50
512,28,29702,22,0,P|560:136|480:248,1,225.000008583069
512,352,29968,5,0,0:0:0:0:
288,288,30101,1,0,0:0:0:0:
452,136,30235,1,0,0:0:0:0:
416,352,30368,21,0,0:0:0:0:
192,288,30501,1,0,0:0:0:0:
356,136,30635,1,0,0:0:0:0:
320,352,30767,5,0,0:0:0:0:
224,32,30901,1,0,0:0:0:0:
448,32,31034,21,0,0:0:0:0:
508,248,31168,1,0,0:0:0:0:
284,184,31301,1,0,0:0:0:0:
352,64,31433,5,0,0:0:0:0:
412,280,31567,1,0,0:0:0:0:
188,216,31700,1,0,0:0:0:0:
512,200,31833,21,0,0:0:0:0:
96,32,31966,1,0,0:0:0:0:
312,312,32099,5,0,0:0:0:0:
90,346,32232,1,0,0:0:0:0:
1,160,32366,1,0,0:0:0:0:
200,320,32499,21,0,0:0:0:0:
421,354,32632,1,0,0:0:0:0:
510,168,32766,1,0,0:0:0:0:
32,224,32898,5,0,0:0:0:0:
512,384,33032,1,0,0:0:0:0:
102,150,33165,21,0,0:0:0:0:
297,38,33298,1,0,0:0:0:0:
409,233,33431,1,0,0:0:0:0:
214,345,33564,1,0,0:0:0:0:
64,302,33697,5,0,0:3:0:0:
366,383,33830,1,0,0:3:0:0:
447,81,33963,1,0,0:3:0:0:
145,0,34096,1,0,0:3:0:0:
364,352,34230,22,0,P|460:344|484:248,1,200
26,253,34630,2,0,P|55:343|149:350,1,200
388,104,35029,2,0,P|359:14|265:7,1,200
160,288,35429,1,0,0:0:0:0:
416,224,35562,2,0,P|472:152|472:68,1,150
444,16,35828,5,0,0:0:0:0:
416,224,35962,1,0,0:0:0:0:
388,124,36095,1,0,0:0:0:0:
336,356,36228,1,0,0:0:0:0:
512,160,36361,21,0,0:0:0:0:
336,192,36494,1,0,0:0:0:0:
192,104,36628,1,0,0:0:0:0:
488,240,36761,5,0,0:0:0:0:
312,272,36894,1,0,0:0:0:0:
152,192,37028,1,0,0:0:0:0:
448,316,37160,22,0,P|284:352|224:192,1,350
288,160,37693,1,0,0:0:0:0:
160,352,37826,1,0,0:0:0:0:
160,352,38093,1,0,0:0:0:0:
32,64,38226,1,0,0:0:0:0:
0,224,38359,1,0,0:0:0:0:
240,360,38492,6,0,P|288:272|264:140,1,200
372,60,38892,2,0,P|274:36|153:93,1,200
104,244,39291,1,0,0:0:0:0:
24,20,39424,1,0,0:0:0:0:
248,84,39558,22,0,P|348:88|440:24,1,200
480,224,39957,1,0,0:0:0:0:
384,384,40090,1,0,0:0:0:0:
192,152,40224,2,0,P|159:101|162:44,2,100
344,284,40623,6,0,B|500:308|500:308|512:356,1,200
168,320,41023,2,0,B|12:344|12:344|0:392,1,200
256,192,41356,12,0,41888,0:0:0:0:
384,192,41955,21,0,0:0:0:0:
256,256,42088,1,0,0:0:0:0:
128,192,42221,1,0,0:0:0:0:
256,64,42355,5,0,0:0:0:0:
448,320,42488,21,0,0:0:0:0:
256,384,42621,1,0,0:0:0:0:
64,288,42754,6,0,P|32:244|24:172,1,100
145,115,43020,2,0,P|158:67|188:28,1,100
396,100,43287,2,0,P|476:184|372:148,1,300
20,248,43820,22,0,B|64:264|160:220|-52:164|56:80|160:136,1,200
212,292,44086,1,0,0:0:0:0:
272,40,44219,1,0,0:0:0:0:
412,200,44352,2,0,B|412:84|412:84|480:48|512:100|508:156|456:168|408:144,1,300
412,200,44619,1,0,0:0:0:0:
276,368,44752,1,0,0:0:0:0:
120,260,44885,6,0,B|36:232|52:94|200:64|264:172|256:258|200:320|92:328|32:244|44:172|96:136|164:152,1,550
248,320,45684,21,0,0:0:0:0:
400,224,45817,1,0,0:0:0:0:
500,368,45951,1,0,0:0:0:0:
256,232,46084,5,0,0:0:0:0:
408,136,46217,1,0,0:0:0:0:
508,280,46351,1,0,0:0:0:0:
341,78,46483,2,0,P|435:57|500:128,1,200
320,352,46883,1,0,0:0:0:0:
92,136,47016,22,0,P|56:80|56:20,1,100
224,160,47282,1,0,0:0:0:0:
128,352,47416,1,0,0:0:0:0:
168,36,47549,2,0,L|300:32,1,100
392,328,47815,2,0,L|260:332,1,100
32,32,48082,5,0,0:0:0:0:
96,160,48215,1,0,0:0:0:0:
416,224,48348,1,0,0:0:0:0:
352,96,48481,1,0,0:0:0:0:
96,160,48614,2,0,P|88:209|103:256,1,100
423,320,48881,2,0,P|430:270|415:223,1,100
172,292,49147,22,0,P|140:324|72:324,1,100
192,64,49413,1,0,0:0:0:0:
172,292,49547,1,0,0:0:0:0:
320,96,49680,1,0,0:0:0:0:
64,192,49813,1,0,0:0:0:0:
96,32,49946,1,0,0:0:0:0:
280,336,50079,1,0,0:0:0:0:
256,44,50212,5,0,0:0:0:0:
492,32,50346,1,0,0:0:0:0:
272,124,50479,21,0,0:0:0:0:
510,155,50611,1,0,0:0:0:0:
256,200,50745,5,0,0:0:0:0:
486,273,50877,1,0,0:0:0:0:
200,248,51012,21,0,0:0:0:0:
388,383,51145,1,0,0:0:0:0:
120,256,51278,5,0,0:0:0:0:
217,128,51411,1,0,0:0:0:0:
315,2,51544,1,0,0:0:0:0:
0,148,51678,21,0,0:0:0:0:
141,74,51811,1,0,0:0:0:0:
284,1,51944,1,0,0:0:0:0:
20,352,52077,5,0,0:0:0:0:
304,0,52210,1,0,0:0:0:0:
120,128,52343,21,0,0:0:0:0:
217,256,52476,1,0,0:0:0:0:
315,382,52609,1,0,0:0:0:0:
0,236,52743,5,0,0:0:0:0:
141,310,52876,1,0,0:0:0:0:
284,383,53009,1,0,0:0:0:0:
20,32,53142,21,0,0:0:0:0:
304,384,53275,1,0,0:0:0:0:
320,160,53409,5,0,0:0:0:0:
188,253,53542,1,0,0:0:0:0:
58,345,53675,1,0,0:0:0:0:
402,298,53809,21,0,0:0:0:0:
245,327,53942,1,0,0:0:0:0:
87,355,54075,1,0,0:0:0:0:
442,96,54208,5,0,0:0:0:0:
68,356,54341,1,0,0:0:0:0:
148,140,54474,22,0,P|156:112|152:84,1,50.0000019073487
92,32,54608,2,0,P|66:46|49:68,1,50.0000019073487
116,208,54741,6,0,P|144:216|172:212,1,50.0000019073487
256,196,54874,2,0,P|241:170|219:153,1,50.0000019073487
44,164,55007,22,0,P|36:192|40:220,1,50.0000019073487
276,268,55140,2,0,P|301:253|318:231,1,50.0000019073487
288,36,55273,6,0,P|176:36|120:128,1,225.000008583069
192,352,55540,21,0,0:0:0:0:
309,77,55673,1,0,0:0:0:0:
13,108,55806,1,0,0:0:0:0:
272,364,55939,5,0,0:0:0:0:
389,89,56072,1,0,0:0:0:0:
93,120,56205,1,0,0:0:0:0:
352,372,56339,21,0,0:0:0:0:
128,32,56472,1,0,0:0:0:0:
408,332,56605,5,0,0:0:0:0:
125,234,56738,1,0,0:0:0:0:
346,36,56871,1,0,0:0:0:0:
462,296,57005,21,0,0:0:0:0:
179,198,57138,1,0,0:0:0:0:
400,0,57271,1,0,0:0:0:0:
480,384,57404,5,0,0:0:0:0:
224,0,57538,1,0,0:0:0:0:
512,64,57671,21,0,0:0:0:0:
312,168,57804,1,0,0:0:0:0:
112,64,57937,1,0,0:0:0:0:
80,352,58070,5,0,0:0:0:0:
280,248,58203,1,0,0:0:0:0:
480,352,58336,1,0,0:0:0:0:
0,112,58470,21,0,0:0:0:0:
512,272,58603,1,0,0:0:0:0:
320,64,58736,5,0,0:0:0:0:
0,320,58870,1,0,0:0:0:0:
96,32,59003,1,0,0:0:0:0:
224,352,59136,1,0,0:0:0:0:
512,96,59269,21,0,0:0:0:0:
64,232,59402,1,0,0:0:0:0:
256,0,59535,1,0,0:0:0:0:
416,384,59669,1,0,0:0:0:0:
12,128,59802,6,0,P|44:52|176:28,1,200
364,172,60201,2,0,P|376:220|356:264,1,100
272,88,60468,2,0,P|376:28|476:120,1,250
476,224,60867,21,0,0:0:0:0:
208,200,61000,1,0,0:0:0:0:
416,384,61134,1,0,0:0:0:0:
288,16,61267,1,0,0:0:0:0:
16,48,61400,2,0,L|9:147,1,100
469,323,61666,2,0,L|475:223,1,100
168,40,61933,5,0,0:0:0:0:
232,208,62066,1,0,0:0:0:0:
136,360,62199,1,0,0:0:0:0:
88,28,62332,21,0,0:0:0:0:
320,224,62465,1,0,0:0:0:0:
56,348,62598,1,0,0:0:0:0:
4,16,62732,6,0,P|104:120|280:20,1,350
192,28,63265,21,0,0:0:0:0:
448,320,63398,1,0,0:0:0:0:
448,320,63664,1,0,0:0:0:0:
380,120,63797,2,0,B|416:88|416:88|468:88,1,100
368,336,64064,6,0,P|268:368|196:296,1,200
224,64,64463,2,0,P|124:32|52:104,1,200
68,336,64863,2,0,P|112:320|136:264,1,100
192,0,65129,21,0,0:0:0:0:
320,384,65262,1,0,0:0:0:0:
384,64,65396,2,0,P|334:79|279:114,1,100
135,274,65662,2,0,P|87:258|48:220,1,100,0|0,0:3|0:0,0:0:0:0:
144,56,65928,1,0,0:0:0:0:
384,256,66062,1,0,0:0:0:0:
40,360,66195,6,0,P|0:256|28:136,1,200
500,170,66594,2,0,P|510:268|472:360,1,200
96,0,66994,21,0,0:0:0:0:
208,72,68326,6,0,B|300:40|332:108|316:176|248:176|248:176|248:264,2,300
384,288,69658,5,0,0:0:0:0:
384,288,69925,1,0,0:0:0:0:
384,288,70190,21,0,0:0:0:0:
256,320,70323,1,0,0:0:0:0:
128,288,70457,5,0,0:0:0:0:
160,128,70590,1,0,0:0:0:0:
192,224,70723,1,0,0:0:0:0:
64,160,70856,1,0,0:0:0:0:
256,172,70989,1,0,0:0:0:0:
32,256,71123,1,0,0:0:0:0:
32,64,71256,22,0,P|160:24|296:132,1,300
256,224,71788,1,0,0:0:0:0:
256,224,71922,1,0,0:0:0:0:
161,127,72055,2,0,P|133:167|140:216,1,100
292,300,72321,1,0,0:0:0:0:
384,192,72454,1,0,0:0:0:0:
224,32,72588,6,0,B|184:176|172:180|172:184|168:188|168:188|164:192|160:200|144:212|112:232|64:208|52:156,2,300
440,252,73919,1,0,0:0:0:0:
490,111,74052,1,0,0:0:0:0:
391,0,74185,1,0,0:0:0:0:
48,139,74452,1,0,0:0:0:0:
57,288,74585,1,0,0:0:0:0:
288,348,74719,21,0,0:0:0:0:
288,121,74852,1,0,0:0:0:0:
154,304,74985,1,0,0:0:0:0:
370,234,75118,1,0,0:0:0:0:
154,164,75251,1,0,0:0:0:0:
288,348,75384,1,0,0:0:0:0:
288,121,75517,1,0,0:0:0:0:
288,121,75917,5,0,0:0:0:0:
472,280,76050,1,0,0:0:0:0:
154,164,76183,2,0,P|162:112|194:72,1,100
370,234,76450,2,0,P|362:282|332:322,1,100
32,192,76716,1,0,0:0:0:0:
448,352,76850,21,0,0:0:0:0:
