osu file format v14

[General]
AudioFilename: audio.ogg
AudioLeadIn: 0
PreviewTime: 91802
Countdown: 0
SampleSet: Soft
StackLeniency: 0.7
Mode: 3
LetterboxInBreaks: 0
SpecialStyle: 0
WidescreenStoryboard: 1

[Editor]
Bookmarks: 27545,53491,56735,66464,79437,92410,105383,108627,118356,141059
DistanceSpacing: 1.2
BeatDivisor: 4
GridSize: 8
TimelineZoom: 1.8

[Metadata]
Title:dammit
TitleUnicode:dammit
Artist:torr
ArtistUnicode:torr
Creator:Hydria
Version:Normal
Source:
Tags:hyperpop electronica alt indie folk pop english eel t0rr damn it emo VHS ecotone records glitch
BeatmapID:3672490
BeatmapSetID:1621616

[Difficulty]
HPDrainRate:7
CircleSize:7
OverallDifficulty:7
ApproachRate:5
SliderMultiplier:1.4
SliderTickRate:1

[Events]
//Background and Video events
0,0,"torr - dammit - tv-2.jpg",0,0
//Break Periods
//Storyboard Layer 0 (Background)
//Storyboard Layer 1 (Fail)
//Storyboard Layer 2 (Pass)
//Storyboard Layer 3 (Foreground)
//Storyboard Layer 4 (Overlay)
//Storyboard Sound Samples

[TimingPoints]
1600,405.405405405405,4,2,1,50,1,0
27545,-100,4,2,1,50,0,1
53491,-100,4,2,1,50,0,0
92410,-100,4,2,1,50,0,1
105383,-100,4,2,1,50,0,0
108627,-100,4,2,1,50,0,1
117545,-100,4,2,1,50,0,0

[HitObjects]
402,192,383,5,0,0:0:0:0:
329,192,586,1,0,0:0:0:0:
109,192,991,1,0,0:0:0:0:
329,192,1397,128,0,2208:0:0:0:0:
182,192,1600,1,0,0:0:0:0:
109,192,2613,1,0,0:0:0:0:
182,192,2613,1,0,0:0:0:0:
402,192,3018,1,0,0:0:0:0:
475,192,3018,1,0,0:0:0:0:
402,192,3424,1,0,0:0:0:0:
182,192,3627,1,0,0:0:0:0:
475,192,3829,1,0,0:0:0:0:
36,192,4235,1,0,0:0:0:0:
109,192,4235,1,0,0:0:0:0:
182,192,4843,1,0,0:0:0:0:
256,192,4843,1,0,0:0:0:0:
36,192,5045,128,0,5451:0:0:0:0:
329,192,5451,1,0,0:0:0:0:
182,192,5856,1,0,0:0:0:0:
256,192,5856,1,0,0:0:0:0:
109,192,6059,1,0,0:0:0:0:
329,192,6262,1,0,0:0:0:0:
402,192,6262,128,0,6667:0:0:0:0:
475,192,6667,1,0,0:0:0:0:
256,192,7072,1,0,0:0:0:0:
329,192,7275,1,0,0:0:0:0:
109,192,7478,1,0,0:0:0:0:
182,192,7478,1,0,0:0:0:0:
475,192,7883,128,0,8694:0:0:0:0:
36,192,8086,1,0,0:0:0:0:
109,192,8086,1,0,0:0:0:0:
36,192,9099,1,0,0:0:0:0:
109,192,9099,1,0,0:0:0:0:
182,192,9505,1,0,0:0:0:0:
256,192,9505,1,0,0:0:0:0:
256,192,9910,1,0,0:0:0:0:
256,192,10316,1,0,0:0:0:0:
36,192,10721,1,0,0:0:0:0:
109,192,10721,128,0,11127:0:0:0:0:
402,192,11329,1,0,0:0:0:0:
475,192,11329,1,0,0:0:0:0:
182,192,11532,1,0,0:0:0:0:
256,192,11937,128,0,12343:0:0:0:0:
329,192,12343,1,0,0:0:0:0:
402,192,12343,1,0,0:0:0:0:
402,192,12748,1,0,0:0:0:0:
475,192,12748,1,0,0:0:0:0:
256,192,13154,1,0,0:0:0:0:
109,192,13559,1,0,0:0:0:0:
182,192,13964,1,0,0:0:0:0:
256,192,13964,1,0,0:0:0:0:
475,192,14370,128,0,14978:0:0:0:0:
36,192,14572,1,2,0:0:0:0:
109,192,14572,1,0,0:0:0:0:
256,192,14978,1,0,0:0:0:0:
402,192,15383,1,0,0:0:0:0:
329,192,15789,1,0,0:0:0:0:
109,192,15991,128,2,16194:0:0:0:0:
182,192,15991,1,0,0:0:0:0:
402,192,16194,1,0,0:0:0:0:
182,192,16295,1,0,0:0:0:0:
402,192,16599,1,0,0:0:0:0:
182,192,16701,1,0,0:0:0:0:
36,192,17005,1,0,0:0:0:0:
109,192,17410,1,0,0:0:0:0:
182,192,17410,1,0,0:0:0:0:
256,192,17613,1,0,0:0:0:0:
402,192,17816,1,2,0:0:0:0:
182,192,17917,1,0,0:0:0:0:
182,192,18221,1,0,0:0:0:0:
402,192,18322,1,0,0:0:0:0:
36,192,18627,1,0,0:0:0:0:
329,192,18829,1,2,0:0:0:0:
402,192,18829,1,0,0:0:0:0:
182,192,19032,1,0,0:0:0:0:
256,192,19235,1,2,0:0:0:0:
329,192,19235,1,0,0:0:0:0:
109,192,19437,1,0,0:0:0:0:
36,192,19640,1,0,0:0:0:0:
256,192,19843,1,0,0:0:0:0:
182,192,20045,1,0,0:0:0:0:
329,192,20248,1,0,0:0:0:0:
182,192,20451,128,2,20856:0:0:0:0:
256,192,20451,1,0,0:0:0:0:
475,192,20856,128,2,21464:0:0:0:0:
36,192,21059,1,2,0:0:0:0:
109,192,21059,1,0,0:0:0:0:
182,192,21464,1,0,0:0:0:0:
402,192,21870,1,0,0:0:0:0:
109,192,22275,128,0,22478:0:0:0:0:
329,192,22478,128,2,22681:0:0:0:0:
402,192,22478,1,0,0:0:0:0:
36,192,22681,1,0,0:0:0:0:
182,192,22782,1,0,0:0:0:0:
256,192,23086,1,0,0:0:0:0:
329,192,23289,1,0,0:0:0:0:
402,192,23491,1,0,0:0:0:0:
109,192,23897,1,0,0:0:0:0:
475,192,24099,128,0,24505:0:0:0:0:
36,192,24302,1,0,0:0:0:0:
109,192,24302,1,0,0:0:0:0:
329,192,24505,128,0,24910:0:0:0:0:
182,192,24910,128,0,25113:0:0:0:0:
109,192,25316,128,0,25721:0:0:0:0:
475,192,25721,128,0,25924:0:0:0:0:
329,192,26127,128,0,26329:0:0:0:0:
182,192,26532,128,0,26735:0:0:0:0:
36,192,26937,1,8,0:0:0:0:
109,192,26937,1,0,0:0:0:0:
402,192,27140,1,8,0:0:0:0:
475,192,27140,1,0,0:0:0:0:
36,192,27241,1,8,0:0:0:0:
109,192,27241,1,0,0:0:0:0:
402,192,27444,1,8,0:0:0:0:
475,192,27444,1,0,0:0:0:0:
36,192,27545,1,2,0:0:0:0:
109,192,27545,128,0,27951:0:0:0:0:
329,192,27951,1,8,0:0:0:0:
402,192,27951,1,0,0:0:0:0:
182,192,28154,128,0,28356:0:0:0:0:
329,192,28559,128,0,28762:0:0:0:0:
36,192,28762,1,8,0:0:0:0:
109,192,28762,1,0,0:0:0:0:
182,192,28964,1,2,0:0:0:0:
256,192,28964,128,0,29370:0:0:0:0:
475,192,29370,128,0,29572:0:0:0:0:
329,192,29572,1,8,0:0:0:0:
402,192,29572,1,0,0:0:0:0:
182,192,29775,128,0,29978:0:0:0:0:
182,192,30181,128,0,30383:0:0:0:0:
36,192,30383,1,8,0:0:0:0:
109,192,30383,1,0,0:0:0:0:
256,192,30586,1,0,0:0:0:0:
402,192,30789,1,2,0:0:0:0:
475,192,30789,128,0,30991:0:0:0:0:
109,192,30991,1,2,0:0:0:0:
182,192,30991,1,0,0:0:0:0:
329,192,31194,1,8,0:0:0:0:
402,192,31194,1,0,0:0:0:0:
36,192,31397,128,0,31599:0:0:0:0:
109,192,31802,128,2,32005:0:0:0:0:
36,192,31802,1,0,0:0:0:0:
256,192,32005,1,8,0:0:0:0:
182,192,32005,1,0,0:0:0:0:
329,192,32208,1,2,0:0:0:0:
402,192,32208,128,0,32613:0:0:0:0:
109,192,32613,128,0,32816:0:0:0:0:
402,192,32816,1,8,0:0:0:0:
475,192,32816,1,0,0:0:0:0:
182,192,33221,128,0,33424:0:0:0:0:
402,192,33424,1,8,0:0:0:0:
475,192,33424,1,0,0:0:0:0:
36,192,33627,1,8,0:0:0:0:
109,192,33627,1,0,0:0:0:0:
402,192,33728,1,8,0:0:0:0:
475,192,33728,1,0,0:0:0:0:
36,192,33931,1,8,0:0:0:0:
109,192,33931,1,0,0:0:0:0:
402,192,34032,1,2,0:0:0:0:
475,192,34032,128,0,34235:0:0:0:0:
182,192,34437,1,8,0:0:0:0:
256,192,34437,1,0,0:0:0:0:
36,192,34640,128,0,34843:0:0:0:0:
256,192,35045,128,0,35248:0:0:0:0:
36,192,35248,1,8,0:0:0:0:
109,192,35248,1,0,0:0:0:0:
329,192,35451,1,2,0:0:0:0:
402,192,35451,128,0,35856:0:0:0:0:
475,192,35856,128,0,36059:0:0:0:0:
109,192,36059,1,8,0:0:0:0:
182,192,36059,1,0,0:0:0:0:
256,192,36262,128,0,36667:0:0:0:0:
36,192,36667,128,0,36870:0:0:0:0:
329,192,36870,1,8,0:0:0:0:
402,192,36870,1,0,0:0:0:0:
182,192,37072,1,0,0:0:0:0:
402,192,37275,128,2,37681:0:0:0:0:
475,192,37275,1,0,0:0:0:0:
36,192,37478,1,2,0:0:0:0:
109,192,37478,1,0,0:0:0:0:
182,192,37681,128,8,37883:0:0:0:0:
256,192,37681,1,0,0:0:0:0:
329,192,38289,128,2,38694:0:0:0:0:
402,192,38289,1,0,0:0:0:0:
36,192,38491,1,8,0:0:0:0:
109,192,38491,1,0,0:0:0:0:
182,192,38694,128,2,39302:0:0:0:0:
256,192,38694,1,0,0:0:0:0:
329,192,39302,1,8,0:0:0:0:
402,192,39302,1,0,0:0:0:0:
329,192,39505,1,0,0:0:0:0:
182,192,39708,1,0,0:0:0:0:
36,192,39910,1,8,0:0:0:0:
109,192,39910,1,0,0:0:0:0:
402,192,40113,1,8,0:0:0:0:
475,192,40113,1,0,0:0:0:0:
36,192,40214,1,8,0:0:0:0:
109,192,40214,1,0,0:0:0:0:
402,192,40417,1,8,0:0:0:0:
475,192,40417,1,0,0:0:0:0:
36,192,40518,1,2,0:0:0:0:
109,192,40518,128,0,40924:0:0:0:0:
256,192,40924,1,8,0:0:0:0:
329,192,40924,1,0,0:0:0:0:
475,192,41329,128,0,41532:0:0:0:0:
329,192,41532,128,0,41735:0:0:0:0:
36,192,41735,1,8,0:0:0:0:
109,192,41735,1,0,0:0:0:0:
182,192,41937,128,2,42140:0:0:0:0:
256,192,41937,1,0,0:0:0:0:
329,192,42343,128,0,42545:0:0:0:0:
36,192,42545,1,8,0:0:0:0:
109,192,42545,1,0,0:0:0:0:
182,192,42748,1,0,0:0:0:0:
402,192,42951,1,0,0:0:0:0:
109,192,43154,1,0,0:0:0:0:
329,192,43356,1,8,0:0:0:0:
402,192,43356,1,0,0:0:0:0:
36,192,43559,1,0,0:0:0:0:
109,192,43762,1,2,0:0:0:0:
182,192,43762,128,0,43964:0:0:0:0:
402,192,43964,128,2,44167:0:0:0:0:
475,192,43964,1,0,0:0:0:0:
182,192,44167,1,8,0:0:0:0:
256,192,44167,1,0,0:0:0:0:
256,192,44370,128,0,44775:0:0:0:0:
36,192,44775,1,2,0:0:0:0:
109,192,44775,1,0,0:0:0:0:
329,192,44978,1,8,0:0:0:0:
402,192,44978,128,0,45181:0:0:0:0:
36,192,45181,128,2,45586:0:0:0:0:
109,192,45181,1,0,0:0:0:0:
475,192,45586,128,0,45789:0:0:0:0:
182,192,45789,1,8,0:0:0:0:
256,192,45789,1,0,0:0:0:0:
329,192,46194,128,0,46397:0:0:0:0:
36,192,46397,1,8,0:0:0:0:
109,192,46397,1,0,0:0:0:0:
402,192,46599,1,8,0:0:0:0:
475,192,46599,1,0,0:0:0:0:
36,192,46701,1,8,0:0:0:0:
109,192,46701,1,0,0:0:0:0:
402,192,46904,1,8,0:0:0:0:
475,192,46904,1,0,0:0:0:0:
36,192,47005,1,2,0:0:0:0:
109,192,47005,128,0,47410:0:0:0:0:
256,192,47410,1,8,0:0:0:0:
329,192,47410,1,0,0:0:0:0:
475,192,47613,128,0,47816:0:0:0:0:
402,192,48018,128,0,48221:0:0:0:0:
329,192,48221,1,8,0:0:0:0:
256,192,48221,1,0,0:0:0:0:
36,192,48424,128,2,48829:0:0:0:0:
109,192,48424,1,0,0:0:0:0:
256,192,48829,128,0,49032:0:0:0:0:
329,192,49032,1,8,0:0:0:0:
402,192,49032,1,0,0:0:0:0:
109,192,49235,128,0,49437:0:0:0:0:
109,192,49640,128,0,49843:0:0:0:0:
329,192,49843,1,8,0:0:0:0:
402,192,49843,1,0,0:0:0:0:
182,192,50045,1,0,0:0:0:0:
402,192,50248,128,2,50654:0:0:0:0:
475,192,50248,1,0,0:0:0:0:
36,192,50451,1,2,0:0:0:0:
109,192,50451,1,0,0:0:0:0:
182,192,50654,128,8,50856:0:0:0:0:
256,192,50654,1,0,0:0:0:0:
329,192,51262,128,2,51667:0:0:0:0:
402,192,51262,1,0,0:0:0:0:
36,192,51464,1,8,0:0:0:0:
109,192,51464,1,0,0:0:0:0:
182,192,51667,128,2,52275:0:0:0:0:
256,192,51667,1,0,0:0:0:0:
402,192,52275,1,8,0:0:0:0:
475,192,52275,1,0,0:0:0:0:
329,192,52478,1,0,0:0:0:0:
256,192,52681,1,0,0:0:0:0:
36,192,52883,1,8,0:0:0:0:
109,192,52883,1,0,0:0:0:0:
402,192,53086,1,8,0:0:0:0:
475,192,53086,1,0,0:0:0:0:
36,192,53187,1,8,0:0:0:0:
109,192,53187,1,0,0:0:0:0:
402,192,53390,1,8,0:0:0:0:
475,192,53390,1,0,0:0:0:0:
36,192,53491,128,2,55113:0:0:0:0:
109,192,53491,1,0,0:0:0:0:
109,192,55316,1,0,0:0:0:0:
182,192,55518,1,0,0:0:0:0:
329,192,55721,1,0,0:0:0:0:
36,192,55924,1,0,0:0:0:0:
402,192,56127,128,0,56329:0:0:0:0:
475,192,56532,128,0,56937:0:0:0:0:
36,192,56735,1,2,0:0:0:0:
109,192,56735,1,0,0:0:0:0:
329,192,56937,1,2,0:0:0:0:
402,192,56937,1,0,0:0:0:0:
182,192,57140,1,0,0:0:0:0:
256,192,57343,128,0,57545:0:0:0:0:
36,192,57748,128,2,57951:0:0:0:0:
109,192,57748,1,0,0:0:0:0:
329,192,58154,1,2,0:0:0:0:
402,192,58154,128,0,58559:0:0:0:0:
475,192,58559,1,0,0:0:0:0:
182,192,58762,1,0,0:0:0:0:
329,192,58964,128,0,59167:0:0:0:0:
36,192,59370,128,2,59775:0:0:0:0:
109,192,59370,1,0,0:0:0:0:
329,192,59775,1,2,0:0:0:0:
402,192,59775,1,0,0:0:0:0:
109,192,59978,1,2,0:0:0:0:
182,192,59978,1,0,0:0:0:0:
256,192,60383,1,0,0:0:0:0:
329,192,60789,1,0,0:0:0:0:
36,192,60991,128,0,61194:0:0:0:0:
402,192,61194,128,0,61397:0:0:0:0:
109,192,61397,1,2,0:0:0:0:
182,192,61397,1,0,0:0:0:0:
256,192,61802,1,0,0:0:0:0:
329,192,62005,128,0,62208:0:0:0:0:
109,192,62208,1,0,0:0:0:0:
402,192,62410,128,0,62613:0:0:0:0:
36,192,62613,128,0,62816:0:0:0:0:
475,192,63018,128,0,63424:0:0:0:0:
36,192,63221,1,2,0:0:0:0:
109,192,63221,1,0,0:0:0:0:
329,192,63424,1,2,0:0:0:0:
402,192,63424,1,0,0:0:0:0:
182,192,63627,1,0,0:0:0:0:
36,192,63829,128,0,64235:0:0:0:0:
109,192,64235,1,2,0:0:0:0:
182,192,64235,1,0,0:0:0:0:
329,192,64640,128,2,65045:0:0:0:0:
402,192,64640,1,0,0:0:0:0:
182,192,65045,1,0,0:0:0:0:
109,192,65248,1,0,0:0:0:0:
36,192,65451,128,0,65856:0:0:0:0:
402,192,65856,1,8,0:0:0:0:
475,192,65856,1,0,0:0:0:0:
36,192,66059,1,8,0:0:0:0:
109,192,66059,1,0,0:0:0:0:
402,192,66160,1,8,0:0:0:0:
475,192,66160,1,0,0:0:0:0:
36,192,66363,1,8,0:0:0:0:
109,192,66363,1,0,0:0:0:0:
402,192,66464,1,2,0:0:0:0:
475,192,66464,1,0,0:0:0:0:
256,192,66667,1,0,0:0:0:0:
109,192,66870,1,8,0:0:0:0:
329,192,66870,1,0,0:0:0:0:
182,192,67174,1,0,0:0:0:0:
256,192,67478,1,0,0:0:0:0:
402,192,67681,1,8,0:0:0:0:
475,192,67681,1,0,0:0:0:0:
109,192,67833,1,0,0:0:0:0:
329,192,67985,1,0,0:0:0:0:
182,192,68086,1,0,0:0:0:0:
402,192,68289,1,0,0:0:0:0:
109,192,68491,1,8,0:0:0:0:
256,192,68491,1,0,0:0:0:0:
329,192,68643,1,0,0:0:0:0:
36,192,68795,1,0,0:0:0:0:
182,192,69099,1,0,0:0:0:0:
402,192,69302,1,8,0:0:0:0:
475,192,69302,1,0,0:0:0:0:
109,192,69437,1,0,0:0:0:0:
329,192,69572,1,0,0:0:0:0:
36,192,69708,1,2,0:0:0:0:
109,192,69708,1,0,0:0:0:0:
402,192,69910,1,2,0:0:0:0:
475,192,69910,1,0,0:0:0:0:
109,192,70113,1,8,0:0:0:0:
329,192,70113,1,0,0:0:0:0:
182,192,70417,1,0,0:0:0:0:
256,192,70721,1,2,0:0:0:0:
36,192,70822,1,0,0:0:0:0:
402,192,70924,1,8,0:0:0:0:
475,192,70924,1,0,0:0:0:0:
109,192,71076,1,0,0:0:0:0:
329,192,71228,1,0,0:0:0:0:
182,192,71329,1,0,0:0:0:0:
402,192,71532,1,0,0:0:0:0:
109,192,71735,1,8,0:0:0:0:
256,192,71735,1,0,0:0:0:0:
36,192,72039,1,0,0:0:0:0:
182,192,72343,1,2,0:0:0:0:
402,192,72545,1,8,0:0:0:0:
475,192,72545,1,0,0:0:0:0:
36,192,72647,1,8,0:0:0:0:
109,192,72647,1,0,0:0:0:0:
402,192,72849,1,8,0:0:0:0:
475,192,72849,1,0,0:0:0:0:
36,192,72951,1,2,0:0:0:0:
109,192,72951,1,0,0:0:0:0:
256,192,73154,1,0,0:0:0:0:
109,192,73356,1,8,0:0:0:0:
329,192,73356,1,0,0:0:0:0:
182,192,73660,1,0,0:0:0:0:
256,192,73964,1,0,0:0:0:0:
36,192,74066,1,0,0:0:0:0:
402,192,74167,1,8,0:0:0:0:
475,192,74167,1,0,0:0:0:0:
109,192,74302,1,0,0:0:0:0:
329,192,74471,1,0,0:0:0:0:
182,192,74572,1,0,0:0:0:0:
402,192,74775,1,0,0:0:0:0:
109,192,74978,1,8,0:0:0:0:
256,192,74978,1,0,0:0:0:0:
329,192,75282,1,0,0:0:0:0:
182,192,75518,1,0,0:0:0:0:
256,192,75654,1,0,0:0:0:0:
402,192,75789,1,8,0:0:0:0:
475,192,75789,1,0,0:0:0:0:
109,192,75924,1,0,0:0:0:0:
329,192,76059,1,0,0:0:0:0:
36,192,76194,1,2,0:0:0:0:
109,192,76194,1,0,0:0:0:0:
402,192,76397,1,2,0:0:0:0:
475,192,76397,1,0,0:0:0:0:
109,192,76599,1,8,0:0:0:0:
329,192,76599,1,0,0:0:0:0:
182,192,76904,1,0,0:0:0:0:
256,192,77208,1,2,0:0:0:0:
36,192,77309,1,0,0:0:0:0:
402,192,77410,1,8,0:0:0:0:
475,192,77410,1,0,0:0:0:0:
109,192,77545,1,0,0:0:0:0:
329,192,77681,1,0,0:0:0:0:
256,192,78221,1,8,0:0:0:0:
109,192,78322,1,0,0:0:0:0:
402,192,78525,128,0,78829:0:0:0:0:
36,192,78829,128,2,79032:0:0:0:0:
109,192,78829,1,0,0:0:0:0:
402,192,79032,1,0,0:0:0:0:
329,192,79133,1,0,0:0:0:0:
109,192,79235,1,0,0:0:0:0:
182,192,79336,1,0,0:0:0:0:
475,192,79437,128,0,79843:0:0:0:0:
329,192,79843,128,0,80045:0:0:0:0:
182,192,80045,128,0,80248:0:0:0:0:
109,192,80451,128,0,80654:0:0:0:0:
329,192,80856,128,0,81262:0:0:0:0:
402,192,81262,128,0,81464:0:0:0:0:
329,192,81667,128,0,81870:0:0:0:0:
329,192,82072,128,0,82275:0:0:0:0:
109,192,82275,128,0,82478:0:0:0:0:
182,192,82478,128,0,82681:0:0:0:0:
402,192,82681,128,0,83086:0:0:0:0:
475,192,83086,128,0,83289:0:0:0:0:
329,192,83289,128,0,83491:0:0:0:0:
182,192,83694,128,0,83897:0:0:0:0:
402,192,84099,128,0,84505:0:0:0:0:
475,192,84505,128,0,84708:0:0:0:0:
329,192,85113,128,0,85316:0:0:0:0:
402,192,85316,128,0,85518:0:0:0:0:
109,192,85518,128,0,85721:0:0:0:0:
329,192,85721,128,0,85924:0:0:0:0:
475,192,85924,1,0,0:0:0:0:
402,192,86329,128,0,86532:0:0:0:0:
182,192,86532,128,0,86735:0:0:0:0:
109,192,86937,128,0,87140:0:0:0:0:
329,192,87343,128,0,87748:0:0:0:0:
402,192,87748,128,0,87951:0:0:0:0:
329,192,88154,128,0,88559:0:0:0:0:
182,192,88559,128,0,88762:0:0:0:0:
402,192,89167,128,0,89572:0:0:0:0:
182,192,89572,128,0,89978:0:0:0:0:
402,192,90181,128,0,90586:0:0:0:0:
109,192,90586,128,0,91397:0:0:0:0:
402,192,91599,1,0,0:0:0:0:
475,192,91599,1,0,0:0:0:0:
36,192,91802,1,8,0:0:0:0:
109,192,91802,1,0,0:0:0:0:
402,192,92005,1,8,0:0:0:0:
475,192,92005,1,0,0:0:0:0:
36,192,92106,1,8,0:0:0:0:
109,192,92106,1,0,0:0:0:0:
402,192,92309,1,8,0:0:0:0:
475,192,92309,1,0,0:0:0:0:
36,192,92410,1,2,0:0:0:0:
109,192,92410,128,0,92816:0:0:0:0:
329,192,92816,1,8,0:0:0:0:
402,192,92816,1,0,0:0:0:0:
182,192,93018,128,0,93221:0:0:0:0:
329,192,93424,128,0,93627:0:0:0:0:
36,192,93627,1,8,0:0:0:0:
109,192,93627,1,0,0:0:0:0:
182,192,93829,1,2,0:0:0:0:
256,192,93829,128,0,94235:0:0:0:0:
475,192,94235,128,0,94437:0:0:0:0:
329,192,94437,1,8,0:0:0:0:
402,192,94437,1,0,0:0:0:0:
182,192,94640,128,0,94843:0:0:0:0:
109,192,95045,128,0,95248:0:0:0:0:
256,192,95248,1,8,0:0:0:0:
182,192,95248,1,0,0:0:0:0:
329,192,95451,1,0,0:0:0:0:
402,192,95654,1,2,0:0:0:0:
475,192,95654,128,0,95856:0:0:0:0:
109,192,95856,1,2,0:0:0:0:
182,192,95856,1,0,0:0:0:0:
329,192,96059,1,8,0:0:0:0:
402,192,96059,1,0,0:0:0:0:
36,192,96262,128,0,96464:0:0:0:0:
109,192,96667,128,2,96870:0:0:0:0:
36,192,96667,1,0,0:0:0:0:
256,192,96870,1,8,0:0:0:0:
182,192,96870,1,0,0:0:0:0:
329,192,97072,1,2,0:0:0:0:
402,192,97072,128,0,97478:0:0:0:0:
109,192,97478,128,0,97681:0:0:0:0:
402,192,97681,1,8,0:0:0:0:
475,192,97681,1,0,0:0:0:0:
182,192,98086,128,0,98289:0:0:0:0:
402,192,98289,1,8,0:0:0:0:
475,192,98289,1,0,0:0:0:0:
36,192,98491,1,8,0:0:0:0:
109,192,98491,1,0,0:0:0:0:
402,192,98593,1,8,0:0:0:0:
475,192,98593,1,0,0:0:0:0:
36,192,98795,1,8,0:0:0:0:
109,192,98795,1,0,0:0:0:0:
402,192,98897,1,2,0:0:0:0:
475,192,98897,128,0,99099:0:0:0:0:
182,192,99302,1,8,0:0:0:0:
256,192,99302,1,0,0:0:0:0:
36,192,99505,128,0,99708:0:0:0:0:
256,192,99910,128,0,100113:0:0:0:0:
36,192,100113,1,8,0:0:0:0:
109,192,100113,1,0,0:0:0:0:
329,192,100316,1,2,0:0:0:0:
402,192,100316,128,0,100721:0:0:0:0:
475,192,100721,128,0,100924:0:0:0:0:
109,192,100924,1,8,0:0:0:0:
182,192,100924,1,0,0:0:0:0:
256,192,101127,128,0,101532:0:0:0:0:
36,192,101532,128,0,101735:0:0:0:0:
329,192,101735,1,8,0:0:0:0:
402,192,101735,1,0,0:0:0:0:
182,192,101937,1,0,0:0:0:0:
402,192,102140,128,2,102545:0:0:0:0:
475,192,102140,1,0,0:0:0:0:
36,192,102343,1,2,0:0:0:0:
109,192,102343,1,0,0:0:0:0:
182,192,102545,128,8,102748:0:0:0:0:
256,192,102545,1,0,0:0:0:0:
329,192,103154,128,2,103559:0:0:0:0:
402,192,103154,1,0,0:0:0:0:
36,192,103356,1,8,0:0:0:0:
109,192,103356,1,0,0:0:0:0:
182,192,103559,128,2,104167:0:0:0:0:
256,192,103559,1,0,0:0:0:0:
329,192,104167,1,8,0:0:0:0:
402,192,104167,1,0,0:0:0:0:
329,192,104370,1,0,0:0:0:0:
182,192,104572,1,0,0:0:0:0:
36,192,104775,1,8,0:0:0:0:
109,192,104775,1,0,0:0:0:0:
402,192,104978,1,8,0:0:0:0:
475,192,104978,1,0,0:0:0:0:
36,192,105079,1,8,0:0:0:0:
109,192,105079,1,0,0:0:0:0:
402,192,105282,1,8,0:0:0:0:
475,192,105282,1,0,0:0:0:0:
256,192,105383,128,0,105789:0:0:0:0:
182,192,105789,128,0,105991:0:0:0:0:
109,192,106194,128,0,106397:0:0:0:0:
402,192,106397,128,0,106599:0:0:0:0:
182,192,106802,128,0,107208:0:0:0:0:
475,192,107208,128,0,107410:0:0:0:0:
329,192,107613,1,0,0:0:0:0:
182,192,107816,128,0,108018:0:0:0:0:
36,192,108018,1,8,0:0:0:0:
109,192,108018,1,0,0:0:0:0:
402,192,108221,1,8,0:0:0:0:
475,192,108221,1,0,0:0:0:0:
36,192,108322,1,8,0:0:0:0:
109,192,108322,1,0,0:0:0:0:
402,192,108525,1,8,0:0:0:0:
475,192,108525,1,0,0:0:0:0:
36,192,108627,1,2,0:0:0:0:
109,192,108627,128,0,108829:0:0:0:0:
402,192,108829,1,2,0:0:0:0:
475,192,108829,128,0,109032:0:0:0:0:
182,192,109032,1,8,0:0:0:0:
256,192,109032,1,0,0:0:0:0:
256,192,109235,128,0,109640:0:0:0:0:
36,192,109640,1,2,0:0:0:0:
109,192,109640,1,0,0:0:0:0:
329,192,109843,1,8,0:0:0:0:
402,192,109843,128,0,110045:0:0:0:0:
36,192,110045,128,2,110451:0:0:0:0:
109,192,110045,1,0,0:0:0:0:
475,192,110451,128,0,110654:0:0:0:0:
182,192,110654,1,8,0:0:0:0:
256,192,110654,1,0,0:0:0:0:
329,192,111059,128,0,111262:0:0:0:0:
36,192,111262,1,8,0:0:0:0:
109,192,111262,1,0,0:0:0:0:
402,192,111464,1,8,0:0:0:0:
475,192,111464,1,0,0:0:0:0:
36,192,111566,1,8,0:0:0:0:
109,192,111566,1,0,0:0:0:0:
402,192,111768,1,8,0:0:0:0:
475,192,111768,1,0,0:0:0:0:
36,192,111870,1,2,0:0:0:0:
109,192,111870,128,0,112275:0:0:0:0:
256,192,112275,1,8,0:0:0:0:
329,192,112275,1,0,0:0:0:0:
475,192,112478,128,0,112681:0:0:0:0:
329,192,112883,128,0,113086:0:0:0:0:
402,192,113086,1,8,0:0:0:0:
475,192,113086,1,0,0:0:0:0:
36,192,113289,128,2,113694:0:0:0:0:
109,192,113289,1,0,0:0:0:0:
256,192,113694,128,0,113897:0:0:0:0:
329,192,113897,1,8,0:0:0:0:
402,192,113897,1,0,0:0:0:0:
109,192,114099,128,0,114302:0:0:0:0:
109,192,114505,128,0,114708:0:0:0:0:
329,192,114708,1,8,0:0:0:0:
402,192,114708,1,0,0:0:0:0:
182,192,114910,1,0,0:0:0:0:
402,192,115113,128,2,115518:0:0:0:0:
475,192,115113,1,0,0:0:0:0:
36,192,115316,1,2,0:0:0:0:
109,192,115316,1,0,0:0:0:0:
182,192,115518,128,8,115721:0:0:0:0:
256,192,115518,1,0,0:0:0:0:
329,192,116127,128,2,116532:0:0:0:0:
402,192,116127,1,0,0:0:0:0:
36,192,116329,1,8,0:0:0:0:
109,192,116329,1,0,0:0:0:0:
182,192,116532,128,2,117140:0:0:0:0:
256,192,116532,1,0,0:0:0:0:
36,192,117140,1,8,0:0:0:0:
109,192,117140,1,0,0:0:0:0:
329,192,117343,1,0,0:0:0:0:
36,192,117545,128,0,117951:0:0:0:0:
475,192,117951,128,0,118356:0:0:0:0:
36,192,118356,1,2,0:0:0:0:
109,192,118356,1,0,0:0:0:0:
36,192,118559,1,0,0:0:0:0:
402,192,118964,1,0,0:0:0:0:
402,192,119167,1,8,0:0:0:0:
475,192,119167,1,0,0:0:0:0:
329,192,119370,1,0,0:0:0:0:
256,192,119572,1,0,0:0:0:0:
109,192,119775,1,2,0:0:0:0:
182,192,119775,1,0,0:0:0:0:
109,192,119978,1,0,0:0:0:0:
402,192,120181,1,0,0:0:0:0:
475,192,120181,1,0,0:0:0:0:
36,192,120586,128,0,120789:0:0:0:0:
329,192,120789,1,8,0:0:0:0:
402,192,120789,1,0,0:0:0:0:
256,192,120991,1,0,0:0:0:0:
256,192,121194,128,0,121397:0:0:0:0:
402,192,121397,1,0,0:0:0:0:
36,192,121599,1,2,0:0:0:0:
109,192,121599,1,0,0:0:0:0:
36,192,121802,1,2,0:0:0:0:
109,192,121802,1,0,0:0:0:0:
182,192,122005,128,0,122208:0:0:0:0:
329,192,122208,1,0,0:0:0:0:
402,192,122410,1,8,0:0:0:0:
475,192,122410,1,0,0:0:0:0:
256,192,122613,1,2,0:0:0:0:
256,192,122816,1,0,0:0:0:0:
36,192,123018,128,2,123424:0:0:0:0:
402,192,123424,1,0,0:0:0:0:
475,192,123424,1,0,0:0:0:0:
329,192,123627,1,0,0:0:0:0:
109,192,123829,1,0,0:0:0:0:
182,192,124032,1,8,0:0:0:0:
256,192,124032,1,0,0:0:0:0:
36,192,124235,1,2,0:0:0:0:
329,192,124437,128,0,124640:0:0:0:0:
402,192,124640,1,2,0:0:0:0:
256,192,124843,1,2,0:0:0:0:
402,192,124843,1,0,0:0:0:0:
256,192,125045,1,0,0:0:0:0:
475,192,125248,128,0,125451:0:0:0:0:
36,192,125451,1,0,0:0:0:0:
109,192,125654,1,8,0:0:0:0:
182,192,125654,1,0,0:0:0:0:
329,192,125856,1,0,0:0:0:0:
402,192,126262,128,2,126667:0:0:0:0:
475,192,126262,1,0,0:0:0:0:
109,192,126667,1,0,0:0:0:0:
109,192,126870,1,0,0:0:0:0:
182,192,127072,128,0,127478:0:0:0:0:
329,192,127275,1,8,0:0:0:0:
402,192,127275,1,0,0:0:0:0:
36,192,127478,128,0,127681:0:0:0:0:
109,192,127681,1,0,0:0:0:0:
329,192,127883,1,0,0:0:0:0:
402,192,128086,128,2,128491:0:0:0:0:
475,192,128086,1,0,0:0:0:0:
36,192,128289,1,2,0:0:0:0:
109,192,128289,1,0,0:0:0:0:
182,192,128491,128,0,128897:0:0:0:0:
256,192,128897,1,8,0:0:0:0:
329,192,128897,1,0,0:0:0:0:
329,192,129099,128,2,129505:0:0:0:0:
36,192,129505,128,2,130316:0:0:0:0:
36,192,130518,1,8,0:0:0:0:
109,192,130518,1,0,0:0:0:0:
256,192,130721,1,0,0:0:0:0:
402,192,130924,1,0,0:0:0:0:
182,192,131127,1,0,0:0:0:0:
402,192,131329,1,2,0:0:0:0:
475,192,131329,1,0,0:0:0:0:
475,192,131532,1,0,0:0:0:0:
36,192,131735,1,0,0:0:0:0:
109,192,131735,1,0,0:0:0:0:
256,192,132140,1,8,0:0:0:0:
329,192,132140,1,0,0:0:0:0:
475,192,132343,1,0,0:0:0:0:
182,192,132545,1,0,0:0:0:0:
36,192,132748,128,2,133154:0:0:0:0:
109,192,132748,1,0,0:0:0:0:
329,192,133154,1,0,0:0:0:0:
402,192,133154,1,0,0:0:0:0:
475,192,133356,128,0,133559:0:0:0:0:
182,192,133559,1,0,0:0:0:0:
36,192,133762,1,8,0:0:0:0:
109,192,133762,1,0,0:0:0:0:
256,192,133964,1,0,0:0:0:0:
402,192,134167,1,0,0:0:0:0:
256,192,134370,128,0,134572:0:0:0:0:
36,192,134572,1,2,0:0:0:0:
109,192,134572,1,0,0:0:0:0:
36,192,134775,1,2,0:0:0:0:
109,192,134775,1,0,0:0:0:0:
402,192,135181,1,0,0:0:0:0:
329,192,135383,1,8,0:0:0:0:
402,192,135383,1,0,0:0:0:0:
109,192,135586,1,2,0:0:0:0:
256,192,135789,1,0,0:0:0:0:
36,192,135991,1,2,0:0:0:0:
109,192,135991,1,0,0:0:0:0:
36,192,136194,1,0,0:0:0:0:
402,192,136397,128,0,136599:0:0:0:0:
402,192,137005,1,8,0:0:0:0:
475,192,137005,1,0,0:0:0:0:
182,192,137208,1,2,0:0:0:0:
402,192,137410,1,0,0:0:0:0:
182,192,137613,1,8,0:0:0:0:
36,192,137816,1,2,0:0:0:0:
109,192,137816,1,0,0:0:0:0:
36,192,138018,1,0,0:0:0:0:
256,192,138221,1,0,0:0:0:0:
402,192,138424,128,0,138627:0:0:0:0:
36,192,138627,1,8,0:0:0:0:
109,192,138627,1,0,0:0:0:0:
256,192,138829,128,0,139032:0:0:0:0:
329,192,139032,1,0,0:0:0:0:
36,192,139235,128,2,139640:0:0:0:0:
109,192,139235,1,0,0:0:0:0:
402,192,139640,1,0,0:0:0:0:
475,192,139640,1,0,0:0:0:0:
256,192,140045,128,0,140248:0:0:0:0:
109,192,140248,1,8,0:0:0:0:
182,192,140248,1,0,0:0:0:0:
329,192,140451,128,0,140654:0:0:0:0:
256,192,140654,1,0,0:0:0:0:
256,192,140856,1,0,0:0:0:0:
402,192,141059,128,0,141464:0:0:0:0:
182,192,141464,128,0,141768:0:0:0:0:
402,192,142072,128,0,142478:0:0:0:0:
109,192,142478,128,0,143289:0:0:0:0:
