osu file format v14

[General]
AudioFilename: audio.mp3
AudioLeadIn: 0
PreviewTime: -1
Countdown: 1
SampleSet: Soft
StackLeniency: 0.7
Mode: 3
LetterboxInBreaks: 0
SpecialStyle: 1
WidescreenStoryboard: 0

[Editor]
DistanceSpacing: 1
BeatDivisor: 8
GridSize: 8
TimelineZoom: 2.5

[Metadata]
Title:Enigma
TitleUnicode:Enigma
Artist:toromaru
ArtistUnicode:とろまる
Creator:Tropa God
Version:GRAVITY
Source:SOUND VOLTEX III GRAVITY WARS
Tags:SOUND VOLTEX
BeatmapID:1128346
BeatmapSetID:532497

[Difficulty]
HPDrainRate:8
CircleSize:4
OverallDifficulty:8
ApproachRate:5
SliderMultiplier:1.4
SliderTickRate:1

[Events]
//Background and Video events
0,0,"Background loli.jpg",0,0
//Break Periods
//Storyboard Layer 0 (Background)
//Storyboard Layer 1 (Fail)
//Storyboard Layer 2 (Pass)
//Storyboard Layer 3 (Foreground)
//Storyboard Sound Samples

[TimingPoints]
621,303.030303030303,4,2,0,20,1,0

[HitObjects]
320,192,621,5,0,0:0:0:0:
448,192,621,128,0,1075:0:0:0:0:
192,192,772,1,0,0:0:0:0:
64,192,772,1,0,0:0:0:0:
320,192,924,1,0,0:0:0:0:
192,192,1075,1,0,0:0:0:0:
64,192,1075,1,0,0:0:0:0:
64,192,1378,1,0,0:0:0:0:
448,192,1530,1,0,0:0:0:0:
320,192,1681,1,0,0:0:0:0:
192,192,1833,1,0,0:0:0:0:
64,192,1908,1,0,0:0:0:0:
192,192,1984,1,0,0:0:0:0:
320,192,2060,1,0,0:0:0:0:
448,192,2136,1,0,0:0:0:0:
320,192,2211,1,0,0:0:0:0:
192,192,2287,1,0,0:0:0:0:
320,192,2363,1,0,0:0:0:0:
448,192,2439,1,0,0:0:0:0:
320,192,2514,1,0,0:0:0:0:
192,192,2590,1,0,0:0:0:0:
64,192,2590,1,0,0:0:0:0:
448,192,2590,1,0,0:0:0:0:
320,192,2666,1,0,0:0:0:0:
192,192,2742,1,0,0:0:0:0:
320,192,2817,1,0,0:0:0:0:
192,192,2893,1,0,0:0:0:0:
64,192,2893,1,0,0:0:0:0:
448,192,2893,1,0,0:0:0:0:
320,192,2969,1,0,0:0:0:0:
192,192,3045,1,0,0:0:0:0:
64,192,3045,1,0,0:0:0:0:
448,192,3045,128,0,3499:0:0:0:0:
320,192,3196,1,0,0:0:0:0:
192,192,3348,1,0,0:0:0:0:
64,192,3348,1,0,0:0:0:0:
320,192,3499,1,0,0:0:0:0:
192,192,3802,1,0,0:0:0:0:
448,192,3954,1,0,0:0:0:0:
64,192,4105,1,0,0:0:0:0:
320,192,4257,1,0,0:0:0:0:
192,192,4333,1,0,0:0:0:0:
448,192,4408,1,0,0:0:0:0:
320,192,4408,1,0,0:0:0:0:
64,192,4408,1,0,0:0:0:0:
192,192,4484,1,0,0:0:0:0:
320,192,4560,1,0,0:0:0:0:
448,192,4636,1,0,0:0:0:0:
320,192,4711,1,0,0:0:0:0:
192,192,4711,1,0,0:0:0:0:
64,192,4711,1,0,0:0:0:0:
448,192,4787,1,0,0:0:0:0:
320,192,4863,1,0,0:0:0:0:
192,192,4939,1,0,0:0:0:0:
448,192,5014,1,0,0:0:0:0:
320,192,5014,1,0,0:0:0:0:
192,192,5090,1,0,0:0:0:0:
64,192,5090,1,0,0:0:0:0:
448,192,5166,1,0,0:0:0:0:
320,192,5166,1,0,0:0:0:0:
192,192,5242,1,0,0:0:0:0:
448,192,5317,1,0,0:0:0:0:
64,192,5317,1,0,0:0:0:0:
320,192,5317,1,0,0:0:0:0:
192,192,5393,1,0,0:0:0:0:
448,192,5469,1,0,0:0:0:0:
320,192,5469,1,0,0:0:0:0:
64,192,5469,128,0,5924:0:0:0:0:
192,192,5620,1,0,0:0:0:0:
448,192,5772,1,0,0:0:0:0:
320,192,5772,1,0,0:0:0:0:
192,192,5924,1,0,0:0:0:0:
192,192,6075,1,0,0:0:0:0:
192,192,6227,1,0,0:0:0:0:
64,192,6227,1,0,0:0:0:0:
448,192,6378,1,0,0:0:0:0:
320,192,6378,1,0,0:0:0:0:
64,192,6530,1,0,0:0:0:0:
192,192,6530,1,0,0:0:0:0:
320,192,6605,1,0,0:0:0:0:
448,192,6681,1,0,0:0:0:0:
64,192,6681,1,0,0:0:0:0:
320,192,6757,1,0,0:0:0:0:
192,192,6833,1,0,0:0:0:0:
320,192,6908,1,0,0:0:0:0:
192,192,6984,1,0,0:0:0:0:
448,192,6984,1,0,0:0:0:0:
320,192,7060,1,0,0:0:0:0:
192,192,7136,1,0,0:0:0:0:
64,192,7211,1,0,0:0:0:0:
192,192,7287,1,0,0:0:0:0:
320,192,7287,1,0,0:0:0:0:
448,192,7363,1,0,0:0:0:0:
64,192,7439,1,0,0:0:0:0:
320,192,7439,1,0,0:0:0:0:
192,192,7439,1,0,0:0:0:0:
448,192,7514,1,0,0:0:0:0:
320,192,7590,1,0,0:0:0:0:
192,192,7666,1,0,0:0:0:0:
448,192,7742,1,0,0:0:0:0:
320,192,7742,1,0,0:0:0:0:
64,192,7742,1,0,0:0:0:0:
192,192,7817,1,0,0:0:0:0:
64,192,7893,1,0,0:0:0:0:
448,192,7893,128,0,8348:0:0:0:0:
320,192,7893,1,0,0:0:0:0:
192,192,8045,1,0,0:0:0:0:
320,192,8045,1,0,0:0:0:0:
64,192,8196,1,0,0:0:0:0:
192,192,8348,1,0,0:0:0:0:
320,192,8348,1,0,0:0:0:0:
320,192,8499,1,0,0:0:0:0:
448,192,8651,1,0,0:0:0:0:
64,192,8651,1,0,0:0:0:0:
320,192,8802,1,0,0:0:0:0:
192,192,8802,1,0,0:0:0:0:
320,192,8954,1,0,0:0:0:0:
192,192,8954,1,0,0:0:0:0:
448,192,9030,1,0,0:0:0:0:
64,192,9105,1,0,0:0:0:0:
192,192,9105,1,0,0:0:0:0:
320,192,9181,1,0,0:0:0:0:
64,192,9257,1,0,0:0:0:0:
448,192,9257,1,0,0:0:0:0:
320,192,9333,1,0,0:0:0:0:
192,192,9408,1,0,0:0:0:0:
64,192,9408,1,0,0:0:0:0:
320,192,9484,1,0,0:0:0:0:
448,192,9560,1,0,0:0:0:0:
192,192,9560,1,0,0:0:0:0:
64,192,9636,1,0,0:0:0:0:
448,192,9711,1,0,0:0:0:0:
320,192,9711,1,0,0:0:0:0:
192,192,9787,1,0,0:0:0:0:
64,192,9787,1,0,0:0:0:0:
448,192,9863,1,0,0:0:0:0:
320,192,9863,1,0,0:0:0:0:
192,192,9939,1,0,0:0:0:0:
64,192,9939,1,0,0:0:0:0:
320,192,10014,1,0,0:0:0:0:
448,192,10014,1,0,0:0:0:0:
192,192,10090,1,0,0:0:0:0:
64,192,10090,1,0,0:0:0:0:
320,192,10166,1,0,0:0:0:0:
448,192,10166,1,0,0:0:0:0:
192,192,10242,1,0,0:0:0:0:
64,192,10242,1,0,0:0:0:0:
448,192,10317,128,0,10621:0:0:0:0:
320,192,10317,128,0,10469:0:0:0:0:
192,192,10469,128,0,10621:0:0:0:0:
64,192,10621,128,0,10772:0:0:0:0:
192,192,10772,128,0,11075:0:0:0:0:
448,192,10772,128,0,11227:0:0:0:0:
320,192,10924,128,0,11075:0:0:0:0:
64,192,11075,128,0,11227:0:0:0:0:
320,192,11227,128,0,11378:0:0:0:0:
192,192,11227,128,0,11681:0:0:0:0:
448,192,11378,128,0,11530:0:0:0:0:
64,192,11530,128,0,11833:0:0:0:0:
320,192,11681,128,0,11833:0:0:0:0:
448,192,11681,128,0,11984:0:0:0:0:
192,192,11833,128,0,12136:0:0:0:0:
64,192,11984,128,0,12136:0:0:0:0:
448,192,12136,1,0,0:0:0:0:
192,192,12287,1,0,0:0:0:0:
448,192,12439,1,0,0:0:0:0:
64,192,12439,1,0,0:0:0:0:
192,192,12514,1,0,0:0:0:0:
320,192,12590,1,0,0:0:0:0:
448,192,12666,1,0,0:0:0:0:
64,192,12742,128,0,13045:0:0:0:0:
192,192,12742,1,0,0:0:0:0:
448,192,13045,1,0,0:0:0:0:
320,192,13045,1,0,0:0:0:0:
64,192,13121,1,0,0:0:0:0:
320,192,13196,1,0,0:0:0:0:
192,192,13196,1,0,0:0:0:0:
448,192,13272,1,0,0:0:0:0:
64,192,13348,1,0,0:0:0:0:
192,192,13348,1,0,0:0:0:0:
448,192,13424,1,0,0:0:0:0:
192,192,13499,1,0,0:0:0:0:
320,192,13499,1,0,0:0:0:0:
64,192,13575,1,0,0:0:0:0:
320,192,13651,1,0,0:0:0:0:
448,192,13651,1,0,0:0:0:0:
64,192,13727,1,0,0:0:0:0:
320,192,13802,1,0,0:0:0:0:
192,192,13802,1,0,0:0:0:0:
448,192,13878,1,0,0:0:0:0:
448,192,13954,1,0,0:0:0:0:
64,192,13954,1,0,0:0:0:0:
320,192,14030,1,0,0:0:0:0:
192,192,14030,1,0,0:0:0:0:
448,192,14105,1,0,0:0:0:0:
64,192,14105,1,0,0:0:0:0:
320,192,14181,1,0,0:0:0:0:
192,192,14181,1,0,0:0:0:0:
448,192,14257,1,0,0:0:0:0:
64,192,14257,1,0,0:0:0:0:
320,192,14333,1,0,0:0:0:0:
192,192,14333,1,0,0:0:0:0:
448,192,14408,1,0,0:0:0:0:
64,192,14408,1,0,0:0:0:0:
320,192,14484,1,0,0:0:0:0:
192,192,14484,1,0,0:0:0:0:
448,192,14560,1,0,0:0:0:0:
320,192,14560,1,0,0:0:0:0:
192,192,14636,1,0,0:0:0:0:
64,192,14636,1,0,0:0:0:0:
448,192,14711,1,0,0:0:0:0:
320,192,14711,1,0,0:0:0:0:
192,192,14787,1,0,0:0:0:0:
64,192,14787,1,0,0:0:0:0:
448,192,14863,1,0,0:0:0:0:
320,192,14863,1,0,0:0:0:0:
192,192,14939,1,0,0:0:0:0:
64,192,14939,1,0,0:0:0:0:
448,192,15014,1,0,0:0:0:0:
320,192,15014,1,0,0:0:0:0:
192,192,15090,1,0,0:0:0:0:
64,192,15090,1,0,0:0:0:0:
448,192,15166,1,0,0:0:0:0:
320,192,15166,1,0,0:0:0:0:
64,192,15469,128,0,15772:0:0:0:0:
448,192,15469,1,0,0:0:0:0:
448,192,15772,1,0,0:0:0:0:
64,192,15924,1,0,0:0:0:0:
192,192,16075,1,0,0:0:0:0:
320,192,16075,1,0,0:0:0:0:
448,192,16227,1,0,0:0:0:0:
64,192,16378,1,0,0:0:0:0:
192,192,16378,1,0,0:0:0:0:
320,192,16479,1,0,0:0:0:0:
192,192,16479,1,0,0:0:0:0:
448,192,16580,1,0,0:0:0:0:
320,192,16580,1,0,0:0:0:0:
64,192,16681,1,0,0:0:0:0:
192,192,16681,1,0,0:0:0:0:
192,192,16782,1,0,0:0:0:0:
320,192,16782,1,0,0:0:0:0:
320,192,16883,1,0,0:0:0:0:
448,192,16883,1,0,0:0:0:0:
64,192,16984,1,0,0:0:0:0:
192,192,16984,1,0,0:0:0:0:
320,192,17085,1,0,0:0:0:0:
448,192,17085,1,0,0:0:0:0:
192,192,17186,1,0,0:0:0:0:
64,192,17186,1,0,0:0:0:0:
448,192,17287,1,0,0:0:0:0:
64,192,17287,1,0,0:0:0:0:
320,192,17388,1,0,0:0:0:0:
192,192,17388,1,0,0:0:0:0:
64,192,17489,1,0,0:0:0:0:
448,192,17489,1,0,0:0:0:0:
192,192,17590,128,0,17893:0:0:0:0:
320,192,17590,1,0,0:0:0:0:
320,192,17893,1,0,0:0:0:0:
448,192,18045,1,0,0:0:0:0:
192,192,18196,1,0,0:0:0:0:
64,192,18196,1,0,0:0:0:0:
320,192,18348,1,0,0:0:0:0:
448,192,18499,1,0,0:0:0:0:
192,192,18499,1,0,0:0:0:0:
64,192,18651,1,0,0:0:0:0:
192,192,18651,1,0,0:0:0:0:
448,192,18802,1,0,0:0:0:0:
320,192,18802,1,0,0:0:0:0:
320,192,18903,1,0,0:0:0:0:
448,192,18903,1,0,0:0:0:0:
320,192,19004,1,0,0:0:0:0:
448,192,19004,1,0,0:0:0:0:
192,192,19105,1,0,0:0:0:0:
64,192,19105,1,0,0:0:0:0:
192,192,19206,1,0,0:0:0:0:
64,192,19206,1,0,0:0:0:0:
192,192,19307,1,0,0:0:0:0:
64,192,19307,1,0,0:0:0:0:
448,192,19408,1,0,0:0:0:0:
320,192,19408,1,0,0:0:0:0:
192,192,19509,1,0,0:0:0:0:
64,192,19509,1,0,0:0:0:0:
448,192,19610,1,0,0:0:0:0:
320,192,19610,1,0,0:0:0:0:
64,192,19711,1,0,0:0:0:0:
448,192,19711,1,0,0:0:0:0:
320,192,19812,1,0,0:0:0:0:
192,192,19812,1,0,0:0:0:0:
448,192,19913,1,0,0:0:0:0:
64,192,19913,1,0,0:0:0:0:
192,192,20014,128,0,20317:0:0:0:0:
64,192,20317,1,0,0:0:0:0:
448,192,20317,1,0,0:0:0:0:
192,192,20620,1,0,0:0:0:0:
64,192,20620,1,0,0:0:0:0:
448,192,20772,1,0,0:0:0:0:
320,192,20924,1,0,0:0:0:0:
192,192,20924,1,0,0:0:0:0:
64,192,21075,1,0,0:0:0:0:
448,192,21227,1,0,0:0:0:0:
320,192,21227,1,0,0:0:0:0:
320,192,21328,1,0,0:0:0:0:
192,192,21328,1,0,0:0:0:0:
192,192,21429,1,0,0:0:0:0:
64,192,21429,1,0,0:0:0:0:
448,192,21530,1,0,0:0:0:0:
320,192,21530,1,0,0:0:0:0:
320,192,21631,1,0,0:0:0:0:
192,192,21631,1,0,0:0:0:0:
192,192,21732,1,0,0:0:0:0:
64,192,21732,1,0,0:0:0:0:
448,192,21833,1,0,0:0:0:0:
320,192,21833,1,0,0:0:0:0:
192,192,21934,1,0,0:0:0:0:
64,192,21934,1,0,0:0:0:0:
448,192,22035,1,0,0:0:0:0:
320,192,22035,1,0,0:0:0:0:
64,192,22136,1,0,0:0:0:0:
448,192,22136,1,0,0:0:0:0:
320,192,22237,1,0,0:0:0:0:
192,192,22237,1,0,0:0:0:0:
64,192,22338,1,0,0:0:0:0:
448,192,22338,1,0,0:0:0:0:
192,192,22439,128,0,22742:0:0:0:0:
320,192,22439,1,0,0:0:0:0:
448,192,22742,1,0,0:0:0:0:
64,192,22742,1,0,0:0:0:0:
320,192,22817,1,0,0:0:0:0:
192,192,22893,1,0,0:0:0:0:
64,192,22969,1,0,0:0:0:0:
320,192,23045,1,0,0:0:0:0:
192,192,23045,1,0,0:0:0:0:
448,192,23121,1,0,0:0:0:0:
192,192,23196,1,0,0:0:0:0:
64,192,23272,1,0,0:0:0:0:
320,192,23348,1,0,0:0:0:0:
192,192,23348,1,0,0:0:0:0:
448,192,23424,1,0,0:0:0:0:
192,192,23499,1,0,0:0:0:0:
64,192,23499,1,0,0:0:0:0:
320,192,23575,1,0,0:0:0:0:
448,192,23575,1,0,0:0:0:0:
192,192,23651,1,0,0:0:0:0:
64,192,23651,1,0,0:0:0:0:
192,192,23752,1,0,0:0:0:0:
64,192,23752,1,0,0:0:0:0:
192,192,23853,1,0,0:0:0:0:
64,192,23853,1,0,0:0:0:0:
448,192,23954,1,0,0:0:0:0:
320,192,23954,1,0,0:0:0:0:
448,192,24055,1,0,0:0:0:0:
320,192,24055,1,0,0:0:0:0:
448,192,24156,1,0,0:0:0:0:
320,192,24156,1,0,0:0:0:0:
64,192,24257,1,0,0:0:0:0:
192,192,24257,1,0,0:0:0:0:
320,192,24358,1,0,0:0:0:0:
448,192,24358,1,0,0:0:0:0:
192,192,24459,1,0,0:0:0:0:
64,192,24459,1,0,0:0:0:0:
448,192,24560,1,0,0:0:0:0:
64,192,24560,1,0,0:0:0:0:
192,192,24661,1,0,0:0:0:0:
320,192,24661,1,0,0:0:0:0:
64,192,24762,1,0,0:0:0:0:
448,192,24762,1,0,0:0:0:0:
320,192,24863,128,0,25166:0:0:0:0:
192,192,24863,128,0,25166:0:0:0:0:
448,192,25166,1,0,0:0:0:0:
64,192,25317,128,0,25621:0:0:0:0:
448,192,25317,1,0,0:0:0:0:
320,192,25469,1,0,0:0:0:0:
192,192,25621,1,0,0:0:0:0:
192,192,25772,128,0,25924:0:0:0:0:
448,192,25772,128,0,25924:0:0:0:0:
320,192,26075,1,0,0:0:0:0:
448,192,26075,1,0,0:0:0:0:
64,192,26075,128,0,26530:0:0:0:0:
320,192,26227,1,0,0:0:0:0:
448,192,26227,1,0,0:0:0:0:
448,192,26378,1,0,0:0:0:0:
320,192,26378,1,0,0:0:0:0:
192,192,26530,128,0,26984:0:0:0:0:
448,192,26833,1,0,0:0:0:0:
320,192,26833,1,0,0:0:0:0:
320,192,26984,1,0,0:0:0:0:
64,192,26984,1,0,0:0:0:0:
448,192,27136,1,0,0:0:0:0:
192,192,27287,1,0,0:0:0:0:
64,192,27287,1,0,0:0:0:0:
320,192,27287,128,0,27590:0:0:0:0:
192,192,27590,1,0,0:0:0:0:
448,192,27590,1,0,0:0:0:0:
64,192,27742,128,0,28196:0:0:0:0:
320,192,28045,1,0,0:0:0:0:
192,192,28045,1,0,0:0:0:0:
448,192,28196,1,0,0:0:0:0:
192,192,28196,1,0,0:0:0:0:
320,192,28272,1,0,0:0:0:0:
192,192,28348,1,0,0:0:0:0:
64,192,28424,1,0,0:0:0:0:
320,192,28499,1,0,0:0:0:0:
448,192,28499,1,0,0:0:0:0:
192,192,28575,1,0,0:0:0:0:
64,192,28651,1,0,0:0:0:0:
192,192,28727,1,0,0:0:0:0:
320,192,28802,1,0,0:0:0:0:
64,192,28802,1,0,0:0:0:0:
192,192,28878,1,0,0:0:0:0:
320,192,28954,1,0,0:0:0:0:
448,192,29030,1,0,0:0:0:0:
320,192,29105,1,0,0:0:0:0:
192,192,29105,1,0,0:0:0:0:
64,192,29181,1,0,0:0:0:0:
192,192,29257,1,0,0:0:0:0:
320,192,29333,1,0,0:0:0:0:
448,192,29408,1,0,0:0:0:0:
192,192,29408,1,0,0:0:0:0:
320,192,29484,1,0,0:0:0:0:
448,192,29560,1,0,0:0:0:0:
64,192,29560,1,0,0:0:0:0:
320,192,29636,1,0,0:0:0:0:
192,192,29636,1,0,0:0:0:0:
448,192,29711,128,0,30014:0:0:0:0:
64,192,29711,128,0,30014:0:0:0:0:
192,192,30166,128,0,30469:0:0:0:0:
448,192,30166,1,0,0:0:0:0:
320,192,30317,1,0,0:0:0:0:
64,192,30469,1,0,0:0:0:0:
320,192,30620,128,0,30772:0:0:0:0:
64,192,30620,128,0,30772:0:0:0:0:
192,192,30924,1,0,0:0:0:0:
64,192,30924,1,0,0:0:0:0:
448,192,30924,128,0,31378:0:0:0:0:
192,192,31075,1,0,0:0:0:0:
64,192,31075,1,0,0:0:0:0:
192,192,31227,1,0,0:0:0:0:
64,192,31227,1,0,0:0:0:0:
320,192,31378,128,0,31833:0:0:0:0:
192,192,31681,1,0,0:0:0:0:
64,192,31681,1,0,0:0:0:0:
192,192,31833,1,0,0:0:0:0:
448,192,31833,1,0,0:0:0:0:
320,192,31908,1,0,0:0:0:0:
64,192,31908,1,0,0:0:0:0:
192,192,31984,1,0,0:0:0:0:
448,192,31984,1,0,0:0:0:0:
320,192,32136,1,0,0:0:0:0:
192,192,32136,1,0,0:0:0:0:
448,192,32211,1,0,0:0:0:0:
320,192,32287,1,0,0:0:0:0:
192,192,32363,1,0,0:0:0:0:
320,192,32439,1,0,0:0:0:0:
64,192,32439,1,0,0:0:0:0:
192,192,32514,1,0,0:0:0:0:
320,192,32590,1,0,0:0:0:0:
448,192,32666,1,0,0:0:0:0:
192,192,32742,1,0,0:0:0:0:
64,192,32742,1,0,0:0:0:0:
320,192,32817,1,0,0:0:0:0:
448,192,32893,1,0,0:0:0:0:
320,192,32969,1,0,0:0:0:0:
192,192,33045,1,0,0:0:0:0:
448,192,33045,1,0,0:0:0:0:
64,192,33120,1,0,0:0:0:0:
192,192,33196,1,0,0:0:0:0:
320,192,33272,1,0,0:0:0:0:
448,192,33348,128,0,33424:0:0:0:0:
320,192,33424,128,0,33499:0:0:0:0:
192,192,33499,128,0,33575:0:0:0:0:
64,192,33575,128,0,33651:0:0:0:0:
448,192,33651,128,0,33727:0:0:0:0:
320,192,33727,128,0,33802:0:0:0:0:
192,192,33802,128,0,33878:0:0:0:0:
64,192,33878,128,0,33954:0:0:0:0:
448,192,33954,1,0,0:0:0:0:
320,192,33954,1,0,0:0:0:0:
192,192,34030,1,0,0:0:0:0:
64,192,34030,1,0,0:0:0:0:
448,192,34105,1,0,0:0:0:0:
320,192,34105,1,0,0:0:0:0:
192,192,34181,1,0,0:0:0:0:
64,192,34181,1,0,0:0:0:0:
448,192,34257,1,0,0:0:0:0:
320,192,34257,1,0,0:0:0:0:
192,192,34333,1,0,0:0:0:0:
64,192,34333,1,0,0:0:0:0:
448,192,34408,1,0,0:0:0:0:
320,192,34408,1,0,0:0:0:0:
192,192,34484,1,0,0:0:0:0:
64,192,34484,1,0,0:0:0:0:
320,192,34560,128,0,34636:0:0:0:0:
448,192,34560,128,0,34636:0:0:0:0:
448,192,34711,1,0,0:0:0:0:
320,192,34711,1,0,0:0:0:0:
192,192,34863,1,0,0:0:0:0:
192,192,35014,1,0,0:0:0:0:
320,192,35090,1,0,0:0:0:0:
192,192,35166,128,0,35242:0:0:0:0:
64,192,35166,128,0,35242:0:0:0:0:
192,192,35317,1,0,0:0:0:0:
64,192,35317,1,0,0:0:0:0:
448,192,35469,1,0,0:0:0:0:
64,192,35545,1,0,0:0:0:0:
448,192,35620,1,0,0:0:0:0:
64,192,35696,1,0,0:0:0:0:
320,192,35772,128,0,35848:0:0:0:0:
192,192,35772,128,0,35848:0:0:0:0:
320,192,35924,1,0,0:0:0:0:
192,192,35924,1,0,0:0:0:0:
64,192,36075,1,0,0:0:0:0:
192,192,36151,1,0,0:0:0:0:
64,192,36227,1,0,0:0:0:0:
192,192,36302,1,0,0:0:0:0:
64,192,36378,1,0,0:0:0:0:
448,192,36378,1,0,0:0:0:0:
448,192,36530,1,0,0:0:0:0:
64,192,36530,1,0,0:0:0:0:
320,192,36681,1,0,0:0:0:0:
192,192,36681,1,0,0:0:0:0:
320,192,36833,1,0,0:0:0:0:
192,192,36833,1,0,0:0:0:0:
448,192,36984,128,0,37060:0:0:0:0:
64,192,36984,128,0,37060:0:0:0:0:
64,192,37136,1,0,0:0:0:0:
448,192,37136,1,0,0:0:0:0:
320,192,37287,1,0,0:0:0:0:
192,192,37439,1,0,0:0:0:0:
320,192,37514,1,0,0:0:0:0:
192,192,37590,128,0,37666:0:0:0:0:
64,192,37590,128,0,37666:0:0:0:0:
192,192,37742,1,0,0:0:0:0:
64,192,37742,1,0,0:0:0:0:
320,192,37893,1,0,0:0:0:0:
192,192,37969,1,0,0:0:0:0:
320,192,38045,1,0,0:0:0:0:
448,192,38120,1,0,0:0:0:0:
320,192,38196,128,0,38272:0:0:0:0:
192,192,38196,128,0,38272:0:0:0:0:
192,192,38348,1,0,0:0:0:0:
320,192,38348,1,0,0:0:0:0:
64,192,38499,1,0,0:0:0:0:
448,192,38575,1,0,0:0:0:0:
192,192,38651,1,0,0:0:0:0:
320,192,38727,1,0,0:0:0:0:
64,192,38802,1,0,0:0:0:0:
192,192,38802,1,0,0:0:0:0:
320,192,38954,1,0,0:0:0:0:
448,192,38954,1,0,0:0:0:0:
192,192,39105,1,0,0:0:0:0:
64,192,39105,1,0,0:0:0:0:
448,192,39257,1,0,0:0:0:0:
64,192,39257,1,0,0:0:0:0:
320,192,39333,1,0,0:0:0:0:
192,192,39333,1,0,0:0:0:0:
448,192,39408,128,0,39484:0:0:0:0:
64,192,39408,128,0,39484:0:0:0:0:
64,192,39560,1,0,0:0:0:0:
448,192,39560,1,0,0:0:0:0:
320,192,39711,1,0,0:0:0:0:
448,192,39863,1,0,0:0:0:0:
192,192,39939,1,0,0:0:0:0:
320,192,40014,128,0,40090:0:0:0:0:
64,192,40014,128,0,40090:0:0:0:0:
64,192,40166,1,0,0:0:0:0:
320,192,40166,1,0,0:0:0:0:
192,192,40317,1,0,0:0:0:0:
320,192,40393,1,0,0:0:0:0:
64,192,40469,1,0,0:0:0:0:
320,192,40545,1,0,0:0:0:0:
192,192,40620,128,0,40696:0:0:0:0:
448,192,40620,128,0,40696:0:0:0:0:
448,192,40772,1,0,0:0:0:0:
192,192,40772,1,0,0:0:0:0:
64,192,40924,1,0,0:0:0:0:
192,192,40999,1,0,0:0:0:0:
320,192,41075,1,0,0:0:0:0:
448,192,41151,1,0,0:0:0:0:
320,192,41227,128,0,41302:0:0:0:0:
192,192,41227,128,0,41302:0:0:0:0:
320,192,41378,1,0,0:0:0:0:
192,192,41378,1,0,0:0:0:0:
64,192,41530,128,0,41681:0:0:0:0:
448,192,41681,128,0,41833:0:0:0:0:
64,192,41833,1,0,0:0:0:0:
192,192,41833,1,0,0:0:0:0:
192,192,41934,1,0,0:0:0:0:
320,192,41934,1,0,0:0:0:0:
320,192,42035,1,0,0:0:0:0:
448,192,42035,1,0,0:0:0:0:
64,192,42136,1,0,0:0:0:0:
192,192,42136,1,0,0:0:0:0:
192,192,42237,1,0,0:0:0:0:
320,192,42237,1,0,0:0:0:0:
320,192,42338,1,0,0:0:0:0:
448,192,42338,1,0,0:0:0:0:
64,192,42439,1,0,0:0:0:0:
192,192,42439,1,0,0:0:0:0:
64,192,42540,1,0,0:0:0:0:
192,192,42540,1,0,0:0:0:0:
320,192,42641,1,0,0:0:0:0:
448,192,42641,1,0,0:0:0:0:
64,192,42742,1,0,0:0:0:0:
192,192,42742,1,0,0:0:0:0:
64,192,42843,1,0,0:0:0:0:
192,192,42843,1,0,0:0:0:0:
320,192,42944,1,0,0:0:0:0:
448,192,42944,1,0,0:0:0:0:
192,192,43045,1,0,0:0:0:0:
64,192,43045,128,0,43651:0:0:0:0:
192,192,43196,1,0,0:0:0:0:
192,192,43348,128,0,43651:0:0:0:0:
320,192,43348,1,0,0:0:0:0:
320,192,43499,1,0,0:0:0:0:
320,192,43651,128,0,43954:0:0:0:0:
448,192,43651,1,0,0:0:0:0:
448,192,43802,128,0,43954:0:0:0:0:
192,192,43954,1,0,0:0:0:0:
64,192,43954,1,0,0:0:0:0:
448,192,44105,1,0,0:0:0:0:
320,192,44105,1,0,0:0:0:0:
192,192,44181,1,0,0:0:0:0:
64,192,44181,1,0,0:0:0:0:
448,192,44257,128,0,44333:0:0:0:0:
320,192,44257,128,0,44333:0:0:0:0:
320,192,44408,1,0,0:0:0:0:
448,192,44408,1,0,0:0:0:0:
448,192,44560,1,0,0:0:0:0:
192,192,44560,1,0,0:0:0:0:
320,192,44636,1,0,0:0:0:0:
192,192,44711,1,0,0:0:0:0:
64,192,44787,1,0,0:0:0:0:
320,192,44863,1,0,0:0:0:0:
448,192,44863,1,0,0:0:0:0:
192,192,44939,1,0,0:0:0:0:
448,192,45014,1,0,0:0:0:0:
320,192,45090,1,0,0:0:0:0:
192,192,45166,1,0,0:0:0:0:
64,192,45166,1,0,0:0:0:0:
320,192,45242,1,0,0:0:0:0:
192,192,45317,1,0,0:0:0:0:
64,192,45393,1,0,0:0:0:0:
192,192,45469,1,0,0:0:0:0:
320,192,45469,1,0,0:0:0:0:
448,192,45545,1,0,0:0:0:0:
64,192,45620,1,0,0:0:0:0:
192,192,45696,1,0,0:0:0:0:
320,192,45772,1,0,0:0:0:0:
64,192,45772,1,0,0:0:0:0:
192,192,45848,1,0,0:0:0:0:
320,192,45924,1,0,0:0:0:0:
192,192,45999,1,0,0:0:0:0:
64,192,46075,1,0,0:0:0:0:
448,192,46075,1,0,0:0:0:0:
320,192,46151,1,0,0:0:0:0:
192,192,46227,1,0,0:0:0:0:
320,192,46302,1,0,0:0:0:0:
448,192,46378,1,0,0:0:0:0:
192,192,46378,1,0,0:0:0:0:
64,192,46454,1,0,0:0:0:0:
320,192,46530,1,0,0:0:0:0:
192,192,46530,1,0,0:0:0:0:
448,192,46681,128,0,46757:0:0:0:0:
64,192,46681,128,0,46757:0:0:0:0:
448,192,46833,1,0,0:0:0:0:
64,192,46833,1,0,0:0:0:0:
64,192,46984,1,0,0:0:0:0:
320,192,46984,1,0,0:0:0:0:
192,192,47060,1,0,0:0:0:0:
64,192,47136,1,0,0:0:0:0:
192,192,47211,1,0,0:0:0:0:
64,192,47287,1,0,0:0:0:0:
320,192,47287,1,0,0:0:0:0:
448,192,47363,1,0,0:0:0:0:
320,192,47439,1,0,0:0:0:0:
448,192,47514,1,0,0:0:0:0:
192,192,47590,1,0,0:0:0:0:
320,192,47590,1,0,0:0:0:0:
64,192,47666,1,0,0:0:0:0:
192,192,47742,1,0,0:0:0:0:
320,192,47817,1,0,0:0:0:0:
192,192,47893,1,0,0:0:0:0:
448,192,47893,1,0,0:0:0:0:
320,192,47969,1,0,0:0:0:0:
192,192,48045,1,0,0:0:0:0:
64,192,48120,1,0,0:0:0:0:
192,192,48196,1,0,0:0:0:0:
448,192,48196,1,0,0:0:0:0:
320,192,48272,1,0,0:0:0:0:
192,192,48348,1,0,0:0:0:0:
64,192,48424,1,0,0:0:0:0:
448,192,48499,128,0,48651:0:0:0:0:
320,192,48499,128,0,48651:0:0:0:0:
192,192,48651,128,0,48802:0:0:0:0:
64,192,48651,128,0,48802:0:0:0:0:
448,192,48802,128,0,48954:0:0:0:0:
320,192,48802,128,0,48954:0:0:0:0:
192,192,48954,128,0,49105:0:0:0:0:
64,192,48954,128,0,49105:0:0:0:0:
320,192,49105,128,0,49181:0:0:0:0:
448,192,49105,128,0,49181:0:0:0:0:
448,192,49257,1,0,0:0:0:0:
320,192,49257,1,0,0:0:0:0:
64,192,49408,1,0,0:0:0:0:
192,192,49408,1,0,0:0:0:0:
320,192,49484,1,0,0:0:0:0:
192,192,49560,1,0,0:0:0:0:
64,192,49636,1,0,0:0:0:0:
320,192,49711,1,0,0:0:0:0:
448,192,49711,1,0,0:0:0:0:
192,192,49787,1,0,0:0:0:0:
320,192,49863,1,0,0:0:0:0:
448,192,49939,1,0,0:0:0:0:
320,192,50014,1,0,0:0:0:0:
192,192,50014,1,0,0:0:0:0:
64,192,50090,1,0,0:0:0:0:
192,192,50166,1,0,0:0:0:0:
320,192,50242,1,0,0:0:0:0:
192,192,50317,1,0,0:0:0:0:
64,192,50317,1,0,0:0:0:0:
448,192,50393,1,0,0:0:0:0:
320,192,50469,1,0,0:0:0:0:
192,192,50545,1,0,0:0:0:0:
320,192,50620,1,0,0:0:0:0:
448,192,50620,1,0,0:0:0:0:
64,192,50696,1,0,0:0:0:0:
192,192,50772,1,0,0:0:0:0:
320,192,50848,1,0,0:0:0:0:
448,192,50924,1,0,0:0:0:0:
64,192,50924,1,0,0:0:0:0:
320,192,50999,1,0,0:0:0:0:
192,192,51075,1,0,0:0:0:0:
320,192,51151,1,0,0:0:0:0:
192,192,51227,1,0,0:0:0:0:
64,192,51227,1,0,0:0:0:0:
192,192,51378,1,0,0:0:0:0:
64,192,51378,1,0,0:0:0:0:
448,192,51530,1,0,0:0:0:0:
320,192,51530,1,0,0:0:0:0:
320,192,51631,1,0,0:0:0:0:
192,192,51631,1,0,0:0:0:0:
192,192,51732,1,0,0:0:0:0:
64,192,51732,1,0,0:0:0:0:
448,192,51833,1,0,0:0:0:0:
320,192,51833,1,0,0:0:0:0:
320,192,51934,1,0,0:0:0:0:
192,192,51934,1,0,0:0:0:0:
192,192,52035,1,0,0:0:0:0:
64,192,52035,1,0,0:0:0:0:
448,192,52136,1,0,0:0:0:0:
320,192,52136,1,0,0:0:0:0:
448,192,52237,1,0,0:0:0:0:
320,192,52237,1,0,0:0:0:0:
192,192,52338,1,0,0:0:0:0:
64,192,52338,1,0,0:0:0:0:
448,192,52439,1,0,0:0:0:0:
320,192,52439,1,0,0:0:0:0:
448,192,52540,1,0,0:0:0:0:
320,192,52540,1,0,0:0:0:0:
192,192,52641,1,0,0:0:0:0:
64,192,52641,1,0,0:0:0:0:
320,192,52742,1,0,0:0:0:0:
448,192,52742,128,0,53348:0:0:0:0:
320,192,52893,1,0,0:0:0:0:
320,192,53045,128,0,53348:0:0:0:0:
192,192,53045,1,0,0:0:0:0:
192,192,53196,1,0,0:0:0:0:
192,192,53348,128,0,53651:0:0:0:0:
64,192,53348,1,0,0:0:0:0:
64,192,53499,128,0,53651:0:0:0:0:
448,192,53651,1,0,0:0:0:0:
320,192,53651,1,0,0:0:0:0:
192,192,53802,1,0,0:0:0:0:
64,192,53802,1,0,0:0:0:0:
320,192,53878,1,0,0:0:0:0:
448,192,53878,1,0,0:0:0:0:
192,192,53954,1,0,0:0:0:0:
64,192,53954,1,0,0:0:0:0:
448,192,56075,128,0,56151:0:0:0:0:
320,192,56378,128,0,56454:0:0:0:0:
192,192,56984,128,0,57060:0:0:0:0:
64,192,57590,128,0,57666:0:0:0:0:
320,192,58045,1,0,0:0:0:0:
448,192,58045,1,0,0:0:0:0:
192,192,58120,1,0,0:0:0:0:
64,192,58120,1,0,0:0:0:0:
448,192,58196,1,0,0:0:0:0:
320,192,58196,1,0,0:0:0:0:
192,192,58234,1,0,0:0:0:0:
64,192,58234,1,0,0:0:0:0:
320,192,58348,1,0,0:0:0:0:
448,192,58348,1,0,0:0:0:0:
64,192,58499,1,0,0:0:0:0:
448,192,58499,1,0,0:0:0:0:
320,192,58651,1,0,0:0:0:0:
192,192,58651,1,0,0:0:0:0:
448,192,58802,128,0,59408:0:0:0:0:
64,192,58802,1,0,0:0:0:0:
320,192,59105,1,0,0:0:0:0:
192,192,59181,1,0,0:0:0:0:
64,192,59257,1,0,0:0:0:0:
192,192,59333,1,0,0:0:0:0:
320,192,59408,1,0,0:0:0:0:
64,192,59408,1,0,0:0:0:0:
192,192,59484,1,0,0:0:0:0:
320,192,59560,1,0,0:0:0:0:
448,192,59636,1,0,0:0:0:0:
320,192,59711,1,0,0:0:0:0:
192,192,59787,1,0,0:0:0:0:
448,192,59863,1,0,0:0:0:0:
320,192,59863,1,0,0:0:0:0:
192,192,59939,1,0,0:0:0:0:
64,192,60014,128,0,60317:0:0:0:0:
320,192,60317,1,0,0:0:0:0:
192,192,60317,1,0,0:0:0:0:
448,192,60393,1,0,0:0:0:0:
320,192,60469,1,0,0:0:0:0:
192,192,60545,1,0,0:0:0:0:
320,192,60620,1,0,0:0:0:0:
64,192,60620,1,0,0:0:0:0:
192,192,60696,1,0,0:0:0:0:
448,192,60772,1,0,0:0:0:0:
320,192,60772,1,0,0:0:0:0:
64,192,60848,1,0,0:0:0:0:
192,192,60924,1,0,0:0:0:0:
448,192,60999,1,0,0:0:0:0:
320,192,61075,1,0,0:0:0:0:
64,192,61075,1,0,0:0:0:0:
192,192,61151,1,0,0:0:0:0:
448,192,61151,1,0,0:0:0:0:
64,192,61227,128,0,61530:0:0:0:0:
320,192,61227,128,0,61530:0:0:0:0:
192,192,61227,1,0,0:0:0:0:
192,192,61378,128,0,61530:0:0:0:0:
448,192,61530,1,0,0:0:0:0:
192,192,61681,128,0,61984:0:0:0:0:
448,192,61681,128,0,61984:0:0:0:0:
320,192,61681,1,0,0:0:0:0:
320,192,61833,128,0,61984:0:0:0:0:
64,192,61984,1,0,0:0:0:0:
448,192,62136,128,0,62439:0:0:0:0:
64,192,62136,128,0,62439:0:0:0:0:
320,192,62136,1,0,0:0:0:0:
320,192,62287,128,0,62439:0:0:0:0:
192,192,62439,1,0,0:0:0:0:
64,192,62590,128,0,62893:0:0:0:0:
448,192,62590,128,0,62893:0:0:0:0:
192,192,62590,1,0,0:0:0:0:
192,192,62742,128,0,62893:0:0:0:0:
320,192,62893,1,0,0:0:0:0:
448,192,63045,128,0,63120:0:0:0:0:
64,192,63196,128,0,63272:0:0:0:0:
320,192,63348,128,0,63424:0:0:0:0:
192,192,63499,128,0,63575:0:0:0:0:
64,192,63651,128,0,63802:0:0:0:0:
448,192,63651,128,0,63802:0:0:0:0:
64,192,63954,1,0,0:0:0:0:
192,192,63954,1,0,0:0:0:0:
320,192,64030,1,0,0:0:0:0:
448,192,64105,1,0,0:0:0:0:
192,192,64181,1,0,0:0:0:0:
320,192,64257,1,0,0:0:0:0:
448,192,64257,1,0,0:0:0:0:
192,192,64333,1,0,0:0:0:0:
64,192,64408,1,0,0:0:0:0:
192,192,64484,1,0,0:0:0:0:
448,192,64560,1,0,0:0:0:0:
64,192,64560,1,0,0:0:0:0:
448,192,64863,1,0,0:0:0:0:
320,192,64863,1,0,0:0:0:0:
64,192,64939,1,0,0:0:0:0:
448,192,65014,1,0,0:0:0:0:
64,192,65090,1,0,0:0:0:0:
320,192,65166,1,0,0:0:0:0:
448,192,65166,1,0,0:0:0:0:
192,192,65242,1,0,0:0:0:0:
320,192,65317,1,0,0:0:0:0:
192,192,65393,1,0,0:0:0:0:
320,192,65469,1,0,0:0:0:0:
64,192,65469,1,0,0:0:0:0:
192,192,65545,1,0,0:0:0:0:
320,192,65620,1,0,0:0:0:0:
192,192,65696,1,0,0:0:0:0:
64,192,65772,1,0,0:0:0:0:
448,192,65772,1,0,0:0:0:0:
320,192,65848,1,0,0:0:0:0:
64,192,65924,1,0,0:0:0:0:
448,192,65924,1,0,0:0:0:0:
192,192,65999,1,0,0:0:0:0:
320,192,65999,1,0,0:0:0:0:
448,192,66075,128,0,66227:0:0:0:0:
64,192,66075,128,0,66227:0:0:0:0:
448,192,66378,1,0,0:0:0:0:
320,192,66378,1,0,0:0:0:0:
64,192,66454,1,0,0:0:0:0:
192,192,66530,1,0,0:0:0:0:
64,192,66605,1,0,0:0:0:0:
192,192,66681,1,0,0:0:0:0:
320,192,66681,1,0,0:0:0:0:
448,192,66757,1,0,0:0:0:0:
320,192,66833,1,0,0:0:0:0:
448,192,66908,1,0,0:0:0:0:
192,192,66984,1,0,0:0:0:0:
64,192,66984,1,0,0:0:0:0:
320,192,67136,1,0,0:0:0:0:
448,192,67136,1,0,0:0:0:0:
64,192,67287,1,0,0:0:0:0:
320,192,67287,1,0,0:0:0:0:
192,192,67363,1,0,0:0:0:0:
320,192,67439,1,0,0:0:0:0:
448,192,67514,1,0,0:0:0:0:
64,192,67590,1,0,0:0:0:0:
192,192,67590,1,0,0:0:0:0:
320,192,67666,1,0,0:0:0:0:
448,192,67742,1,0,0:0:0:0:
320,192,67817,1,0,0:0:0:0:
192,192,67893,1,0,0:0:0:0:
448,192,67893,1,0,0:0:0:0:
320,192,67969,1,0,0:0:0:0:
192,192,68045,1,0,0:0:0:0:
448,192,68045,1,0,0:0:0:0:
64,192,68120,1,0,0:0:0:0:
192,192,68196,1,0,0:0:0:0:
320,192,68196,1,0,0:0:0:0:
448,192,68272,1,0,0:0:0:0:
320,192,68348,1,0,0:0:0:0:
192,192,68348,1,0,0:0:0:0:
64,192,68424,1,0,0:0:0:0:
448,192,68499,1,0,0:0:0:0:
320,192,68499,1,0,0:0:0:0:
192,192,68499,1,0,0:0:0:0:
64,192,68651,1,0,0:0:0:0:
192,192,68651,1,0,0:0:0:0:
320,192,68651,1,0,0:0:0:0:
448,192,68802,128,0,68954:0:0:0:0:
320,192,68802,128,0,68954:0:0:0:0:
192,192,68802,128,0,68954:0:0:0:0:
64,192,69105,1,0,0:0:0:0:
192,192,69181,1,0,0:0:0:0:
320,192,69257,1,0,0:0:0:0:
448,192,69333,1,0,0:0:0:0:
64,192,69408,1,0,0:0:0:0:
192,192,69408,1,0,0:0:0:0:
320,192,69408,1,0,0:0:0:0:
320,192,69560,1,0,0:0:0:0:
192,192,69560,1,0,0:0:0:0:
448,192,69560,1,0,0:0:0:0:
64,192,69711,1,0,0:0:0:0:
192,192,69711,1,0,0:0:0:0:
448,192,69711,1,0,0:0:0:0:
64,192,69863,1,0,0:0:0:0:
320,192,69863,1,0,0:0:0:0:
448,192,69863,1,0,0:0:0:0:
448,192,70014,128,0,70166:0:0:0:0:
192,192,70014,128,0,70166:0:0:0:0:
64,192,70014,128,0,70166:0:0:0:0:
64,192,70317,1,0,0:0:0:0:
192,192,70393,1,0,0:0:0:0:
448,192,70469,1,0,0:0:0:0:
320,192,70469,1,0,0:0:0:0:
192,192,70545,1,0,0:0:0:0:
64,192,70545,1,0,0:0:0:0:
320,192,70620,1,0,0:0:0:0:
448,192,70620,1,0,0:0:0:0:
192,192,70696,1,0,0:0:0:0:
64,192,70772,1,0,0:0:0:0:
320,192,70772,1,0,0:0:0:0:
192,192,70848,1,0,0:0:0:0:
64,192,70924,1,0,0:0:0:0:
320,192,70924,1,0,0:0:0:0:
448,192,70924,1,0,0:0:0:0:
64,192,71075,1,0,0:0:0:0:
192,192,71075,1,0,0:0:0:0:
320,192,71075,1,0,0:0:0:0:
64,192,71227,128,0,71378:0:0:0:0:
320,192,71227,128,0,71378:0:0:0:0:
448,192,71227,128,0,71378:0:0:0:0:
320,192,71530,1,0,0:0:0:0:
192,192,71605,1,0,0:0:0:0:
448,192,71681,1,0,0:0:0:0:
64,192,71757,1,0,0:0:0:0:
192,192,71833,1,0,0:0:0:0:
320,192,71833,1,0,0:0:0:0:
448,192,71833,1,0,0:0:0:0:
64,192,71984,1,0,0:0:0:0:
192,192,71984,1,0,0:0:0:0:
320,192,71984,1,0,0:0:0:0:
64,192,72136,1,0,0:0:0:0:
448,192,72136,1,0,0:0:0:0:
192,192,72136,1,0,0:0:0:0:
64,192,72287,1,0,0:0:0:0:
320,192,72287,1,0,0:0:0:0:
448,192,72287,1,0,0:0:0:0:
64,192,72439,128,0,72590:0:0:0:0:
192,192,72439,128,0,72590:0:0:0:0:
448,192,72439,128,0,72590:0:0:0:0:
320,192,72590,1,0,0:0:0:0:
192,192,72666,1,0,0:0:0:0:
64,192,72742,1,0,0:0:0:0:
320,192,72742,1,0,0:0:0:0:
448,192,72742,1,0,0:0:0:0:
64,192,72893,1,0,0:0:0:0:
192,192,72893,1,0,0:0:0:0:
448,192,72893,1,0,0:0:0:0:
64,192,73045,128,0,73196:0:0:0:0:
320,192,73045,128,0,73196:0:0:0:0:
448,192,73045,128,0,73196:0:0:0:0:
192,192,73348,128,0,73651:0:0:0:0:
448,192,73348,128,0,73802:0:0:0:0:
64,192,73802,1,0,0:0:0:0:
192,192,73840,1,0,0:0:0:0:
320,192,73878,1,0,0:0:0:0:
448,192,73916,1,0,0:0:0:0:
64,192,73954,1,0,0:0:0:0:
192,192,73992,1,0,0:0:0:0:
320,192,74030,1,0,0:0:0:0:
448,192,74067,1,0,0:0:0:0:
64,192,74105,1,0,0:0:0:0:
192,192,74143,1,0,0:0:0:0:
320,192,74181,1,0,0:0:0:0:
448,192,74219,1,0,0:0:0:0:
64,192,74257,1,0,0:0:0:0:
192,192,74295,1,0,0:0:0:0:
320,192,74333,1,0,0:0:0:0:
448,192,74370,1,0,0:0:0:0:
64,192,74408,1,0,0:0:0:0:
192,192,74446,1,0,0:0:0:0:
448,192,74484,1,0,0:0:0:0:
320,192,74522,1,0,0:0:0:0:
64,192,74560,1,0,0:0:0:0:
192,192,74598,1,0,0:0:0:0:
448,192,74636,1,0,0:0:0:0:
320,192,74674,1,0,0:0:0:0:
64,192,74711,1,0,0:0:0:0:
192,192,74749,1,0,0:0:0:0:
448,192,74787,1,0,0:0:0:0:
320,192,74825,1,0,0:0:0:0:
64,192,74863,1,0,0:0:0:0:
192,192,74901,1,0,0:0:0:0:
448,192,74939,1,0,0:0:0:0:
320,192,74977,1,0,0:0:0:0:
192,192,75014,1,0,0:0:0:0:
64,192,75052,1,0,0:0:0:0:
448,192,75090,1,0,0:0:0:0:
320,192,75128,1,0,0:0:0:0:
192,192,75166,1,0,0:0:0:0:
64,192,75204,1,0,0:0:0:0:
448,192,75242,1,0,0:0:0:0:
320,192,75280,1,0,0:0:0:0:
192,192,75317,1,0,0:0:0:0:
64,192,75355,1,0,0:0:0:0:
448,192,75393,1,0,0:0:0:0:
320,192,75431,1,0,0:0:0:0:
64,192,75469,1,0,0:0:0:0:
192,192,75507,1,0,0:0:0:0:
448,192,75545,1,0,0:0:0:0:
320,192,75583,1,0,0:0:0:0:
64,192,75620,1,0,0:0:0:0:
192,192,75658,1,0,0:0:0:0:
448,192,75696,1,0,0:0:0:0:
320,192,75734,1,0,0:0:0:0:
192,192,75772,1,0,0:0:0:0:
64,192,75772,1,0,0:0:0:0:
320,192,75848,1,0,0:0:0:0:
192,192,75924,1,0,0:0:0:0:
64,192,75924,1,0,0:0:0:0:
448,192,75999,1,0,0:0:0:0:
192,192,76075,1,0,0:0:0:0:
64,192,76075,1,0,0:0:0:0:
448,192,76151,1,0,0:0:0:0:
64,192,76227,1,0,0:0:0:0:
192,192,76227,1,0,0:0:0:0:
320,192,76302,1,0,0:0:0:0:
448,192,76378,1,0,0:0:0:0:
320,192,76378,1,0,0:0:0:0:
192,192,76454,1,0,0:0:0:0:
448,192,76530,1,0,0:0:0:0:
320,192,76530,1,0,0:0:0:0:
64,192,76605,1,0,0:0:0:0:
448,192,76681,1,0,0:0:0:0:
320,192,76681,1,0,0:0:0:0:
64,192,76757,1,0,0:0:0:0:
448,192,76833,1,0,0:0:0:0:
320,192,76833,1,0,0:0:0:0:
192,192,76908,1,0,0:0:0:0:
448,192,76984,1,0,0:0:0:0:
64,192,76984,1,0,0:0:0:0:
320,192,77060,1,0,0:0:0:0:
192,192,77060,1,0,0:0:0:0:
448,192,77136,1,0,0:0:0:0:
64,192,77136,1,0,0:0:0:0:
320,192,77211,1,0,0:0:0:0:
192,192,77211,1,0,0:0:0:0:
448,192,77287,1,0,0:0:0:0:
64,192,77287,1,0,0:0:0:0:
320,192,77363,1,0,0:0:0:0:
192,192,77363,1,0,0:0:0:0:
448,192,77439,1,0,0:0:0:0:
64,192,77439,1,0,0:0:0:0:
320,192,77514,1,0,0:0:0:0:
192,192,77514,1,0,0:0:0:0:
448,192,77590,1,0,0:0:0:0:
320,192,77590,1,0,0:0:0:0:
192,192,77666,1,0,0:0:0:0:
64,192,77666,1,0,0:0:0:0:
448,192,77742,1,0,0:0:0:0:
320,192,77742,1,0,0:0:0:0:
192,192,77817,1,0,0:0:0:0:
64,192,77817,1,0,0:0:0:0:
448,192,77893,1,0,0:0:0:0:
320,192,77893,1,0,0:0:0:0:
192,192,77969,1,0,0:0:0:0:
64,192,77969,1,0,0:0:0:0:
448,192,78045,1,0,0:0:0:0:
320,192,78045,1,0,0:0:0:0:
192,192,78120,1,0,0:0:0:0:
64,192,78120,1,0,0:0:0:0:
448,192,78499,128,0,78802:0:0:0:0:
64,192,78499,128,0,78802:0:0:0:0:
192,192,78651,1,0,0:0:0:0:
320,192,78727,1,0,0:0:0:0:
192,192,78802,1,0,0:0:0:0:
320,192,78878,1,0,0:0:0:0:
448,192,78954,1,0,0:0:0:0:
320,192,79030,1,0,0:0:0:0:
192,192,79105,1,0,0:0:0:0:
64,192,79105,128,0,79257:0:0:0:0:
320,192,79257,1,0,0:0:0:0:
192,192,79257,128,0,79408:0:0:0:0:
448,192,79408,1,0,0:0:0:0:
320,192,79408,128,0,79560:0:0:0:0:
192,192,79560,1,0,0:0:0:0:
64,192,79711,1,0,0:0:0:0:
192,192,79787,1,0,0:0:0:0:
448,192,79863,128,0,80166:0:0:0:0:
192,192,80014,1,0,0:0:0:0:
64,192,80014,1,0,0:0:0:0:
320,192,80166,128,0,80317:0:0:0:0:
64,192,80166,1,0,0:0:0:0:
448,192,80317,1,0,0:0:0:0:
64,192,80469,1,0,0:0:0:0:
192,192,80469,1,0,0:0:0:0:
320,192,80545,1,0,0:0:0:0:
448,192,80545,1,0,0:0:0:0:
64,192,80620,128,0,80772:0:0:0:0:
192,192,80620,128,0,80772:0:0:0:0:
320,192,80924,128,0,81227:0:0:0:0:
64,192,80924,1,0,0:0:0:0:
192,192,80999,1,0,0:0:0:0:
448,192,81075,128,0,81227:0:0:0:0:
64,192,81075,1,0,0:0:0:0:
192,192,81151,1,0,0:0:0:0:
64,192,81227,1,0,0:0:0:0:
192,192,81302,1,0,0:0:0:0:
320,192,81378,1,0,0:0:0:0:
448,192,81454,1,0,0:0:0:0:
320,192,81530,1,0,0:0:0:0:
448,192,81605,1,0,0:0:0:0:
320,192,81681,1,0,0:0:0:0:
192,192,81757,1,0,0:0:0:0:
64,192,81833,1,0,0:0:0:0:
64,192,82060,1,0,0:0:0:0:
448,192,82136,1,0,0:0:0:0:
320,192,82136,1,0,0:0:0:0:
448,192,82363,1,0,0:0:0:0:
64,192,82439,1,0,0:0:0:0:
192,192,82439,1,0,0:0:0:0:
192,192,82666,1,0,0:0:0:0:
448,192,82742,1,0,0:0:0:0:
320,192,82742,1,0,0:0:0:0:
64,192,82893,1,0,0:0:0:0:
192,192,82893,1,0,0:0:0:0:
320,192,83045,1,0,0:0:0:0:
448,192,83045,128,0,83348:0:0:0:0:
64,192,83196,1,0,0:0:0:0:
192,192,83348,1,0,0:0:0:0:
320,192,83424,1,0,0:0:0:0:
192,192,83499,1,0,0:0:0:0:
64,192,83575,1,0,0:0:0:0:
448,192,83651,1,0,0:0:0:0:
192,192,83651,1,0,0:0:0:0:
320,192,83727,1,0,0:0:0:0:
192,192,83802,1,0,0:0:0:0:
64,192,83878,1,0,0:0:0:0:
320,192,83954,1,0,0:0:0:0:
448,192,84030,1,0,0:0:0:0:
192,192,84105,1,0,0:0:0:0:
320,192,84105,1,0,0:0:0:0:
64,192,84181,1,0,0:0:0:0:
192,192,84257,128,0,84408:0:0:0:0:
448,192,84257,128,0,84408:0:0:0:0:
64,192,84560,128,0,84636:0:0:0:0:
192,192,84560,1,0,0:0:0:0:
320,192,84636,1,0,0:0:0:0:
64,192,84711,1,0,0:0:0:0:
192,192,84711,128,0,84787:0:0:0:0:
448,192,84787,1,0,0:0:0:0:
320,192,84863,1,0,0:0:0:0:
64,192,84939,1,0,0:0:0:0:
320,192,85014,1,0,0:0:0:0:
192,192,85014,1,0,0:0:0:0:
64,192,85166,1,0,0:0:0:0:
448,192,85166,1,0,0:0:0:0:
192,192,85317,1,0,0:0:0:0:
320,192,85317,1,0,0:0:0:0:
64,192,85393,1,0,0:0:0:0:
448,192,85393,1,0,0:0:0:0:
320,192,85469,1,0,0:0:0:0:
448,192,85469,1,0,0:0:0:0:
64,192,85545,1,0,0:0:0:0:
320,192,85620,1,0,0:0:0:0:
192,192,85696,1,0,0:0:0:0:
448,192,85772,1,0,0:0:0:0:
64,192,85848,1,0,0:0:0:0:
320,192,85924,1,0,0:0:0:0:
192,192,85999,1,0,0:0:0:0:
448,192,86075,1,0,0:0:0:0:
320,192,86075,1,0,0:0:0:0:
64,192,86151,1,0,0:0:0:0:
320,192,86227,1,0,0:0:0:0:
192,192,86302,1,0,0:0:0:0:
448,192,86378,1,0,0:0:0:0:
64,192,86454,1,0,0:0:0:0:
320,192,86530,1,0,0:0:0:0:
64,192,86605,1,0,0:0:0:0:
448,192,86681,128,0,86757:0:0:0:0:
192,192,86681,128,0,86757:0:0:0:0:
192,192,86833,1,0,0:0:0:0:
448,192,86833,1,0,0:0:0:0:
320,192,86908,1,0,0:0:0:0:
448,192,86984,1,0,0:0:0:0:
192,192,86984,1,0,0:0:0:0:
320,192,87136,128,0,87211:0:0:0:0:
64,192,87136,128,0,87211:0:0:0:0:
320,192,87287,1,0,0:0:0:0:
64,192,87287,1,0,0:0:0:0:
192,192,87363,1,0,0:0:0:0:
320,192,87439,1,0,0:0:0:0:
64,192,87439,1,0,0:0:0:0:
448,192,87590,128,0,87742:0:0:0:0:
64,192,87590,128,0,87742:0:0:0:0:
192,192,87893,128,0,88196:0:0:0:0:
320,192,88196,1,0,0:0:0:0:
448,192,88196,1,0,0:0:0:0:
64,192,88272,1,0,0:0:0:0:
192,192,88348,1,0,0:0:0:0:
320,192,88424,128,0,88499:0:0:0:0:
192,192,88651,1,0,0:0:0:0:
320,192,88651,1,0,0:0:0:0:
64,192,88802,1,0,0:0:0:0:
448,192,88802,1,0,0:0:0:0:
192,192,88878,1,0,0:0:0:0:
320,192,88954,1,0,0:0:0:0:
64,192,89105,1,0,0:0:0:0:
192,192,89105,1,0,0:0:0:0:
320,192,89181,1,0,0:0:0:0:
448,192,89257,1,0,0:0:0:0:
320,192,89333,1,0,0:0:0:0:
448,192,89408,1,0,0:0:0:0:
192,192,89408,1,0,0:0:0:0:
320,192,89484,1,0,0:0:0:0:
64,192,89560,128,0,89711:0:0:0:0:
192,192,89863,1,0,0:0:0:0:
320,192,89863,1,0,0:0:0:0:
448,192,89939,1,0,0:0:0:0:
192,192,90014,1,0,0:0:0:0:
64,192,90014,1,0,0:0:0:0:
320,192,90090,1,0,0:0:0:0:
192,192,90166,1,0,0:0:0:0:
448,192,90166,1,0,0:0:0:0:
320,192,90242,1,0,0:0:0:0:
64,192,90242,1,0,0:0:0:0:
192,192,90317,1,0,0:0:0:0:
448,192,90317,1,0,0:0:0:0:
64,192,90393,1,0,0:0:0:0:
192,192,90469,1,0,0:0:0:0:
320,192,90545,1,0,0:0:0:0:
192,192,90620,1,0,0:0:0:0:
64,192,90620,128,0,90772:0:0:0:0:
448,192,90772,128,0,90924:0:0:0:0:
192,192,90924,1,0,0:0:0:0:
320,192,90999,1,0,0:0:0:0:
64,192,91075,1,0,0:0:0:0:
192,192,91075,1,0,0:0:0:0:
320,192,91151,1,0,0:0:0:0:
448,192,91227,1,0,0:0:0:0:
192,192,91227,1,0,0:0:0:0:
64,192,91302,1,0,0:0:0:0:
192,192,91378,1,0,0:0:0:0:
448,192,91454,1,0,0:0:0:0:
192,192,91530,1,0,0:0:0:0:
320,192,91530,1,0,0:0:0:0:
64,192,91605,1,0,0:0:0:0:
192,192,91681,1,0,0:0:0:0:
320,192,91757,1,0,0:0:0:0:
448,192,91833,1,0,0:0:0:0:
64,192,91833,1,0,0:0:0:0:
320,192,91908,1,0,0:0:0:0:
192,192,91984,1,0,0:0:0:0:
448,192,92060,1,0,0:0:0:0:
64,192,92060,1,0,0:0:0:0:
192,192,92136,1,0,0:0:0:0:
320,192,92136,1,0,0:0:0:0:
64,192,92211,1,0,0:0:0:0:
320,192,92287,1,0,0:0:0:0:
192,192,92287,1,0,0:0:0:0:
448,192,92363,1,0,0:0:0:0:
64,192,92439,1,0,0:0:0:0:
192,192,92439,1,0,0:0:0:0:
320,192,92514,1,0,0:0:0:0:
448,192,92590,1,0,0:0:0:0:
320,192,92666,1,0,0:0:0:0:
64,192,92742,1,0,0:0:0:0:
192,192,92780,1,0,0:0:0:0:
320,192,92817,1,0,0:0:0:0:
192,192,92855,1,0,0:0:0:0:
320,192,92893,1,0,0:0:0:0:
448,192,92931,1,0,0:0:0:0:
64,192,92969,1,0,0:0:0:0:
192,192,93007,1,0,0:0:0:0:
320,192,93045,1,0,0:0:0:0:
192,192,93083,1,0,0:0:0:0:
320,192,93120,1,0,0:0:0:0:
448,192,93158,1,0,0:0:0:0:
64,192,93196,1,0,0:0:0:0:
192,192,93234,1,0,0:0:0:0:
448,192,93272,1,0,0:0:0:0:
320,192,93310,1,0,0:0:0:0:
64,192,93348,1,0,0:0:0:0:
192,192,93386,1,0,0:0:0:0:
448,192,93424,1,0,0:0:0:0:
320,192,93461,1,0,0:0:0:0:
64,192,93499,1,0,0:0:0:0:
192,192,93537,1,0,0:0:0:0:
448,192,93575,1,0,0:0:0:0:
320,192,93613,1,0,0:0:0:0:
64,192,93651,1,0,0:0:0:0:
192,192,93689,1,0,0:0:0:0:
320,192,93727,1,0,0:0:0:0:
448,192,93764,1,0,0:0:0:0:
64,192,93802,1,0,0:0:0:0:
192,192,93840,1,0,0:0:0:0:
320,192,93878,1,0,0:0:0:0:
448,192,93916,1,0,0:0:0:0:
64,192,93954,1,0,0:0:0:0:
192,192,93954,1,0,0:0:0:0:
448,192,94105,1,0,0:0:0:0:
64,192,94257,1,0,0:0:0:0:
448,192,94257,1,0,0:0:0:0:
192,192,94358,1,0,0:0:0:0:
320,192,94459,1,0,0:0:0:0:
192,192,94560,1,0,0:0:0:0:
320,192,94661,1,0,0:0:0:0:
448,192,94762,1,0,0:0:0:0:
64,192,94863,1,0,0:0:0:0:
320,192,94863,1,0,0:0:0:0:
192,192,94964,1,0,0:0:0:0:
320,192,95065,1,0,0:0:0:0:
192,192,95166,1,0,0:0:0:0:
64,192,95166,128,0,95469:0:0:0:0:
320,192,95469,1,0,0:0:0:0:
192,192,95469,1,0,0:0:0:0:
448,192,95545,1,0,0:0:0:0:
320,192,95620,1,0,0:0:0:0:
192,192,95696,1,0,0:0:0:0:
448,192,95772,1,0,0:0:0:0:
320,192,95848,1,0,0:0:0:0:
192,192,95924,1,0,0:0:0:0:
448,192,95924,1,0,0:0:0:0:
64,192,95999,1,0,0:0:0:0:
448,192,96075,128,0,96151:0:0:0:0:
192,192,96075,128,0,96151:0:0:0:0:
320,192,96227,128,0,96302:0:0:0:0:
448,192,96378,1,0,0:0:0:0:
64,192,96378,1,0,0:0:0:0:
448,192,96530,1,0,0:0:0:0:
64,192,96530,1,0,0:0:0:0:
192,192,96605,1,0,0:0:0:0:
320,192,96605,1,0,0:0:0:0:
64,192,96681,1,0,0:0:0:0:
448,192,96681,1,0,0:0:0:0:
192,192,96833,1,0,0:0:0:0:
320,192,96833,1,0,0:0:0:0:
192,192,96984,1,0,0:0:0:0:
320,192,96984,1,0,0:0:0:0:
448,192,97060,1,0,0:0:0:0:
64,192,97060,1,0,0:0:0:0:
192,192,97136,1,0,0:0:0:0:
320,192,97136,1,0,0:0:0:0:
448,192,97287,128,0,97590:0:0:0:0:
192,192,97287,128,0,97363:0:0:0:0:
64,192,97439,128,0,97514:0:0:0:0:
192,192,97590,128,0,98045:0:0:0:0:
320,192,97590,128,0,97893:0:0:0:0:
320,192,98045,1,0,0:0:0:0:
64,192,98348,1,0,0:0:0:0:
448,192,98499,1,0,0:0:0:0:
192,192,98651,1,0,0:0:0:0:
64,192,98802,1,0,0:0:0:0:
192,192,98878,1,0,0:0:0:0:
64,192,98954,1,0,0:0:0:0:
192,192,99030,1,0,0:0:0:0:
320,192,99105,1,0,0:0:0:0:
448,192,99181,1,0,0:0:0:0:
320,192,99257,1,0,0:0:0:0:
192,192,99333,1,0,0:0:0:0:
320,192,99408,1,0,0:0:0:0:
192,192,99484,1,0,0:0:0:0:
64,192,99560,1,0,0:0:0:0:
448,192,99560,1,0,0:0:0:0:
192,192,99636,1,0,0:0:0:0:
448,192,99711,1,0,0:0:0:0:
320,192,99787,1,0,0:0:0:0:
192,192,99863,1,0,0:0:0:0:
448,192,99863,1,0,0:0:0:0:
64,192,99939,1,0,0:0:0:0:
320,192,100014,1,0,0:0:0:0:
192,192,100014,1,0,0:0:0:0:
448,192,100014,128,0,100469:0:0:0:0:
192,192,100166,1,0,0:0:0:0:
64,192,100166,1,0,0:0:0:0:
320,192,100317,1,0,0:0:0:0:
192,192,100469,1,0,0:0:0:0:
64,192,100469,1,0,0:0:0:0:
192,192,100620,1,0,0:0:0:0:
320,192,100772,1,0,0:0:0:0:
448,192,100924,1,0,0:0:0:0:
64,192,100924,1,0,0:0:0:0:
320,192,101075,1,0,0:0:0:0:
64,192,101075,1,0,0:0:0:0:
64,192,101227,1,0,0:0:0:0:
192,192,101302,1,0,0:0:0:0:
448,192,101378,1,0,0:0:0:0:
320,192,101378,1,0,0:0:0:0:
448,192,101454,1,0,0:0:0:0:
320,192,101454,1,0,0:0:0:0:
64,192,101530,1,0,0:0:0:0:
192,192,101530,1,0,0:0:0:0:
192,192,101605,1,0,0:0:0:0:
448,192,101681,1,0,0:0:0:0:
320,192,101681,1,0,0:0:0:0:
448,192,101757,1,0,0:0:0:0:
320,192,101757,1,0,0:0:0:0:
64,192,101833,1,0,0:0:0:0:
192,192,101833,1,0,0:0:0:0:
64,192,101908,1,0,0:0:0:0:
448,192,101984,1,0,0:0:0:0:
320,192,101984,1,0,0:0:0:0:
448,192,102060,1,0,0:0:0:0:
320,192,102060,1,0,0:0:0:0:
64,192,102136,1,0,0:0:0:0:
192,192,102136,1,0,0:0:0:0:
192,192,102211,1,0,0:0:0:0:
448,192,102287,1,0,0:0:0:0:
320,192,102287,1,0,0:0:0:0:
448,192,102363,1,0,0:0:0:0:
192,192,102439,128,0,102514:0:0:0:0:
64,192,102439,128,0,102514:0:0:0:0:
192,192,102590,1,0,0:0:0:0:
64,192,102590,1,0,0:0:0:0:
64,192,102742,1,0,0:0:0:0:
448,192,102742,1,0,0:0:0:0:
192,192,102893,1,0,0:0:0:0:
192,192,103045,1,0,0:0:0:0:
320,192,103045,1,0,0:0:0:0:
192,192,103196,1,0,0:0:0:0:
64,192,103348,1,0,0:0:0:0:
448,192,103348,1,0,0:0:0:0:
448,192,103499,1,0,0:0:0:0:
64,192,103499,1,0,0:0:0:0:
192,192,103575,1,0,0:0:0:0:
320,192,103575,1,0,0:0:0:0:
448,192,103651,1,0,0:0:0:0:
64,192,103651,1,0,0:0:0:0:
192,192,103727,1,0,0:0:0:0:
448,192,103802,1,0,0:0:0:0:
320,192,103878,1,0,0:0:0:0:
64,192,103878,1,0,0:0:0:0:
192,192,103954,1,0,0:0:0:0:
320,192,104030,1,0,0:0:0:0:
448,192,104105,1,0,0:0:0:0:
64,192,104105,1,0,0:0:0:0:
192,192,104181,1,0,0:0:0:0:
320,192,104257,1,0,0:0:0:0:
192,192,104333,1,0,0:0:0:0:
448,192,104333,1,0,0:0:0:0:
320,192,104408,1,0,0:0:0:0:
192,192,104484,1,0,0:0:0:0:
448,192,104560,1,0,0:0:0:0:
64,192,104560,1,0,0:0:0:0:
192,192,104636,1,0,0:0:0:0:
320,192,104711,1,0,0:0:0:0:
448,192,104711,1,0,0:0:0:0:
64,192,104787,1,0,0:0:0:0:
320,192,104863,128,0,104939:0:0:0:0:
448,192,104863,128,0,104939:0:0:0:0:
320,192,105014,1,0,0:0:0:0:
448,192,105014,1,0,0:0:0:0:
64,192,105166,1,0,0:0:0:0:
448,192,105166,1,0,0:0:0:0:
320,192,105317,1,0,0:0:0:0:
320,192,105469,1,0,0:0:0:0:
448,192,105469,1,0,0:0:0:0:
320,192,105620,1,0,0:0:0:0:
192,192,105772,1,0,0:0:0:0:
320,192,105772,1,0,0:0:0:0:
192,192,105924,1,0,0:0:0:0:
320,192,105924,1,0,0:0:0:0:
64,192,105999,1,0,0:0:0:0:
448,192,105999,1,0,0:0:0:0:
192,192,106075,1,0,0:0:0:0:
320,192,106075,1,0,0:0:0:0:
448,192,106151,1,0,0:0:0:0:
320,192,106227,1,0,0:0:0:0:
192,192,106302,1,0,0:0:0:0:
64,192,106302,1,0,0:0:0:0:
320,192,106378,1,0,0:0:0:0:
448,192,106454,1,0,0:0:0:0:
320,192,106530,1,0,0:0:0:0:
64,192,106530,1,0,0:0:0:0:
192,192,106605,1,0,0:0:0:0:
320,192,106681,1,0,0:0:0:0:
448,192,106757,1,0,0:0:0:0:
64,192,106757,1,0,0:0:0:0:
192,192,106833,1,0,0:0:0:0:
320,192,106908,1,0,0:0:0:0:
192,192,106984,1,0,0:0:0:0:
448,192,106984,1,0,0:0:0:0:
320,192,107060,1,0,0:0:0:0:
448,192,107136,1,0,0:0:0:0:
64,192,107136,1,0,0:0:0:0:
320,192,107211,1,0,0:0:0:0:
192,192,107287,128,0,107439:0:0:0:0:
64,192,107287,128,0,107590:0:0:0:0:
320,192,107439,128,0,107590:0:0:0:0:
448,192,107590,128,0,107742:0:0:0:0:
64,192,107742,128,0,108196:0:0:0:0:
320,192,107742,128,0,108045:0:0:0:0:
192,192,107893,128,0,108045:0:0:0:0:
448,192,108045,128,0,108196:0:0:0:0:
320,192,108196,128,0,108651:0:0:0:0:
192,192,108196,128,0,108348:0:0:0:0:
64,192,108348,128,0,108499:0:0:0:0:
448,192,108499,128,0,108802:0:0:0:0:
192,192,108651,128,0,108802:0:0:0:0:
64,192,108651,128,0,108954:0:0:0:0:
320,192,108802,128,0,109105:0:0:0:0:
448,192,108954,128,0,109105:0:0:0:0:
64,192,109105,1,0,0:0:0:0:
320,192,109257,1,0,0:0:0:0:
448,192,109408,1,0,0:0:0:0:
320,192,109484,1,0,0:0:0:0:
192,192,109560,1,0,0:0:0:0:
64,192,109636,1,0,0:0:0:0:
448,192,109711,128,0,110014:0:0:0:0:
320,192,109711,1,0,0:0:0:0:
320,192,110014,1,0,0:0:0:0:
192,192,110014,1,0,0:0:0:0:
64,192,110090,1,0,0:0:0:0:
192,192,110166,1,0,0:0:0:0:
320,192,110166,1,0,0:0:0:0:
448,192,110242,1,0,0:0:0:0:
320,192,110317,1,0,0:0:0:0:
192,192,110317,1,0,0:0:0:0:
64,192,110393,1,0,0:0:0:0:
192,192,110469,1,0,0:0:0:0:
320,192,110469,1,0,0:0:0:0:
448,192,110545,1,0,0:0:0:0:
320,192,110620,1,0,0:0:0:0:
192,192,110620,1,0,0:0:0:0:
64,192,110696,1,0,0:0:0:0:
192,192,110772,1,0,0:0:0:0:
320,192,110772,1,0,0:0:0:0:
448,192,110848,1,0,0:0:0:0:
64,192,110924,1,0,0:0:0:0:
320,192,110924,1,0,0:0:0:0:
192,192,110999,1,0,0:0:0:0:
448,192,110999,1,0,0:0:0:0:
64,192,111075,1,0,0:0:0:0:
320,192,111075,1,0,0:0:0:0:
192,192,111151,1,0,0:0:0:0:
448,192,111151,1,0,0:0:0:0:
64,192,111227,1,0,0:0:0:0:
320,192,111227,1,0,0:0:0:0:
192,192,111302,1,0,0:0:0:0:
448,192,111302,1,0,0:0:0:0:
320,192,111378,1,0,0:0:0:0:
64,192,111378,1,0,0:0:0:0:
192,192,111454,1,0,0:0:0:0:
448,192,111454,1,0,0:0:0:0:
448,192,111530,1,0,0:0:0:0:
320,192,111530,1,0,0:0:0:0:
192,192,111605,1,0,0:0:0:0:
64,192,111605,1,0,0:0:0:0:
448,192,111681,1,0,0:0:0:0:
320,192,111681,1,0,0:0:0:0:
192,192,111757,1,0,0:0:0:0:
64,192,111757,1,0,0:0:0:0:
448,192,111833,1,0,0:0:0:0:
320,192,111833,1,0,0:0:0:0:
192,192,111908,1,0,0:0:0:0:
64,192,111908,1,0,0:0:0:0:
448,192,111984,1,0,0:0:0:0:
320,192,111984,1,0,0:0:0:0:
192,192,112060,1,0,0:0:0:0:
64,192,112060,1,0,0:0:0:0:
448,192,112136,128,0,113348:0:0:0:0:
320,192,112136,1,0,0:0:0:0:
320,192,112439,1,0,0:0:0:0:
192,192,112514,1,0,0:0:0:0:
64,192,112590,1,0,0:0:0:0:
192,192,112666,1,0,0:0:0:0:
64,192,112742,1,0,0:0:0:0:
320,192,112817,1,0,0:0:0:0:
192,192,112893,1,0,0:0:0:0:
320,192,112969,1,0,0:0:0:0:
64,192,113045,1,0,0:0:0:0:
192,192,113120,1,0,0:0:0:0:
320,192,113196,1,0,0:0:0:0:
192,192,113272,1,0,0:0:0:0:
64,192,113348,1,0,0:0:0:0:
320,192,113424,1,0,0:0:0:0:
448,192,113499,1,0,0:0:0:0:
320,192,113575,1,0,0:0:0:0:
64,192,113651,1,0,0:0:0:0:
192,192,113727,1,0,0:0:0:0:
320,192,113802,1,0,0:0:0:0:
64,192,113878,1,0,0:0:0:0:
192,192,113954,1,0,0:0:0:0:
448,192,114030,1,0,0:0:0:0:
320,192,114105,1,0,0:0:0:0:
64,192,114181,1,0,0:0:0:0:
192,192,114257,1,0,0:0:0:0:
448,192,114333,1,0,0:0:0:0:
320,192,114408,1,0,0:0:0:0:
192,192,114484,1,0,0:0:0:0:
64,192,114560,1,0,0:0:0:0:
448,192,114560,1,0,0:0:0:0:
320,192,114560,1,0,0:0:0:0:
