osu file format v14

[General]
AudioFilename: audio.mp3
AudioLeadIn: 0
PreviewTime: 51136
Countdown: 0
SampleSet: Normal
StackLeniency: 0.7
Mode: 1
LetterboxInBreaks: 0
WidescreenStoryboard: 1

[Editor]
Bookmarks: 327,12812,23910,35009,40558,46107,51656,62754,73853,82176,93274,104720
DistanceSpacing: 2
BeatDivisor: 4
GridSize: 32
TimelineZoom: 0.6999999

[Metadata]
Title:Snow naenaetion
TitleUnicode:Snow naenaetion
Artist:toonlink & Makar
ArtistUnicode:toonlink & Makar
Creator:strickluke
Version:Muzukashii
Source:ラブライブ! School idol project
Tags:.​@​GiIvaSunner Whips & Nae Naes on Ellen the Generous halation siivagunner whip nae nae break your legs do the stanky leg new year christmas holiday winter
BeatmapID:1807119
BeatmapSetID:784519

[Difficulty]
HPDrainRate:6
CircleSize:4
OverallDifficulty:5
ApproachRate:9
SliderMultiplier:1.4
SliderTickRate:1

[Events]
//Background and Video events
0,0,"silentoxmas.png",0,0
//Break Periods
//Storyboard Layer 0 (Background)
//Storyboard Layer 1 (Fail)
//Storyboard Layer 2 (Pass)
//Storyboard Layer 3 (Foreground)
//Storyboard Layer 4 (Overlay)
//Storyboard Sound Samples

[TimingPoints]
327,346.820809248555,4,1,0,60,1,0
327,-125,4,1,0,60,0,0
10558,-133.333333333334,4,1,0,60,0,0
12812,-142.857142857143,4,1,0,40,0,0
22523,-111.111111111111,4,1,0,45,0,0
23217,-117.647058823529,4,1,0,45,0,0
23563,-120.481927710843,4,1,0,45,0,0
23910,-125,4,1,0,50,0,0
32928,-121.951219512195,4,1,0,50,0,0
33274,-119.047619047619,4,1,0,50,0,0
33621,-116.279069767442,4,1,0,50,0,0
33795,-113.636363636364,4,1,0,50,0,0
34142,-111.111111111111,4,1,0,50,0,0
34662,-108.695652173913,4,1,0,50,0,0
34835,-107.52688172043,4,1,0,50,0,0
35009,-106.382978723404,4,1,0,45,0,0
35702,-125,4,1,0,45,0,0
39691,-121.951219512195,4,1,0,45,0,0
40558,-117.647058823529,4,1,0,50,0,0
46107,-125,4,1,0,55,0,0
48881,-117.647058823529,4,1,0,58,0,0
51309,-117.647058823529,4,1,0,60,0,0
51656,-111.111111111111,4,1,0,60,0,1
73332,-117.647058823529,4,1,0,55,0,1
73853,-117.647058823529,4,1,0,50,0,0
74199,-125,4,1,0,50,0,0
81656,-117.647058823529,4,1,0,55,0,0
82176,-111.111111111111,4,1,0,60,0,0
92581,-105.263157894737,4,1,0,65,0,0
93274,-100,4,1,0,70,0,1
104026,-100,4,1,0,65,0,1
104373,-100,4,1,0,60,0,0
104720,-100,4,1,0,40,0,0
106627,-100,4,1,0,30,0,0
108188,-100,4,1,0,20,0,0
108795,-100,4,1,0,5,0,0

[HitObjects]
256,192,327,5,0,0:0:0:0:
256,192,500,1,8,0:0:0:0:
256,192,673,1,0,0:0:0:0:
256,192,847,1,0,0:0:0:0:
256,192,1020,1,8,0:0:0:0:
256,192,1367,1,8,0:0:0:0:
256,192,1540,1,8,0:0:0:0:
256,192,1714,1,0,0:0:0:0:
256,192,2061,1,8,0:0:0:0:
256,192,2234,1,0,0:0:0:0:
256,192,2581,1,0,0:0:0:0:
256,192,2754,1,8,0:0:0:0:
256,192,2841,1,8,0:0:0:0:
256,192,2928,1,8,0:0:0:0:
256,192,3101,1,0,0:0:0:0:
256,192,3448,1,0,0:0:0:0:
256,192,3621,1,0,0:0:0:0:
256,192,3795,1,8,0:0:0:0:
256,192,4488,1,0,0:0:0:0:
256,192,4662,1,8,0:0:0:0:
256,192,4835,1,0,0:0:0:0:
256,192,5009,1,0,0:0:0:0:
256,192,5182,1,8,0:0:0:0:
256,192,5529,1,8,0:0:0:0:
256,192,5616,1,8,0:0:0:0:
256,192,5702,1,8,0:0:0:0:
256,192,5876,1,0,0:0:0:0:
256,192,6222,1,0,0:0:0:0:
256,192,6396,1,0,0:0:0:0:
256,192,6569,1,8,0:0:0:0:
256,192,6743,1,8,0:0:0:0:
256,192,6916,1,0,0:0:0:0:
256,192,7090,1,8,0:0:0:0:
256,192,7263,1,0,0:0:0:0:
256,192,7610,1,8,0:0:0:0:
256,192,7783,1,0,0:0:0:0:
256,192,7957,1,8,0:0:0:0:
256,192,8130,1,8,0:0:0:0:
256,192,8303,1,0,0:0:0:0:
256,192,8390,1,0,0:0:0:0:
256,192,8477,1,0,0:0:0:0:
256,192,8650,1,8,0:0:0:0:
256,192,8997,1,8,0:0:0:0:
256,192,9170,1,0,0:0:0:0:
256,192,9344,1,8,0:0:0:0:
256,192,9517,1,0,0:0:0:0:
256,192,9691,1,0,0:0:0:0:
256,192,9864,1,8,0:0:0:0:
256,192,10037,1,0,0:0:0:0:
256,192,10558,1,0,0:0:0:0:
256,192,10731,1,8,0:0:0:0:
256,192,11078,1,0,0:0:0:0:
256,192,11251,1,8,0:0:0:0:
256,192,11425,1,0,0:0:0:0:
256,192,11598,1,8,0:0:0:0:
256,192,11772,1,0,0:0:0:0:
256,192,11945,1,8,0:0:0:0:
256,192,12032,1,8,0:0:0:0:
256,192,12118,1,8,0:0:0:0:
256,192,12292,1,0,0:0:0:0:
256,192,12465,1,8,0:0:0:0:
256,192,12812,1,0,0:0:0:0:
256,192,13506,1,8,0:0:0:0:
256,192,13679,1,8,0:0:0:0:
256,192,13853,1,0,0:0:0:0:
256,192,14026,1,0,0:0:0:0:
256,192,14199,1,8,0:0:0:0:
256,192,14373,1,0,0:0:0:0:
256,192,14720,1,8,0:0:0:0:
256,192,14893,1,8,0:0:0:0:
256,192,15066,1,0,0:0:0:0:
256,192,15240,1,0,0:0:0:0:
256,192,15413,1,0,0:0:0:0:
256,192,15587,1,8,0:0:0:0:
256,192,16107,1,8,0:0:0:0:
256,192,16627,1,0,0:0:0:0:
256,192,16800,1,0,0:0:0:0:
256,192,16974,1,0,0:0:0:0:
256,192,17147,1,8,0:0:0:0:
256,192,17321,1,8,0:0:0:0:
256,192,17494,1,8,0:0:0:0:
256,192,17668,1,0,0:0:0:0:
256,192,18014,1,8,0:0:0:0:
256,192,18188,1,0,0:0:0:0:
256,192,18361,1,8,0:0:0:0:
256,192,18708,1,0,0:0:0:0:
256,192,18881,1,0,0:0:0:0:
256,192,19055,1,8,0:0:0:0:
256,192,19228,1,8,0:0:0:0:
256,192,19402,1,0,0:0:0:0:
256,192,19575,1,0,0:0:0:0:
256,192,19748,1,8,0:0:0:0:
256,192,20095,1,0,0:0:0:0:
256,192,20269,1,8,0:0:0:0:
256,192,20616,1,8,0:0:0:0:
256,192,20789,1,8,0:0:0:0:
256,192,20962,1,8,0:0:0:0:
256,192,21136,1,0,0:0:0:0:
256,192,21656,1,0,0:0:0:0:
256,192,22003,1,0,0:0:0:0:
256,192,22176,1,8,0:0:0:0:
256,192,22350,1,0,0:0:0:0:
256,192,22523,1,12,0:0:0:0:
256,192,22696,1,12,0:0:0:0:
256,192,23217,1,4,0:0:0:0:
256,192,23390,1,4,0:0:0:0:
256,192,23563,1,8,0:0:0:0:
256,192,23650,1,8,0:0:0:0:
256,192,23737,1,8,0:0:0:0:
256,192,23910,1,0,0:0:0:0:
256,192,24084,1,0,0:0:0:0:
256,192,24170,1,0,0:0:0:0:
256,192,24257,1,0,0:0:0:0:
256,192,24431,1,0,0:0:0:0:
256,192,24604,1,8,0:0:0:0:
256,192,24951,1,0,0:0:0:0:
256,192,25124,1,8,0:0:0:0:
256,192,25298,1,0,0:0:0:0:
256,192,25471,1,8,0:0:0:0:
256,192,25644,1,0,0:0:0:0:
256,192,25818,1,0,0:0:0:0:
256,192,25991,1,8,0:0:0:0:
256,192,26338,1,0,0:0:0:0:
256,192,26511,1,8,0:0:0:0:
256,192,26685,1,8,0:0:0:0:
256,192,26858,1,0,0:0:0:0:
256,192,26945,1,0,0:0:0:0:
256,192,27032,1,0,0:0:0:0:
256,192,27205,1,8,0:0:0:0:
256,192,27379,1,8,0:0:0:0:
256,192,27725,1,0,0:0:0:0:
256,192,27899,1,8,0:0:0:0:
256,192,28072,1,0,0:0:0:0:
256,192,28246,1,8,0:0:0:0:
256,192,28419,1,8,0:0:0:0:
256,192,28592,1,0,0:0:0:0:
256,192,28766,1,8,0:0:0:0:
256,192,29113,1,8,0:0:0:0:
256,192,29286,1,0,0:0:0:0:
256,192,29459,1,8,0:0:0:0:
256,192,29633,1,0,0:0:0:0:
256,192,29720,1,0,0:0:0:0:
256,192,29806,1,0,0:0:0:0:
256,192,29980,1,0,0:0:0:0:
256,192,30153,1,8,0:0:0:0:
256,192,30500,1,0,0:0:0:0:
256,192,30673,1,8,0:0:0:0:
256,192,30847,1,0,0:0:0:0:
256,192,31020,1,8,0:0:0:0:
256,192,31194,1,0,0:0:0:0:
256,192,31367,1,8,0:0:0:0:
256,192,31540,1,8,0:0:0:0:
256,192,31887,1,8,0:0:0:0:
256,192,32061,1,8,0:0:0:0:
256,192,32234,1,0,0:0:0:0:
256,192,32581,1,8,0:0:0:0:
256,192,32754,1,0,0:0:0:0:
256,192,32928,1,8,0:0:0:0:
256,192,33101,1,0,0:0:0:0:
256,192,33274,1,0,0:0:0:0:
256,192,33448,1,8,0:0:0:0:
256,192,33621,1,8,0:0:0:0:
256,192,33795,1,0,0:0:0:0:
256,192,33881,1,0,0:0:0:0:
256,192,33968,1,8,0:0:0:0:
256,192,34142,1,0,0:0:0:0:
256,192,34228,1,0,0:0:0:0:
256,192,34315,1,8,0:0:0:0:
256,192,34662,1,0,0:0:0:0:
256,192,34835,1,8,0:0:0:0:
256,192,35009,1,4,0:0:0:0:
256,192,35702,1,8,0:0:0:0:
256,192,36049,1,0,0:0:0:0:
256,192,36222,1,8,0:0:0:0:
256,192,36396,1,0,0:0:0:0:
256,192,36569,1,8,0:0:0:0:
256,192,36743,1,0,0:0:0:0:
256,192,36916,1,8,0:0:0:0:
256,192,37090,1,8,0:0:0:0:
256,192,37436,1,0,0:0:0:0:
256,192,37610,1,8,0:0:0:0:
256,192,37783,1,0,0:0:0:0:
256,192,38130,1,0,0:0:0:0:
256,192,38477,1,8,0:0:0:0:
256,192,38824,1,0,0:0:0:0:
256,192,38997,1,8,0:0:0:0:
256,192,39170,1,0,0:0:0:0:
256,192,39344,1,8,0:0:0:0:
256,192,39691,1,8,0:0:0:0:
256,192,39864,1,0,0:0:0:0:
256,192,40037,1,8,0:0:0:0:
256,192,40124,1,8,0:0:0:0:
256,192,40211,1,8,0:0:0:0:
256,192,40384,1,8,0:0:0:0:
256,192,40558,1,0,0:0:0:0:
256,192,40731,1,0,0:0:0:0:
256,192,40818,1,0,0:0:0:0:
256,192,40905,1,0,0:0:0:0:
256,192,41078,1,8,0:0:0:0:
256,192,41598,1,8,0:0:0:0:
256,192,41945,1,0,0:0:0:0:
256,192,42118,1,0,0:0:0:0:
256,192,42292,1,8,0:0:0:0:
256,192,42465,1,0,0:0:0:0:
256,192,42552,1,0,0:0:0:0:
256,192,42639,1,0,0:0:0:0:
256,192,42812,1,0,0:0:0:0:
256,192,42985,1,8,0:0:0:0:
256,192,43332,1,8,0:0:0:0:
256,192,43506,1,0,0:0:0:0:
256,192,43592,1,0,0:0:0:0:
256,192,43679,1,0,0:0:0:0:
256,192,43853,1,8,0:0:0:0:
256,192,44026,1,0,0:0:0:0:
256,192,44373,1,8,0:0:0:0:
256,192,44546,1,8,0:0:0:0:
256,192,44720,1,0,0:0:0:0:
256,192,44893,1,0,0:0:0:0:
256,192,45066,1,8,0:0:0:0:
256,192,45240,1,0,0:0:0:0:
256,192,45327,1,0,0:0:0:0:
256,192,45413,1,0,0:0:0:0:
256,192,45587,1,8,0:0:0:0:
256,192,45760,1,8,0:0:0:0:
256,192,46107,1,0,0:0:0:0:
256,192,46280,1,0,0:0:0:0:
256,192,46454,1,8,0:0:0:0:
256,192,46627,1,0,0:0:0:0:
256,192,46714,1,0,0:0:0:0:
256,192,46800,1,0,0:0:0:0:
256,192,46974,1,0,0:0:0:0:
256,192,47147,1,8,0:0:0:0:
256,192,47494,1,0,0:0:0:0:
256,192,47668,1,0,0:0:0:0:
256,192,47841,1,8,0:0:0:0:
256,192,48014,1,8,0:0:0:0:
256,192,48101,1,8,0:0:0:0:
256,192,48188,1,8,0:0:0:0:
256,192,48361,1,0,0:0:0:0:
256,192,48535,1,8,0:0:0:0:
256,192,48881,1,0,0:0:0:0:
256,192,49055,1,0,0:0:0:0:
256,192,49142,1,0,0:0:0:0:
256,192,49228,1,0,0:0:0:0:
256,192,49402,1,0,0:0:0:0:
256,192,49488,1,0,0:0:0:0:
256,192,49575,1,0,0:0:0:0:
256,192,49748,1,8,0:0:0:0:
256,192,49835,1,8,0:0:0:0:
256,192,49922,1,8,0:0:0:0:
256,192,50095,1,0,0:0:0:0:
256,192,50269,1,8,0:0:0:0:
256,192,50442,1,8,0:0:0:0:
256,192,50616,1,0,0:0:0:0:
256,192,51136,1,0,0:0:0:0:
256,192,51309,1,8,0:0:0:0:
256,192,51483,1,8,0:0:0:0:
256,192,51656,1,4,0:0:0:0:
256,192,52003,1,8,0:0:0:0:
256,192,52350,1,0,0:0:0:0:
256,192,52523,1,0,0:0:0:0:
256,192,52696,1,8,0:0:0:0:
256,192,52870,1,8,0:0:0:0:
256,192,53043,1,0,0:0:0:0:
256,192,53390,1,8,0:0:0:0:
256,192,53477,1,8,0:0:0:0:
256,192,53563,1,8,0:0:0:0:
256,192,53737,1,0,0:0:0:0:
256,192,54084,1,8,0:0:0:0:
256,192,54257,1,0,0:0:0:0:
256,192,54431,1,0,0:0:0:0:
256,192,54777,1,8,0:0:0:0:
256,192,54951,1,8,0:0:0:0:
256,192,55124,1,0,0:0:0:0:
256,192,55298,1,0,0:0:0:0:
256,192,55471,1,8,0:0:0:0:
256,192,55818,1,0,0:0:0:0:
256,192,56165,1,8,0:0:0:0:
256,192,56338,1,0,0:0:0:0:
256,192,56425,1,0,0:0:0:0:
256,192,56511,1,0,0:0:0:0:
256,192,56685,1,8,0:0:0:0:
256,192,56858,1,8,0:0:0:0:
256,192,57205,1,0,0:0:0:0:
256,192,57552,1,8,0:0:0:0:
256,192,57899,1,0,0:0:0:0:
256,192,58072,1,0,0:0:0:0:
256,192,58246,1,8,0:0:0:0:
256,192,58419,1,8,0:0:0:0:
256,192,58592,1,0,0:0:0:0:
256,192,58939,1,8,0:0:0:0:
256,192,59026,1,8,0:0:0:0:
256,192,59113,1,8,0:0:0:0:
256,192,59286,1,0,0:0:0:0:
256,192,59633,1,8,0:0:0:0:
256,192,59806,1,8,0:0:0:0:
256,192,59980,1,0,0:0:0:0:
256,192,60327,1,8,0:0:0:0:
256,192,60500,1,0,0:0:0:0:
256,192,60673,1,0,0:0:0:0:
256,192,61020,1,8,0:0:0:0:
256,192,61194,1,0,0:0:0:0:
256,192,61280,1,0,0:0:0:0:
256,192,61367,1,8,0:0:0:0:
256,192,61540,1,8,0:0:0:0:
256,192,62061,1,0,0:0:0:0:
256,192,62234,1,8,0:0:0:0:
256,192,62407,1,8,0:0:0:0:
256,192,62581,1,8,0:0:0:0:
256,192,62754,1,4,0:0:0:0:
256,192,63101,1,8,0:0:0:0:
256,192,63274,1,8,0:0:0:0:
256,192,63361,1,8,0:0:0:0:
256,192,63448,1,0,0:0:0:0:
256,192,63621,1,0,0:0:0:0:
256,192,63795,1,8,0:0:0:0:
256,192,64142,1,0,0:0:0:0:
256,192,64488,1,8,0:0:0:0:
256,192,64662,1,8,0:0:0:0:
256,192,64748,1,8,0:0:0:0:
256,192,64835,1,0,0:0:0:0:
256,192,65009,1,0,0:0:0:0:
256,192,65182,1,8,0:0:0:0:
256,192,65529,1,8,0:0:0:0:
256,192,65876,1,0,0:0:0:0:
256,192,66049,1,8,0:0:0:0:
256,192,66136,1,8,0:0:0:0:
256,192,66222,1,8,0:0:0:0:
256,192,66396,1,0,0:0:0:0:
256,192,66569,1,8,0:0:0:0:
256,192,66916,1,0,0:0:0:0:
256,192,67090,1,0,0:0:0:0:
256,192,67263,1,8,0:0:0:0:
256,192,67436,1,0,0:0:0:0:
256,192,67523,1,0,0:0:0:0:
256,192,67610,1,0,0:0:0:0:
256,192,67783,1,8,0:0:0:0:
256,192,67957,1,8,0:0:0:0:
256,192,68303,1,0,0:0:0:0:
256,192,68650,1,8,0:0:0:0:
256,192,68824,1,8,0:0:0:0:
256,192,68910,1,8,0:0:0:0:
256,192,68997,1,0,0:0:0:0:
256,192,69170,1,8,0:0:0:0:
256,192,69344,1,0,0:0:0:0:
256,192,69691,1,0,0:0:0:0:
256,192,70037,1,8,0:0:0:0:
256,192,70211,1,8,0:0:0:0:
256,192,70298,1,8,0:0:0:0:
256,192,70384,1,0,0:0:0:0:
256,192,70558,1,8,0:0:0:0:
256,192,70731,1,0,0:0:0:0:
256,192,71078,1,8,0:0:0:0:
256,192,71425,1,0,0:0:0:0:
256,192,71598,1,8,0:0:0:0:
256,192,71685,1,8,0:0:0:0:
256,192,71772,1,8,0:0:0:0:
256,192,71945,1,0,0:0:0:0:
256,192,72118,1,8,0:0:0:0:
256,192,72465,1,0,0:0:0:0:
256,192,72639,1,0,0:0:0:0:
256,192,72725,1,0,0:0:0:0:
256,192,72812,1,8,0:0:0:0:
256,192,72985,1,0,0:0:0:0:
256,192,73332,1,8,0:0:0:0:
256,192,73506,1,8,0:0:0:0:
256,192,73679,1,8,0:0:0:0:
256,192,73853,1,4,0:0:0:0:
256,192,74199,1,0,0:0:0:0:
256,192,74546,1,8,0:0:0:0:
256,192,74893,1,0,0:0:0:0:
256,192,75066,1,8,0:0:0:0:
256,192,75240,1,0,0:0:0:0:
256,192,75413,1,8,0:0:0:0:
256,192,75587,1,0,0:0:0:0:
256,192,75933,1,8,0:0:0:0:
256,192,76454,1,8,0:0:0:0:
256,192,76627,1,0,0:0:0:0:
256,192,76974,1,0,0:0:0:0:
256,192,77147,1,0,0:0:0:0:
256,192,77320,1,8,0:0:0:0:
256,192,77668,1,0,0:0:0:0:
256,192,77840,1,8,0:0:0:0:
256,192,78014,1,0,0:0:0:0:
256,192,78187,1,8,0:0:0:0:
256,192,78361,1,0,0:0:0:0:
256,192,78707,1,8,0:0:0:0:
256,192,79055,1,8,0:0:0:0:
256,192,79228,1,8,0:0:0:0:
256,192,79402,1,0,0:0:0:0:
256,192,79748,1,0,0:0:0:0:
256,192,79922,1,0,0:0:0:0:
256,192,80095,1,8,0:0:0:0:
256,192,80269,1,0,0:0:0:0:
256,192,80616,1,0,0:0:0:0:
256,192,80789,1,8,0:0:0:0:
256,192,80962,1,8,0:0:0:0:
256,192,81656,1,0,0:0:0:0:
256,192,81829,1,8,0:0:0:0:
256,192,82003,1,8,0:0:0:0:
256,192,82176,1,4,0:0:0:0:
256,192,82523,1,8,0:0:0:0:
256,192,82870,1,0,0:0:0:0:
256,192,83043,1,0,0:0:0:0:
256,192,83216,1,8,0:0:0:0:
256,192,83390,1,8,0:0:0:0:
256,192,83563,1,0,0:0:0:0:
256,192,83910,1,8,0:0:0:0:
256,192,83997,1,8,0:0:0:0:
256,192,84083,1,0,0:0:0:0:
256,192,84430,1,0,0:0:0:0:
256,192,84604,1,8,0:0:0:0:
256,192,84777,1,0,0:0:0:0:
256,192,84951,1,0,0:0:0:0:
256,192,85297,1,8,0:0:0:0:
256,192,85471,1,8,0:0:0:0:
256,192,85644,1,0,0:0:0:0:
256,192,85818,1,0,0:0:0:0:
256,192,85991,1,8,0:0:0:0:
256,192,86338,1,0,0:0:0:0:
256,192,86685,1,8,0:0:0:0:
256,192,86858,1,0,0:0:0:0:
256,192,86945,1,0,0:0:0:0:
256,192,87031,1,0,0:0:0:0:
256,192,87205,1,8,0:0:0:0:
256,192,87378,1,8,0:0:0:0:
256,192,87725,1,0,0:0:0:0:
256,192,88072,1,8,0:0:0:0:
256,192,88419,1,0,0:0:0:0:
256,192,88592,1,0,0:0:0:0:
256,192,88766,1,8,0:0:0:0:
256,192,88939,1,8,0:0:0:0:
256,192,89112,1,0,0:0:0:0:
256,192,89459,1,8,0:0:0:0:
256,192,89546,1,8,0:0:0:0:
256,192,89633,1,0,0:0:0:0:
256,192,89979,1,0,0:0:0:0:
256,192,90153,1,8,0:0:0:0:
256,192,90326,1,8,0:0:0:0:
256,192,90500,1,0,0:0:0:0:
256,192,90847,1,8,0:0:0:0:
256,192,91020,1,0,0:0:0:0:
256,192,91367,1,0,0:0:0:0:
256,192,91540,1,8,0:0:0:0:
256,192,91714,1,0,0:0:0:0:
256,192,91800,1,0,0:0:0:0:
256,192,91887,1,8,0:0:0:0:
256,192,92060,1,8,0:0:0:0:
256,192,92234,1,0,0:0:0:0:
256,192,92581,1,0,0:0:0:0:
256,192,92754,1,8,0:0:0:0:
256,192,92928,1,8,0:0:0:0:
256,192,93101,1,8,0:0:0:0:
256,192,93274,1,4,0:0:0:0:
256,192,93621,1,4,0:0:0:0:
256,192,93968,1,4,0:0:0:0:
256,192,94315,1,4,0:0:0:0:
256,192,94662,1,12,0:0:0:0:
256,192,95009,1,12,0:0:0:0:
256,192,95356,1,12,0:0:0:0:
256,192,95702,1,12,0:0:0:0:
256,192,96049,1,4,0:0:0:0:
256,192,96396,1,4,0:0:0:0:
256,192,96743,1,4,0:0:0:0:
256,192,97090,1,4,0:0:0:0:
256,192,97436,1,12,0:0:0:0:
256,192,97783,1,4,0:0:0:0:
256,192,98130,1,12,0:0:0:0:
256,192,98477,1,4,0:0:0:0:
256,192,98824,1,12,0:0:0:0:
256,192,99171,1,12,0:0:0:0:
256,192,99518,1,12,0:0:0:0:
256,192,99864,1,12,0:0:0:0:
256,192,100211,1,4,0:0:0:0:
256,192,100558,1,4,0:0:0:0:
256,192,100905,1,4,0:0:0:0:
256,192,101251,1,4,0:0:0:0:
256,192,101598,1,12,0:0:0:0:
256,192,101945,1,12,0:0:0:0:
256,192,102292,1,12,0:0:0:0:
256,192,102639,1,12,0:0:0:0:
256,192,102985,1,4,0:0:0:0:
256,192,103159,1,4,0:0:0:0:
256,192,103679,1,12,0:0:0:0:
256,192,103853,1,12,0:0:0:0:
256,192,104026,1,0,0:0:0:0:
256,192,104113,1,0,0:0:0:0:
256,192,104199,1,0,0:0:0:0:
256,192,104286,1,0,0:0:0:0:
256,192,104373,1,0,0:0:0:0:
256,192,104720,8,0,108795,0:0:0:0:
