osu file format v14

[General]
AudioFilename: audio.mp3
AudioLeadIn: 0
PreviewTime: 51136
Countdown: 0
SampleSet: Normal
StackLeniency: 0.7
Mode: 1
LetterboxInBreaks: 0
WidescreenStoryboard: 0

[Editor]
Bookmarks: 327,12812,23910,35009,40558,46107,51656,62754,73853,82176,93274,104720
DistanceSpacing: 2
BeatDivisor: 4
GridSize: 32
TimelineZoom: 0.6999999

[Metadata]
Title:Snow naenaetion
TitleUnicode:Snow naenaetion
Artist:toonlink & Makar
ArtistUnicode:toonlink & Makar
Creator:strickluke
Version:Kantan
Source:ラブライブ! School idol project
Tags:.​@​GiIvaSunner Whips & Nae Naes on Ellen the Generous halation siivagunner whip nae nae break your legs do the stanky leg new year christmas holiday winter
BeatmapID:1656582
BeatmapSetID:784519

[Difficulty]
HPDrainRate:6
CircleSize:4
OverallDifficulty:3.5
ApproachRate:9
SliderMultiplier:1.4
SliderTickRate:1

[Events]
//Background and Video events
0,0,"silentoxmas.png",0,0
//Break Periods
//Storyboard Layer 0 (Background)
//Storyboard Layer 1 (Fail)
//Storyboard Layer 2 (Pass)
//Storyboard Layer 3 (Foreground)
//Storyboard Layer 4 (Overlay)
//Storyboard Sound Samples

[TimingPoints]
327,346.820809248555,4,1,0,60,1,0
327,-166.666666666667,4,1,0,60,0,0
327,-166.666666666667,4,1,0,60,0,0
12639,-166.666666666667,4,1,0,40,0,0
22523,-166.666666666667,4,1,0,45,0,0
23910,-166.666666666667,4,1,0,50,0,0
35009,-166.666666666667,4,1,0,45,0,0
40558,-166.666666666667,4,1,0,50,0,0
46107,-166.666666666667,4,1,0,55,0,0
48881,-166.666666666667,4,1,0,58,0,0
51309,-142.857142857143,4,1,0,60,0,0
51656,-142.857142857143,4,1,0,60,0,1
73506,-166.666666666667,4,1,0,55,0,1
73853,-166.666666666667,4,1,0,50,0,0
81829,-142.857142857143,4,1,0,55,0,0
82176,-142.857142857143,4,1,0,60,0,0
92928,-125,4,1,0,65,0,0
93274,-125,4,1,0,70,0,1
104026,-125,4,1,0,65,0,1
104373,-125,4,1,0,60,0,0
104720,-125,4,1,0,40,0,0
106627,-125,4,1,0,30,0,0
108188,-125,4,1,0,20,0,0
108795,-125,4,1,0,5,0,0

[HitObjects]
256,192,327,5,0,0:0:0:0:
256,192,1020,1,8,0:0:0:0:
256,192,2407,1,8,0:0:0:0:
256,192,3101,5,0,0:0:0:0:
256,192,3795,1,8,0:0:0:0:
256,192,4488,1,0,0:0:0:0:
256,192,5182,1,0,0:0:0:0:
256,192,5876,1,0,0:0:0:0:
256,192,6569,1,8,0:0:0:0:
256,192,7957,1,8,0:0:0:0:
256,192,8650,1,0,0:0:0:0:
256,192,9344,1,8,0:0:0:0:
256,192,10037,1,0,0:0:0:0:
256,192,11425,1,0,0:0:0:0:
256,192,12118,1,8,0:0:0:0:
256,192,12812,1,0,0:0:0:0:
256,192,14199,1,0,0:0:0:0:
256,192,15587,1,0,0:0:0:0:
256,192,16107,1,8,0:0:0:0:
256,192,17668,1,0,0:0:0:0:
256,192,18361,1,8,0:0:0:0:
256,192,19748,1,0,0:0:0:0:
256,192,20269,1,8,0:0:0:0:
256,192,21136,1,0,0:0:0:0:
256,192,22523,1,12,0:0:0:0:
256,192,23217,1,4,0:0:0:0:
256,192,23910,1,0,0:0:0:0:
256,192,24604,1,8,0:0:0:0:
256,192,25298,1,0,0:0:0:0:
256,192,26685,1,8,0:0:0:0:
256,192,27379,1,0,0:0:0:0:
256,192,28072,1,8,0:0:0:0:
256,192,29459,1,0,0:0:0:0:
256,192,30153,1,8,0:0:0:0:
256,192,30847,1,0,0:0:0:0:
256,192,31540,1,0,0:0:0:0:
256,192,32234,1,8,0:0:0:0:
256,192,33621,1,0,0:0:0:0:
256,192,34315,1,0,0:0:0:0:
256,192,35009,1,4,0:0:0:0:
256,192,35702,1,8,0:0:0:0:
256,192,36916,1,8,0:0:0:0:
256,192,37090,1,8,0:0:0:0:
256,192,37783,1,0,0:0:0:0:
256,192,38477,1,8,0:0:0:0:
256,192,39691,1,8,0:0:0:0:
256,192,39864,1,8,0:0:0:0:
256,192,40558,1,0,0:0:0:0:
256,192,40905,1,8,0:0:0:0:
256,192,41598,1,0,0:0:0:0:
256,192,42292,1,8,0:0:0:0:
256,192,42985,1,8,0:0:0:0:
256,192,43332,1,0,0:0:0:0:
256,192,43679,1,8,0:0:0:0:
256,192,44372,1,0,0:0:0:0:
256,192,45066,1,8,0:0:0:0:
256,192,45760,1,8,0:0:0:0:
256,192,46107,1,0,0:0:0:0:
256,192,46454,1,8,0:0:0:0:
256,192,47147,1,0,0:0:0:0:
256,192,47841,1,8,0:0:0:0:
256,192,48188,1,0,0:0:0:0:
256,192,48535,1,8,0:0:0:0:
256,192,48881,1,0,0:0:0:0:
256,192,49575,1,8,0:0:0:0:
256,192,50269,1,8,0:0:0:0:
256,192,51309,1,8,0:0:0:0:
256,192,51656,1,4,0:0:0:0:
256,192,52350,1,0,0:0:0:0:
256,192,52696,1,8,0:0:0:0:
256,192,53043,1,0,0:0:0:0:
256,192,53390,1,8,0:0:0:0:
256,192,53737,1,0,0:0:0:0:
256,192,54084,1,0,0:0:0:0:
256,192,54431,1,8,0:0:0:0:
256,192,54951,1,8,0:0:0:0:
256,192,55818,1,0,0:0:0:0:
256,192,56165,1,0,0:0:0:0:
256,192,56511,1,8,0:0:0:0:
256,192,56858,1,8,0:0:0:0:
256,192,57205,1,0,0:0:0:0:
256,192,57899,1,0,0:0:0:0:
256,192,58246,1,8,0:0:0:0:
256,192,58592,1,0,0:0:0:0:
256,192,58939,1,8,0:0:0:0:
256,192,59633,1,8,0:0:0:0:
256,192,59980,1,0,0:0:0:0:
256,192,60673,1,8,0:0:0:0:
256,192,61367,1,0,0:0:0:0:
256,192,62407,1,8,0:0:0:0:
256,192,62754,1,4,0:0:0:0:
256,192,63101,1,8,0:0:0:0:
256,192,63795,1,0,0:0:0:0:
256,192,64142,1,0,0:0:0:0:
256,192,64488,1,8,0:0:0:0:
256,192,65182,1,8,0:0:0:0:
256,192,65529,1,0,0:0:0:0:
256,192,65876,1,8,0:0:0:0:
256,192,66569,1,8,0:0:0:0:
256,192,66916,1,0,0:0:0:0:
256,192,67263,1,8,0:0:0:0:
256,192,67610,1,0,0:0:0:0:
256,192,67957,1,8,0:0:0:0:
256,192,68303,1,0,0:0:0:0:
256,192,68650,1,8,0:0:0:0:
256,192,69344,1,8,0:0:0:0:
256,192,69691,1,8,0:0:0:0:
256,192,70037,1,8,0:0:0:0:
256,192,70731,1,8,0:0:0:0:
256,192,71078,1,8,0:0:0:0:
256,192,71425,1,0,0:0:0:0:
256,192,72118,1,0,0:0:0:0:
256,192,72465,1,8,0:0:0:0:
256,192,72812,1,0,0:0:0:0:
256,192,73506,1,8,0:0:0:0:
256,192,73853,1,4,0:0:0:0:
256,192,74546,1,8,0:0:0:0:
256,192,75587,1,0,0:0:0:0:
256,192,75933,1,8,0:0:0:0:
256,192,76627,1,0,0:0:0:0:
256,192,77321,1,8,0:0:0:0:
256,192,78361,1,0,0:0:0:0:
256,192,78708,1,8,0:0:0:0:
256,192,79055,1,8,0:0:0:0:
256,192,79402,1,0,0:0:0:0:
256,192,80095,1,8,0:0:0:0:
256,192,80789,1,0,0:0:0:0:
256,192,81829,1,8,0:0:0:0:
256,192,82176,1,4,0:0:0:0:
256,192,82870,1,0,0:0:0:0:
256,192,83217,1,8,0:0:0:0:
256,192,83563,1,0,0:0:0:0:
256,192,83910,1,8,0:0:0:0:
256,192,84604,1,8,0:0:0:0:
256,192,84951,1,0,0:0:0:0:
256,192,85298,1,8,0:0:0:0:
256,192,85991,1,0,0:0:0:0:
256,192,86338,1,0,0:0:0:0:
256,192,86685,1,8,0:0:0:0:
256,192,87379,1,8,0:0:0:0:
256,192,87725,1,0,0:0:0:0:
256,192,88419,1,0,0:0:0:0:
256,192,88766,1,8,0:0:0:0:
256,192,89113,1,8,0:0:0:0:
256,192,89459,1,0,0:0:0:0:
256,192,90153,1,8,0:0:0:0:
256,192,90500,1,0,0:0:0:0:
256,192,90847,1,8,0:0:0:0:
256,192,91540,1,0,0:0:0:0:
256,192,91887,1,8,0:0:0:0:
256,192,92234,1,8,0:0:0:0:
256,192,92928,1,8,0:0:0:0:
256,192,93274,5,4,0:0:0:0:
256,192,93968,5,4,0:0:0:0:
256,192,94662,5,12,0:0:0:0:
256,192,95355,5,12,0:0:0:0:
256,192,96049,5,4,0:0:0:0:
256,192,96743,5,4,0:0:0:0:
256,192,97436,5,12,0:0:0:0:
256,192,98130,5,12,0:0:0:0:
256,192,98824,5,12,0:0:0:0:
256,192,99517,5,12,0:0:0:0:
256,192,100211,5,4,0:0:0:0:
256,192,100905,5,4,0:0:0:0:
256,192,101598,5,12,0:0:0:0:
256,192,102292,5,12,0:0:0:0:
256,192,102985,5,4,0:0:0:0:
256,192,103679,5,12,0:0:0:0:
256,192,104026,2,0,L|384:193,1,112
256,192,104720,12,0,108795,0:0:0:0:
