osu file format v14

[General]
AudioFilename: audio.mp3
AudioLeadIn: 0
PreviewTime: 21257
Countdown: 0
SampleSet: Soft
StackLeniency: 0.7
Mode: 2
LetterboxInBreaks: 0
WidescreenStoryboard: 1

[Editor]
Bookmarks: 37123
DistanceSpacing: 1
BeatDivisor: 4
GridSize: 32
TimelineZoom: 1.9

[Metadata]
Title:fieryrage accordion (hardcore remix)
TitleUnicode:fieryrage accordion (hardcore remix)
Artist:tomspicy
ArtistUnicode:tomspicy
Creator:Juansy-
Version:cup
Source:
Tags:xandit bokeru fieryrage d'n'b electronic instrumental dnb drum n' and & bass The College Sailor's Hornpipe Jack's the Lad
BeatmapID:3969096
BeatmapSetID:1921382

[Difficulty]
HPDrainRate:2
CircleSize:2.5
OverallDifficulty:6
ApproachRate:6
SliderMultiplier:1.25
SliderTickRate:0.5

[Events]
//Background and Video events
0,0,"bg.png",0,0
//Break Periods
//Storyboard Layer 0 (Background)
//Storyboard Layer 1 (Fail)
//Storyboard Layer 2 (Pass)
//Storyboard Layer 3 (Foreground)
//Storyboard Layer 4 (Overlay)
//Storyboard Sound Samples

[TimingPoints]
200,329.67032967033,4,2,1,30,1,0
5474,-100,4,2,1,50,0,0
5721,-100,4,2,1,5,0,0
5804,-100,4,2,1,50,0,0
7040,-100,4,2,1,5,0,0
7123,-100,4,2,1,50,0,0
10666,-100,4,2,1,5,0,0
10749,-100,4,2,1,70,0,0
14210,-100,4,2,1,70,0,0
19485,-100,4,2,1,70,0,0
21216,-100,4,2,1,5,0,0
21298,-100,4,2,1,80,0,1
37040,-100,4,2,1,5,0,0
37123,-100,4,2,1,90,0,1
41079,-100,4,2,0,50,0,0
42068,-100,4,2,1,70,0,0
43716,-100,4,2,1,60,0,0
44375,-100,4,2,1,50,0,0
44705,-100,4,2,1,40,0,0
45035,-100,4,2,1,30,0,0
45364,-100,4,2,1,20,0,0
45694,-100,4,2,1,10,0,0
46024,-100,4,2,1,5,0,0

[Colours]
Combo1 : 77,117,210
Combo2 : 242,66,66
Combo3 : 240,214,66
Combo4 : 162,233,238

[HitObjects]
169,108,364,6,0,P|88:125|189:300,1,375,2|2,0:2|0:2,0:0:0:0:
318,305,1683,6,0,P|319:231|75:151,1,375,2|2,0:2|0:2,0:0:0:0:
205,141,3002,6,0,P|358:157|256:295,1,375,2|2,0:2|0:2,0:0:0:0:
152,291,4320,6,0,L|75:175,2,125,2|2|2,0:2|0:2|0:2,0:0:0:0:
289,288,5309,1,2,0:2:0:0:
226,288,5474,5,8,0:2:0:0:
162,180,5804,1,8,0:2:0:0:
241,276,6134,1,8,0:2:0:0:
364,290,6463,1,8,0:2:0:0:
226,294,6793,6,0,P|191:271|246:215,1,125,8|8,0:2|0:2,0:0:0:0:
350,206,7452,1,10,0:2:0:0:
224,207,7782,1,8,0:2:0:0:
361,201,8112,6,0,L|360:123,2,62.5,8|10|8,0:2|0:2|0:2,0:0:0:0:
223,201,8771,2,0,L|222:125,2,62.5,8|10|8,0:2|0:2|0:2,0:0:0:0:
358,181,9430,6,0,L|290:182,1,62.5,8|10,0:2|0:2,0:0:0:0:
226,118,9760,2,0,L|355:119,1,125,8|8,0:2|0:2,0:0:0:0:
476,119,10419,1,8,3:2:0:0:
326,304,10749,6,0,P|276:286|286:168,1,187.5,6|2,3:2|0:2,0:0:0:0:
345,106,11408,1,2,3:2:0:0:
220,100,11738,2,0,L|145:97,1,62.5,10|2,0:0|0:2,0:0:0:0:
221,101,12068,6,0,P|265:107|190:207,1,250,2|2,3:2|3:2,0:0:0:0:
83,231,13057,1,10,0:0:0:0:
220,219,13386,6,0,L|354:216,1,125,2|10,3:2|0:0,0:0:0:0:
220,213,14046,2,0,L|75:209,1,125,2|10,3:2|0:0,0:0:0:0:
233,218,14705,6,0,L|370:227,3,125,2|10|2|10,3:2|0:0|3:2|0:0,0:0:0:0:
208,220,16024,6,0,P|165:191|236:115,1,187.5,2|2,3:2|0:2,0:0:0:0:
296,123,16683,1,2,3:2:0:0:
421,133,17013,2,0,L|351:131,1,62.5,10|2,0:0|0:2,0:0:0:0:
296,130,17342,6,0,P|226:137|297:246,1,250,2|2,3:2|3:2,0:0:0:0:
406,262,18331,1,10,0:0:0:0:
269,266,18661,6,0,L|258:128,1,125,2|10,3:2|0:0,0:0:0:0:
134,142,19320,2,0,L|271:138,1,125,2|10,3:2|0:0,0:0:0:0:
397,128,19980,6,0,L|268:127,1,125,2|10,3:2|0:0,0:0:0:0:
273,127,20639,2,0,L|411:129,1,125,2|10,3:2|0:0,0:0:0:0:
248,128,21298,6,0,L|109:129,1,125,6|10,3:2|0:0,0:0:0:0:
186,130,21793,1,2,0:2:0:0:
249,133,21958,1,2,3:2:0:0:
374,145,22287,1,10,0:0:0:0:
237,145,22617,6,0,L|238:287,1,125,2|10,3:2|0:0,0:0:0:0:
375,283,23276,2,0,L|239:279,1,125,2|10,3:2|0:0,0:0:0:0:
100,282,23936,6,0,P|190:281|91:122,1,375,2|10,3:2|0:0,0:0:0:0:
260,109,25254,6,0,L|401:114,1,125,2|10,3:2|0:0,0:0:0:0:
262,136,25914,2,0,L|113:137,1,125,2|10,3:2|0:0,0:0:0:0:
288,142,26573,6,0,L|287:278,1,125,2|10,3:2|0:0,0:0:0:0:
225,265,27068,1,2,0:2:0:0:
163,267,27232,1,2,3:2:0:0:
289,267,27562,1,10,0:0:0:0:
139,267,27892,6,0,L|130:130,1,125,2|10,3:2|0:0,0:0:0:0:
256,133,28551,2,0,L|406:134,1,125,2|10,3:2|0:0,0:0:0:0:
231,129,29210,6,0,P|158:140|266:292,1,375,2|10,3:2|0:0,0:0:0:0:
399,288,30529,6,0,L|264:288,1,125,2|10,3:2|0:0,0:0:0:0:
137,296,31189,1,2,3:2:0:0:
275,299,31518,1,10,0:0:0:0:
125,298,31848,6,0,L|114:164,1,125,2|10,3:2|0:0,0:0:0:0:
178,174,32342,1,2,0:2:0:0:
241,178,32507,2,0,L|109:171,1,125,2|10,3:2|0:0,0:0:0:0:
265,145,33167,6,0,L|410:149,1,125,2|10,3:2|0:0,0:0:0:0:
253,152,33826,2,0,L|124:155,1,125,2|10,3:2|0:0,0:0:0:0:
279,151,34485,6,0,P|326:186|155:320,1,375,2|10,3:2|0:0,0:0:0:0:
308,310,35804,6,0,L|434:309,3,125,2|10|2|10,3:2|0:0|3:2|0:0,0:0:0:0:
283,309,37123,5,10,3:2:0:0:
318,189,37452,1,10,3:2:0:0:
419,116,37782,1,10,3:2:0:0:
279,92,38112,1,10,3:2:0:0:
141,92,38441,6,0,L|212:95,1,62.5,10|10,3:2|0:0,0:0:0:0:
266,97,38771,1,10,3:2:0:0:
403,98,39101,2,0,L|334:102,1,62.5,10|10,3:2|0:0,0:0:0:0:
271,104,39430,1,10,3:2:0:0:
139,63,39760,5,10,3:2:0:0:
199,78,39925,1,0,0:0:0:0:
236,127,40090,1,10,3:2:0:0:
199,78,40254,1,0,0:0:0:0:
138,63,40419,1,10,3:2:0:0:
262,54,40749,1,10,3:2:0:0:
387,55,41079,6,0,L|385:189,1,125,0|8,1:0|0:0,0:0:0:0:
322,178,41573,2,0,L|321:326,1,125,0|8,1:0|0:0,0:0:0:0:
390,305,42068,1,8,0:0:0:0:
240,304,42397,5,4,3:2:0:0:
256,192,42727,12,0,46024,0:0:0:0:
