osu file format v14

[General]
AudioFilename: audio.mp3
AudioLeadIn: 0
PreviewTime: 21257
Countdown: 0
SampleSet: Soft
StackLeniency: 0.7
Mode: 2
LetterboxInBreaks: 0
WidescreenStoryboard: 1

[Editor]
DistanceSpacing: 1
BeatDivisor: 4
GridSize: 32
TimelineZoom: 4.699997

[Metadata]
Title:fieryrage accordion (hardcore remix)
TitleUnicode:fieryrage accordion (hardcore remix)
Artist:tomspicy
ArtistUnicode:tomspicy
Creator:Juansy-
Version:accordose
Source:
Tags:xandit bokeru fieryrage d'n'b electronic instrumental dnb drum n' and & bass The College Sailor's Hornpipe Jack's the Lad
BeatmapID:3966898
BeatmapSetID:1921382

[Difficulty]
HPDrainRate:6
CircleSize:4.3
OverallDifficulty:9.4
ApproachRate:9.4
SliderMultiplier:2.2
SliderTickRate:2

[Events]
//Background and Video events
0,0,"bg.png",0,0
//Break Periods
//Storyboard Layer 0 (Background)
//Storyboard Layer 1 (Fail)
//Storyboard Layer 2 (Pass)
//Storyboard Layer 3 (Foreground)
//Storyboard Layer 4 (Overlay)
//Storyboard Sound Samples

[TimingPoints]
200,329.67032967033,4,2,1,30,1,0
5474,-100,4,2,1,50,0,0
5721,-100,4,2,1,5,0,0
5804,-100,4,2,1,50,0,0
7040,-100,4,2,1,5,0,0
7123,-100,4,2,1,50,0,0
10419,-45.4545454545455,4,2,1,50,0,0
10584,-100,4,2,1,50,0,0
10666,-100,4,2,1,5,0,0
10749,-100,4,2,1,70,0,0
13910,-100,4,2,1,70,0,0
19185,-100,4,2,1,70,0,0
21216,-100,4,2,1,5,0,0
21298,-100,4,2,1,80,0,1
31848,-100,4,2,1,80,0,1
37040,-100,4,2,1,5,0,0
37123,-100,4,2,1,90,0,1
41079,-100,4,2,0,50,0,0
42068,-100,4,2,1,70,0,0
43716,-100,4,2,1,60,0,0
44375,-100,4,2,1,50,0,0
44705,-100,4,2,1,40,0,0
45035,-100,4,2,1,30,0,0
45364,-100,4,2,1,20,0,0
45694,-100,4,2,1,10,0,0
46024,-100,4,2,1,5,0,0

[Colours]
Combo1 : 77,117,210
Combo2 : 242,66,66
Combo3 : 240,214,66
Combo4 : 162,233,238

[HitObjects]
262,262,200,6,0,L|152:213,3,110,0|2|0|2,0:0|0:2|0:0|0:2,0:0:0:0:
315,218,859,1,0,0:0:0:0:
375,126,1024,1,2,0:2:0:0:
315,218,1189,1,0,0:0:0:0:
211,254,1353,1,2,0:2:0:0:
364,270,1518,5,0,0:0:0:0:
463,316,1683,1,2,0:2:0:0:
463,316,1848,1,0,0:0:0:0:
363,268,2013,1,2,0:2:0:0:
208,262,2178,2,0,L|322:236,3,110,0|2|0|2,0:0|0:2|0:0|0:2,0:0:0:0:
470,213,2837,6,0,L|475:87,1,110,0|2,0:0|0:2,0:0:0:0:
363,102,3167,2,0,L|353:219,1,110,0|2,0:0|0:2,0:0:0:0:
199,210,3496,2,0,L|192:339,1,110,0|2,0:0|0:2,0:0:0:0:
303,328,3826,2,0,L|310:200,1,110,0|2,0:0|0:2,0:0:0:0:
468,170,4156,6,0,L|343:171,1,110,0|2,0:0|0:2,0:0:0:0:
467,157,4485,2,0,L|468:39,1,110,0|2,0:0|0:2,0:0:0:0:
312,53,4815,2,0,L|438:51,1,110,0|2,0:0|0:2,0:0:0:0:
312,64,5145,2,0,L|309:196,1,110,0|2,0:0|0:2,0:0:0:0:
88,184,5474,6,0,L|88:309,1,110,8|0,0:2|0:0,0:0:0:0:
241,312,5804,2,0,L|239:187,1,110,8|2,0:2|0:2,0:0:0:0:
467,203,6134,2,0,L|334:204,1,110,8|2,0:2|0:2,0:0:0:0:
204,184,6463,2,0,L|62:184,1,110,8|2,0:2|0:2,0:0:0:0:
338,71,6793,6,0,L|477:71,1,110,8|0,0:2|0:0,0:0:0:0:
293,77,7123,2,0,L|145:80,1,110,8|2,0:2|0:2,0:0:0:0:
468,191,7452,2,0,L|319:204,2,146.666666666667,10|2|2,0:2|0:0|0:0,0:0:0:0:
180,48,8112,5,8,0:2:0:0:
312,53,8276,2,0,L|334:115,1,55,10|8,0:2|0:2,0:0:0:0:
148,218,8441,1,8,0:2:0:0:
38,214,8606,2,0,L|99:215,1,55,10|8,0:2|0:2,0:0:0:0:
288,154,8771,1,8,0:2:0:0:
156,149,8936,2,0,L|137:85,1,55,10|8,0:2|0:2,0:0:0:0:
328,272,9101,1,8,0:2:0:0:
438,268,9265,2,0,L|356:263,1,55,10|8,0:2|0:2,0:0:0:0:
182,78,9430,5,8,0:2:0:0:
326,76,9595,1,10,0:2:0:0:
184,73,9760,1,8,0:2:0:0:
326,76,9925,1,10,0:2:0:0:
194,131,10090,2,0,P|141:168|214:211,1,165,8|0,0:2|0:0,0:0:0:0:
277,221,10419,2,0,L|34:221,1,242.000007385254,8|0,3:2|0:0,0:0:0:0:
364,296,10749,6,0,P|362:220|228:190,1,220,6|10,3:2|0:0,0:0:0:0:
69,173,11243,2,0,L|143:176,1,55,2|2,0:2|0:2,0:0:0:0:
213,207,11408,2,0,L|210:69,1,110,2|2,3:2|0:2,0:0:0:0:
133,95,11656,1,2,0:2:0:0:
210,92,11738,1,10,0:0:0:0:
287,89,11820,1,2,0:2:0:0:
209,135,11903,1,2,0:2:0:0:
437,219,12068,6,0,L|435:82,1,110,2|2,3:2|0:2,0:0:0:0:
282,100,12397,1,10,0:0:0:0:
439,97,12562,1,0,0:0:0:0:
170,211,12727,2,0,L|127:211,1,27.5,2|0,3:2|0:0,0:0:0:0:
226,209,12892,1,2,0:2:0:0:
377,302,13057,2,0,L|248:294,1,110,10|2,0:0|0:2,0:0:0:0:
207,293,13304,1,2,0:2:0:0:
382,179,13386,6,0,L|479:183,2,73.3333333333333,2|2|2,3:2|0:2|0:2,0:0:0:0:
211,39,13716,2,0,L|299:40,1,73.3333333333333,10|2,0:0|0:2,0:0:0:0:
366,43,13936,1,2,0:2:0:0:
196,166,14046,2,0,L|63:165,1,110,2|2,3:2|0:2,0:0:0:0:
240,172,14375,2,0,L|242:52,1,110,10|2,0:0|0:2,0:0:0:0:
474,168,14705,5,2,3:2:0:0:
320,167,14870,1,2,0:0:0:0:
476,137,15035,1,10,0:0:0:0:
323,128,15200,1,2,0:0:0:0:
89,158,15364,1,2,3:2:0:0:
243,185,15529,1,2,0:2:0:0:
88,181,15694,2,0,L|85:38,1,110,10|2,0:0|0:2,0:0:0:0:
331,113,16024,6,0,L|167:96,1,165,2|0,3:2|0:0,0:0:0:0:
233,99,16353,1,10,0:0:0:0:
387,92,16518,2,0,L|324:92,1,55,2|2,0:2|0:2,0:0:0:0:
276,90,16683,2,0,L|275:212,1,110,2|2,3:2|0:2,0:0:0:0:
353,202,16930,1,2,0:2:0:0:
276,204,17013,1,10,0:0:0:0:
200,204,17095,1,2,0:2:0:0:
278,242,17178,1,2,0:2:0:0:
49,268,17342,6,0,L|50:150,1,110,2|2,3:2|0:2,0:0:0:0:
205,148,17672,1,10,0:0:0:0:
51,154,17837,1,0,0:0:0:0:
287,54,18002,2,0,L|325:54,1,27.5,2|0,3:2|0:0,0:0:0:0:
232,52,18167,1,2,0:2:0:0:
385,245,18331,2,0,L|506:245,1,110,10|2,0:0|0:2,0:0:0:0:
439,245,18579,1,2,0:2:0:0:
263,205,18661,6,0,L|278:131,1,73.3333333333333,2|2,3:2|0:2,0:0:0:0:
352,126,18881,1,2,0:2:0:0:
180,77,18991,2,0,L|259:57,1,73.3333333333333,10|2,0:0|0:2,0:0:0:0:
325,66,19210,1,2,0:2:0:0:
153,245,19320,2,0,L|5:239,1,110,2|2,3:2|0:2,0:0:0:0:
198,230,19650,2,0,L|328:232,1,110,10|2,0:0|0:2,0:0:0:0:
77,60,19980,5,2,3:2:0:0:
220,49,20145,1,2,0:0:0:0:
374,43,20309,1,10,0:0:0:0:
221,50,20474,1,2,0:0:0:0:
67,56,20639,1,2,3:2:0:0:
352,272,20804,1,2,0:2:0:0:
117,259,20969,2,0,P|76:241|155:201,1,165,10|0,0:0|0:0,0:0:0:0:
322,119,21298,6,0,L|435:119,1,110,6|0,3:2|0:0,0:0:0:0:
190,116,21628,1,10,0:0:0:0:
345,118,21793,2,0,L|345:59,1,55,2|2,0:2|0:2,0:0:0:0:
249,61,21958,2,0,L|127:66,1,110,2|2,3:2|0:2,0:0:0:0:
216,60,22205,1,2,0:2:0:0:
292,58,22287,1,10,0:0:0:0:
214,59,22370,1,2,0:2:0:0:
137,59,22452,1,2,0:2:0:0:
363,219,22617,6,0,L|481:215,1,110,2|2,3:2|0:2,0:0:0:0:
318,224,22947,2,0,L|313:101,1,110,10|0,0:0|0:0,0:0:0:0:
82,256,23276,1,2,3:2:0:0:
52,257,23318,1,0,0:0:0:0:
135,258,23441,1,2,0:2:0:0:
296,107,23606,2,0,L|185:110,1,110,10|2,0:0|0:2,0:0:0:0:
125,109,23853,1,2,0:2:0:0:
320,260,23936,6,0,L|409:259,1,73.3333333333333,2|2,3:2|0:2,0:0:0:0:
223,255,24156,1,2,0:2:0:0:
396,199,24265,2,0,L|305:189,1,73.3333333333333,10|2,0:0|0:2,0:0:0:0:
145,201,24485,1,2,0:2:0:0:
315,67,24595,1,2,3:2:0:0:
378,157,24760,1,2,0:2:0:0:
315,67,24925,1,10,0:0:0:0:
162,57,25090,1,2,0:2:0:0:
382,260,25254,5,2,3:2:0:0:
228,269,25419,1,2,0:0:0:0:
379,239,25584,1,10,0:0:0:0:
137,123,25749,1,2,0:0:0:0:
379,122,25914,2,0,L|506:121,1,110,2|2,3:2|0:2,0:0:0:0:
261,187,26243,2,0,L|262:323,1,110,10|2,0:0|0:2,0:0:0:0:
32,139,26573,6,0,L|151:140,1,110,2|0,3:2|0:0,0:0:0:0:
380,140,26903,1,10,0:0:0:0:
231,237,27068,2,0,L|168:237,1,55,2|2,0:2|0:2,0:0:0:0:
262,223,27232,2,0,L|376:218,1,110,2|2,3:2|0:2,0:0:0:0:
294,219,27480,1,2,0:2:0:0:
218,218,27562,1,10,0:0:0:0:
296,218,27645,1,2,0:2:0:0:
372,222,27727,1,2,0:2:0:0:
115,46,27892,6,0,L|-10:42,1,110,2|2,3:2|0:2,0:0:0:0:
153,99,28221,2,0,L|277:108,1,110,10|0,0:0|0:0,0:0:0:0:
41,310,28551,2,0,L|42:277,1,27.5,2|0,3:2|0:0,0:0:0:0:
125,276,28716,1,2,0:2:0:0:
280,269,28881,2,0,L|158:257,1,110,10|2,0:0|0:2,0:0:0:0:
116,253,29128,1,2,0:2:0:0:
291,166,29210,6,0,L|366:166,1,73.3333333333333,2|2,3:2|0:2,0:0:0:0:
191,136,29430,1,2,0:2:0:0:
363,88,29540,2,0,L|244:88,1,73.3333333333333,10|2,0:0|0:2,0:0:0:0:
117,79,29760,1,2,0:2:0:0:
286,293,29870,1,2,3:2:0:0:
344,198,30035,1,2,0:2:0:0:
282,289,30200,1,10,0:0:0:0:
133,302,30364,1,2,0:2:0:0:
364,307,30529,5,2,3:2:0:0:
211,297,30694,2,0,L|217:173,1,110,2|10,0:2|0:0,0:0:0:0:
444,163,31024,1,2,0:2:0:0:
213,125,31189,2,0,L|62:120,1,110,2|2,3:2|0:2,0:0:0:0:
339,317,31518,2,0,L|459:315,1,110,10|0,0:0|0:0,0:0:0:0:
191,163,31848,6,0,B|79:169|79:169|148:165,1,165,2|0,3:2|0:0,0:0:0:0:
310,265,32178,1,10,0:0:0:0:
202,248,32342,2,0,L|205:182,1,55,2|2,0:2|0:2,0:0:0:0:
294,196,32507,2,0,L|294:55,1,110,2|2,3:2|0:2,0:0:0:0:
217,88,32754,1,2,0:2:0:0:
295,51,32837,1,10,0:0:0:0:
373,92,32919,1,2,0:2:0:0:
295,92,33002,1,2,0:2:0:0:
64,281,33167,6,0,L|178:281,1,110,2|2,3:2|0:2,0:0:0:0:
321,169,33496,2,0,L|183:165,1,110,10|0,0:0|0:0,0:0:0:0:
445,94,33826,1,2,3:2:0:0:
473,94,33867,1,0,0:0:0:0:
391,92,33991,1,2,0:2:0:0:
237,274,34156,2,0,L|362:276,1,110,10|2,0:0|0:2,0:0:0:0:
403,275,34403,1,2,0:2:0:0:
218,88,34485,6,0,L|126:88,1,73.3333333333333,2|2,3:2|0:2,0:0:0:0:
319,209,34705,1,2,0:2:0:0:
150,188,34815,2,0,L|239:191,1,73.3333333333333,10|2,0:0|0:2,0:0:0:0:
396,152,35035,1,2,0:2:0:0:
226,279,35145,1,2,3:2:0:0:
106,286,35309,1,2,0:2:0:0:
228,288,35474,1,10,0:0:0:0:
108,281,35639,1,2,0:2:0:0:
350,120,35804,5,2,3:2:0:0:
207,117,35969,1,2,0:0:0:0:
42,123,36134,1,10,0:0:0:0:
278,322,36298,1,2,0:0:0:0:
47,210,36463,2,0,L|182:204,1,110,2|2,3:2|0:2,0:0:0:0:
399,118,36793,2,0,L|398:267,1,110,10|2,0:0|0:2,0:0:0:0:
147,88,37123,5,10,3:2:0:0:
289,88,37287,1,2,0:2:0:0:
31,221,37452,1,10,3:2:0:0:
174,223,37617,1,2,0:2:0:0:
424,305,37782,2,0,L|424:162,1,110,10|2,3:2|0:2,0:0:0:0:
364,197,38029,1,2,0:2:0:0:
138,82,38112,2,0,L|199:82,1,55,10|2,3:2|0:2,0:0:0:0:
364,142,38276,2,0,L|422:142,1,55,2|2,0:2|0:2,0:0:0:0:
224,240,38441,5,10,3:2:0:0:
82,229,38606,2,0,L|145:219,1,55,10|8,0:0|0:0,0:0:0:0:
326,74,38771,1,10,3:2:0:0:
184,88,38936,2,0,L|152:153,1,55,10|10,0:0|0:0,0:0:0:0:
346,246,39101,1,10,3:2:0:0:
488,232,39265,2,0,L|414:231,1,55,10|8,0:0|0:0,0:0:0:0:
240,130,39430,1,10,3:2:0:0:
383,123,39595,2,0,L|347:65,1,55,10|10,0:0|0:0,0:0:0:0:
152,230,39760,6,0,L|249:235,2,73.3333333333333,10|2|2,3:2|0:0|0:0,0:0:0:0:
339,84,40090,2,0,L|419:83,1,73.3333333333333,10|2,3:2|0:0,0:0:0:0:
229,299,40309,1,2,0:0:0:0:
413,265,40419,2,0,L|281:256,1,110,10|10,3:2|0:0,0:0:0:0:
80,149,40749,1,10,3:2:0:0:
322,204,40914,1,10,0:0:0:0:
97,327,41079,6,0,L|98:206,1,110,0|0,1:0|0:0,0:0:0:0:
153,220,41326,1,0,0:0:0:0:
224,220,41408,1,8,0:0:0:0:
69,215,41573,2,0,L|70:89,1,110,0|0,1:0|0:0,0:0:0:0:
125,104,41820,1,0,0:0:0:0:
197,104,41903,1,8,0:0:0:0:
42,47,42068,1,8,0:0:0:0:
218,48,42150,1,0,0:0:0:0:
163,51,42232,1,0,0:0:0:0:
107,52,42315,1,0,0:0:0:0:
294,213,42397,5,4,3:2:0:0:
256,192,42562,12,0,46024,0:0:0:0:
