osu file format v14

[General]
AudioFilename: audio.mp3
AudioLeadIn: 0
PreviewTime: 21257
Countdown: 0
SampleSet: Soft
StackLeniency: 0.7
Mode: 2
LetterboxInBreaks: 0
WidescreenStoryboard: 1

[Editor]
Bookmarks: 37123
DistanceSpacing: 1
BeatDivisor: 4
GridSize: 32
TimelineZoom: 1.9

[Metadata]
Title:fieryrage accordion (hardcore remix)
TitleUnicode:fieryrage accordion (hardcore remix)
Artist:tomspicy
ArtistUnicode:tomspicy
Creator:Juansy-
Version:salad
Source:
Tags:xandit bokeru fieryrage d'n'b electronic instrumental dnb drum n' and & bass The College Sailor's Hornpipe Jack's the Lad
BeatmapID:3968551
BeatmapSetID:1921382

[Difficulty]
HPDrainRate:3
CircleSize:3
OverallDifficulty:7
ApproachRate:7
SliderMultiplier:1.45
SliderTickRate:1

[Events]
//Background and Video events
0,0,"bg.png",0,0
//Break Periods
//Storyboard Layer 0 (Background)
//Storyboard Layer 1 (Fail)
//Storyboard Layer 2 (Pass)
//Storyboard Layer 3 (Foreground)
//Storyboard Layer 4 (Overlay)
//Storyboard Sound Samples

[TimingPoints]
200,329.67032967033,4,2,1,30,1,0
5474,-100,4,2,1,50,0,0
5721,-100,4,2,1,5,0,0
5804,-100,4,2,1,50,0,0
7040,-100,4,2,1,5,0,0
7123,-100,4,2,1,50,0,0
10666,-100,4,2,1,5,0,0
10749,-100,4,2,1,70,0,0
14210,-100,4,2,1,70,0,0
19485,-100,4,2,1,70,0,0
21216,-100,4,2,1,5,0,0
21298,-100,4,2,1,80,0,1
37040,-100,4,2,1,5,0,0
37123,-100,4,2,1,90,0,1
41079,-100,4,2,0,50,0,0
42068,-100,4,2,1,70,0,0
43716,-100,4,2,1,60,0,0
44375,-100,4,2,1,50,0,0
44705,-100,4,2,1,40,0,0
45035,-100,4,2,1,30,0,0
45364,-100,4,2,1,20,0,0
45694,-100,4,2,1,10,0,0
46024,-100,4,2,1,5,0,0

[Colours]
Combo1 : 77,117,210
Combo2 : 242,66,66
Combo3 : 240,214,66
Combo4 : 162,233,238

[HitObjects]
175,280,364,6,0,P|119:273|206:150,1,290,2|2,0:2|0:2,0:0:0:0:
332,145,1353,1,2,0:2:0:0:
477,150,1683,6,0,P|479:228|301:295,1,290,2|2,0:2|0:2,0:0:0:0:
162,285,2672,1,2,0:2:0:0:
306,300,3002,6,0,P|373:249|247:146,1,290,2|2,0:2|0:2,0:0:0:0:
112,115,3991,1,2,0:2:0:0:
256,120,4320,6,0,L|412:140,2,145,2|2|2,0:2|0:2|0:2,0:0:0:0:
110,115,5309,1,2,0:2:0:0:
189,114,5474,5,8,0:2:0:0:
334,112,5804,1,8,0:2:0:0:
188,108,6134,1,8,0:2:0:0:
43,106,6463,1,8,0:2:0:0:
275,222,6793,5,8,0:2:0:0:
241,264,7123,1,8,0:2:0:0:
96,276,7452,2,0,L|276:270,1,145,10|8,0:2|0:2,0:0:0:0:
313,268,7947,1,2,0:0:0:0:
160,104,8112,5,8,0:2:0:0:
131,170,8276,1,10,0:2:0:0:
174,111,8441,1,8,0:2:0:0:
245,98,8606,1,10,0:2:0:0:
172,94,8771,1,8,0:2:0:0:
99,91,8936,1,10,0:2:0:0:
171,87,9101,1,8,0:2:0:0:
329,94,9430,5,8,0:2:0:0:
474,96,9760,1,8,0:2:0:0:
328,94,10090,1,8,0:2:0:0:
472,98,10419,1,8,3:2:0:0:
211,223,10749,6,0,P|171:205|232:142,1,145,6|10,3:2|0:0,0:0:0:0:
281,138,11243,1,2,0:2:0:0:
209,135,11408,1,2,3:2:0:0:
58,144,11738,2,0,L|130:111,1,72.5,10|2,0:0|0:2,0:0:0:0:
269,304,12068,6,0,P|297:240|256:158,1,145,2|10,3:2|0:0,0:0:0:0:
201,141,12562,1,0,0:0:0:0:
130,131,12727,1,2,3:2:0:0:
276,135,13057,1,10,0:0:0:0:
117,138,13386,6,0,L|33:135,2,72.5,2|0|10,3:2|0:0|0:0,0:0:0:0:
263,134,14046,2,0,L|169:133,1,72.5,2|2,3:2|0:2,0:0:0:0:
111,136,14375,1,10,0:0:0:0:
345,298,14705,6,0,L|503:297,1,145,2|10,3:2|0:0,0:0:0:0:
337,231,15364,1,2,3:2:0:0:
482,226,15694,1,10,0:0:0:0:
225,219,16024,6,0,P|223:142|307:113,1,145,2|10,3:2|0:0,0:0:0:0:
347,111,16518,1,2,0:2:0:0:
274,108,16683,1,2,3:2:0:0:
128,103,17013,2,0,L|229:111,1,72.5,10|2,0:0|0:2,0:0:0:0:
361,311,17342,6,0,P|404:284|339:233,1,145,2|10,3:2|0:0,0:0:0:0:
284,224,17837,1,0,0:0:0:0:
211,225,18002,2,0,L|379:216,1,145,2|10,3:2|0:0,0:0:0:0:
197,233,18661,6,0,L|119:219,2,72.5,2|0|10,3:2|0:0|0:0,0:0:0:0:
342,235,19320,2,0,L|246:228,1,72.5,2|2,3:2|0:2,0:0:0:0:
196,223,19650,1,10,0:0:0:0:
450,231,19980,6,0,L|450:83,1,145,2|10,3:2|0:0,0:0:0:0:
305,80,20639,1,2,3:2:0:0:
450,82,20969,1,10,0:0:0:0:
190,225,21298,6,0,P|150:207|211:144,1,145,6|10,3:2|0:0,0:0:0:0:
260,137,21793,1,2,0:2:0:0:
332,134,21958,1,2,3:2:0:0:
187,122,22287,2,0,L|106:124,1,72.5,10|2,0:0|0:2,0:0:0:0:
268,238,22617,6,0,L|426:238,2,145,2|10|2,3:2|0:0|3:2,0:0:0:0:
122,242,23606,1,10,0:0:0:0:
368,155,23936,6,0,L|463:160,2,72.5,2|0|10,3:2|0:0|0:0,0:0:0:0:
208,143,24595,2,0,L|296:135,1,72.5,2|2,3:2|0:2,0:0:0:0:
353,133,24925,1,10,0:0:0:0:
105,294,25254,6,0,L|52:220,2,72.5,2|2|10,3:2|0:0|0:0,0:0:0:0:
250,132,25914,1,2,3:2:0:0:
105,128,26243,1,10,0:0:0:0:
353,216,26573,6,0,P|403:188|337:132,1,145,2|10,3:2|0:0,0:0:0:0:
293,125,27068,1,2,0:2:0:0:
220,126,27232,1,2,3:2:0:0:
363,145,27562,2,0,L|441:144,1,72.5,10|2,0:0|0:2,0:0:0:0:
281,62,27892,6,0,L|127:65,2,145,2|10|2,3:2|0:0|3:2,0:0:0:0:
426,62,28881,1,10,0:0:0:0:
179,301,29210,6,0,L|90:301,2,72.5,2|0|10,3:2|0:0|0:0,0:0:0:0:
324,214,29870,2,0,L|239:213,1,72.5,2|2,3:2|0:2,0:0:0:0:
178,211,30200,1,10,0:0:0:0:
426,328,30529,6,0,L|479:255,2,72.5,2|2|10,3:2|0:2|0:0,0:0:0:0:
267,211,31189,1,2,3:2:0:0:
411,205,31518,1,10,0:0:0:0:
150,93,31848,5,2,3:2:0:0:
309,101,32178,2,0,L|307:196,2,72.5,10|2|2,0:0|0:2|3:2,0:0:0:0:
150,93,32837,2,0,L|242:98,1,72.5,10|2,0:0|0:2,0:0:0:0:
377,311,33167,6,0,P|428:275|364:233,1,145,2|10,3:2|0:0,0:0:0:0:
310,232,33661,1,0,0:0:0:0:
237,227,33826,2,0,L|417:224,1,145,2|10,3:2|0:0,0:0:0:0:
135,111,34485,6,0,L|52:111,2,72.5,2|0|10,3:2|0:0|0:0,0:0:0:0:
280,117,35145,2,0,L|201:118,1,72.5,2|2,3:2|0:2,0:0:0:0:
127,120,35474,1,10,0:0:0:0:
375,225,35804,6,0,L|416:155,2,72.5,2|2|10,3:2|0:0|0:0,0:0:0:0:
229,230,36463,1,2,3:2:0:0:
374,232,36793,1,10,0:0:0:0:
98,135,37123,5,10,3:2:0:0:
243,133,37452,1,10,3:2:0:0:
98,135,37782,1,10,3:2:0:0:
230,139,38112,2,0,L|325:142,1,72.5,10|2,3:2|0:2,0:0:0:0:
150,290,38441,5,10,3:2:0:0:
103,344,38606,1,10,0:0:0:0:
150,290,38771,1,10,3:2:0:0:
223,294,38936,1,10,0:0:0:0:
151,288,39101,1,10,3:2:0:0:
79,289,39265,1,10,0:0:0:0:
152,290,39430,1,10,3:2:0:0:
399,141,39760,5,10,3:2:0:0:
383,211,39925,1,0,0:0:0:0:
340,269,40090,1,10,3:2:0:0:
271,286,40254,1,0,0:0:0:0:
199,290,40419,1,10,3:2:0:0:
345,292,40749,1,10,3:2:0:0:
187,244,41079,6,0,P|140:217|203:175,1,145,0|8,1:0|0:0,0:0:0:0:
262,164,41573,2,0,L|255:319,1,145,0|8,1:0|0:0,0:0:0:0:
175,315,42068,2,0,L|264:320,1,72.5,8|0,0:0|0:0,0:0:0:0:
411,243,42397,5,4,3:2:0:0:
256,192,42727,12,0,46024,0:0:0:0:
