osu file format v14

[General]
AudioFilename: audio.mp3
AudioLeadIn: 0
PreviewTime: 11008
Countdown: 0
SampleSet: Soft
StackLeniency: 0.3
Mode: 0
LetterboxInBreaks: 0
WidescreenStoryboard: 1

[Editor]
Bookmarks: 37423
DistanceSpacing: 0.1
BeatDivisor: 4
GridSize: 4
TimelineZoom: 1.5

[Metadata]
Title:fieryrage accordion (hardcore remix)
TitleUnicode:fieryrage accordion (hardcore remix)
Artist:tomspicy
ArtistUnicode:tomspicy
Creator:Aakki
Version:torriru's high-speed extreme
Source:
Tags:reform kujinn xiced door weapon dog food fieryrage xandit torriru electronic instrumental dnb drum n' and & bass the college sailor's hornpipe jack's the lad
BeatmapID:3106936
BeatmapSetID:1516867

[Difficulty]
HPDrainRate:6
CircleSize:3.4
OverallDifficulty:8.6
ApproachRate:9.8
SliderMultiplier:2
SliderTickRate:1

[Events]
//Background and Video events
0,0,"ffs.png",0,0
//Break Periods
//Storyboard Layer 0 (Background)
//Storyboard Layer 1 (Fail)
//Storyboard Layer 2 (Pass)
//Storyboard Layer 3 (Foreground)
//Storyboard Layer 4 (Overlay)
//Storyboard Sound Samples

[TimingPoints]
500,329.67032967033,4,2,1,30,1,0
500,-200,4,2,1,30,0,0
1818,-166.666666666667,4,2,1,30,0,0
3137,-142.857142857143,4,2,1,30,0,0
5774,-100,4,2,1,50,0,0
6021,-100,4,2,1,5,0,0
6104,-125,4,2,1,50,0,0
6763,-166.666666666667,4,2,1,50,0,0
7093,-100,4,2,1,50,0,0
7340,-100,4,2,1,5,0,0
7423,-125,4,2,1,50,0,0
8000,-66.6666666666667,4,2,1,50,0,0
8082,-66.6666666666667,4,2,1,50,0,0
8164,-66.6666666666667,4,2,1,50,0,0
8329,-66.6666666666667,4,2,1,5,0,0
8412,-66.6666666666667,4,2,1,50,0,0
9565,-57.1428571428571,4,2,1,50,0,0
10719,-37.593984962406,4,2,1,50,0,0
10967,-37.593984962406,4,2,1,5,0,0
11049,-37.593984962406,4,2,1,70,0,0
11214,-57.1428571428571,4,2,1,70,0,0
11379,-50,4,2,1,70,0,0
11708,-57.1428571428571,4,2,1,70,0,0
12532,-100,4,2,1,70,0,0
12697,-57.1428571428571,4,2,1,70,0,0
12945,-57.1428571428571,4,2,1,5,0,0
13027,-100,4,2,1,70,0,0
13192,-57.1428571428571,4,2,1,70,0,0
13521,-100,4,2,1,70,0,0
15005,-57.1428571428571,4,2,1,70,0,0
16653,-40,4,2,1,70,0,0
16982,-57.1428571428571,4,2,1,70,0,0
17807,-100,4,2,1,70,0,0
17971,-57.1428571428571,4,2,1,70,0,0
18219,-57.1428571428571,4,2,1,5,0,0
18301,-100,4,2,1,70,0,0
18466,-57.1428571428571,4,2,1,70,0,0
18795,-100,4,2,1,70,0,0
20279,-57.1428571428571,4,2,1,70,0,0
21598,-57.1428571428571,4,2,1,80,0,0
21928,-40,4,2,1,80,0,0
23081,-100,4,2,1,80,0,0
23246,-57.1428571428571,4,2,1,80,0,0
23494,-57.1428571428571,4,2,1,5,0,0
23576,-100,4,2,1,80,0,0
23741,-57.1428571428571,4,2,1,80,0,0
24071,-100,4,2,1,80,0,0
25554,-57.1428571428571,4,2,1,80,0,0
27202,-40,4,2,1,80,0,0
28356,-100,4,2,1,80,0,0
28520,-57.1428571428571,4,2,1,80,0,0
28769,-57.1428571428571,4,2,1,5,0,0
28850,-100,4,2,1,80,0,0
29015,-57.1428571428571,4,2,1,80,0,0
29344,-100,4,2,1,80,0,0
30994,-57.1428571428571,4,2,1,80,0,0
32478,-36.3636363636364,4,2,1,80,0,0
33631,-100,4,2,1,80,0,0
33795,-57.1428571428571,4,2,1,80,0,0
34043,-57.1428571428571,4,2,1,5,0,0
34125,-100,4,2,1,80,0,0
34290,-57.1428571428571,4,2,1,80,0,0
34619,-100,4,2,1,80,0,0
36269,-57.1428571428571,4,2,1,80,0,0
37423,-40,4,2,1,80,0,0
39071,-33.3333333333333,4,2,1,80,0,0
39401,-28.5714285714286,4,2,1,80,0,0
39730,-25,4,2,1,80,0,0
40060,-33.3333333333333,4,2,1,80,0,0
40390,-28.5714285714286,4,2,1,80,0,0
40719,-25,4,2,1,80,0,0
41049,-22.2222222222222,4,2,1,80,0,0
41379,-22.2222222222222,4,2,0,50,0,0
42368,-22.2222222222222,4,2,1,70,0,0
42697,-1000,4,2,1,70,0,0
44016,-1000,4,2,1,60,0,0
44675,-1000,4,2,1,50,0,0
45005,-1000,4,2,1,40,0,0
45335,-1000,4,2,1,30,0,0
45664,-1000,4,2,1,20,0,0
45994,-1000,4,2,1,10,0,0
46324,-1000,4,2,1,5,0,0
46653,-1000,4,2,1,5,0,0

[Colours]
Combo1 : 77,117,210
Combo2 : 242,66,66
Combo3 : 240,214,66
Combo4 : 162,233,238

[HitObjects]
83,57,500,6,0,L|132:47,3,50,0|2|0|2,0:0|0:2|0:0|0:2,0:0:0:0:
61,142,1159,2,0,L|109:132,3,50,0|2|0|2,0:0|0:2|0:0|0:2,0:0:0:0:
219,216,1818,6,0,L|154:204,3,59.9999981689454,0|2|0|2,0:0|0:2|0:0|0:2,0:0:0:0:
240,300,2478,2,0,L|172:287,3,59.9999981689454,0|2|0|2,0:0|0:2|0:0|0:2,0:0:0:0:
400,60,3137,6,0,P|407:94|398:128,1,69.9999978637696,0|2,0:0|0:2,0:0:0:0:
255,73,3467,2,0,P|289:76|319:94,1,69.9999978637696,0|2,0:0|0:2,0:0:0:0:
219,216,3796,2,0,P|233:184|259:161,1,69.9999978637696,0|2,0:0|0:2,0:0:0:0:
345,294,4126,2,0,P|319:270|305:238,1,69.9999978637696,0|2,0:0|0:2,0:0:0:0:
255,73,4456,6,0,P|289:76|319:94,1,69.9999978637696,0|2,0:0|0:2,0:0:0:0:
219,216,4785,2,0,P|233:184|259:161,1,69.9999978637696,0|2,0:0|0:2,0:0:0:0:
345,294,5115,2,0,P|319:270|305:238,1,69.9999978637696,0|2,0:0|0:2,0:0:0:0:
456,198,5445,2,0,P|425:215|391:218,1,69.9999978637696,0|2,0:0|0:2,0:0:0:0:
138,7,5774,6,0,B|150:78|150:78|155:82|155:82|167:153,1,150,8|0,0:2|0:0,0:0:0:0:
143,229,6104,2,0,P|182:232|219:216,1,80,8|2,0:2|0:2,0:0:0:0:
378,26,6434,5,8,0:2:0:0:
375,37,6598,1,2,0:2:0:0:
319,94,6763,2,0,L|329:153,1,59.9999981689454,8|2,0:2|0:2,0:0:0:0:
481,267,7093,6,0,P|422:222|350:232,1,150,8|0,0:2|0:0,0:0:0:0:
319,306,7423,2,0,L|332:384,1,80,8|2,0:2|0:2,0:0:0:0:
40,197,7752,5,8,0:2:0:0:
105,142,7917,5,2,0:2:0:0:
113,134,8000,2,0,P|131:166|132:203,1,75.0000028610231,2|8,0:0|0:2,0:0:0:0:
27,336,8164,5,0,0:0:0:0:
19,328,8247,2,0,P|37:296|69:276,1,75.0000028610231,2|0,0:2|0:0,0:0:0:0:
332,384,8412,5,8,0:2:0:0:
155,292,8576,5,10,0:2:0:0:
173,289,8658,1,8,0:2:0:0:
192,286,8740,1,8,0:2:0:0:
86,211,8906,5,10,0:2:0:0:
108,207,8988,1,8,0:2:0:0:
132,203,9070,1,8,0:2:0:0:
17,130,9236,5,10,0:2:0:0:
44,125,9318,1,8,0:2:0:0:
74,120,9400,1,8,0:2:0:0:
256,197,9565,6,0,P|285:165|327:154,1,87.500000834465,10|8,0:2|0:2,0:0:0:0:
398,196,9730,1,8,0:2:0:0:
258,280,9895,6,0,P|245:239|256:197,1,87.500000834465,10|0,0:2|0:0,0:0:0:0:
327,154,10060,1,8,0:2:0:0:
331,320,10225,6,0,P|289:310|258:280,1,87.500000834465,10|0,0:2|0:0,0:0:0:0:
256,197,10390,1,8,0:2:0:0:
329,238,10554,5,2,0:2:0:0:
75,121,10719,38,1,B|46:186|100:242|100:242|158:305|110:378|37:381|-12:303|41:255,1,398.999983561707,8|0,3:2|0:0,0:0:0:0:
32,247,11049,5,6,3:2:0:0:
51,39,11214,6,0,P|93:37|131:58,1,87.500000834465
412,72,11379,6,0,B|318:88|318:88|312:95|312:95|217:111,1,200,10|2,0:0|0:2,0:0:0:0:
151,166,11626,1,2,0:2:0:0:
157,172,11708,6,0,P|194:193|237:191,1,87.500000834465,2|2,3:2|0:2,0:0:0:0:
263,272,11873,2,0,P|299:250|319:212,1,87.500000834465,2|2,0:2|0:2,0:0:0:0:
449,22,12038,5,10,0:0:0:0:
412,72,12120,1,2,0:2:0:0:
449,123,12203,1,2,0:2:0:0:
509,103,12285,1,2,0:2:0:0:
509,40,12368,1,2,3:2:0:0:
149,123,12532,6,0,L|158:172,1,50,2|0,0:2|0:0,0:0:0:0:
60,284,12697,6,0,B|3:219|3:219|173:265,1,262.500002503395,10|0,0:0|0:0,0:0:0:0:
220,364,13027,2,0,L|171:350,1,50,2|2,3:2|0:2,0:0:0:0:
89,62,13192,6,0,P|126:40|169:39,1,87.500000834465,2|0,0:2|0:0,0:0:0:0:
149,123,13357,1,10,0:0:0:0:
263,0,13521,6,0,L|255:49,1,50,2|2,0:2|0:2,0:0:0:0:
359,169,13686,5,2,3:2:0:0:
367,161,13796,6,0,L|280:145,1,66.6666666666667,2|2,0:2|0:2,0:0:0:0:
172,264,14016,5,10,0:0:0:0:
164,256,14126,6,0,L|250:270,1,66.6666666666667,2|2,0:2|0:2,0:0:0:0:
484,384,14346,5,2,3:2:0:0:
510,281,14510,1,2,0:2:0:0:
409,254,14675,1,10,0:0:0:0:
382,355,14840,1,2,0:2:0:0:
254,53,15005,5,2,3:2:0:0:
390,90,15170,6,0,P|370:51|332:30,1,87.500000834465
254,53,15335,1,10,0:0:0:0:
367,170,15500,6,0,P|390:133|390:90,1,87.500000834465
333,30,15664,1,2,3:2:0:0:
286,189,15830,6,0,P|329:190|367:169,1,87.500000834465,2|0,0:2|0:0,0:0:0:0:
390,90,15994,1,10,0:0:0:0:
229,128,16159,6,0,P|249:166|286:188,1,87.500000834465,2|0,0:2|0:0,0:0:0:0:
309,111,16323,5,2,3:2:0:0:
132,317,16489,6,0,L|146:231,1,87.500000834465
41,109,16653,6,1,B|15:139|-19:143|-19:143|83:171|83:171|109:144|147:143,1,250,10|0,0:0|0:2,0:0:0:0:
223,34,16901,1,0,0:2:0:0:
215,42,16983,6,0,L|229:128,1,87.500000834465,2|2,3:2|0:2,0:0:0:0:
295,25,17148,2,0,L|309:111,1,87.500000834465,2|2,0:2|0:2,0:0:0:0:
475,320,17313,5,10,0:0:0:0:
512,270,17395,1,2,0:2:0:0:
475,219,17478,1,2,0:2:0:0:
415,239,17560,1,2,0:2:0:0:
415,302,17643,1,2,3:2:0:0:
215,42,17807,6,0,L|224:91,1,50,2|0,0:2|0:0,0:0:0:0:
309,111,17972,6,0,B|184:132|184:132|176:141|176:141|54:161,1,262.500002503395,10|0,0:0|0:0,0:0:0:0:
7,257,18302,6,0,L|56:248,1,50,2|2,3:2|0:2,0:0:0:0:
369,50,18467,6,0,P|332:28|289:27,1,87.500000834465,2|0,0:2|0:0,0:0:0:0:
309,111,18632,1,10,0:0:0:0:
446,0,18796,6,0,L|455:49,1,50,2|2,0:2|0:2,0:0:0:0:
253,217,18961,5,2,3:2:0:0:
245,209,19071,6,0,L|332:193,1,66.6666666666667,2|2,0:2|0:2,0:0:0:0:
468,327,19291,5,10,3:2:0:0:
476,319,19401,6,0,L|388:333,1,66.6666666666667,2|2,0:2|0:2,0:0:0:0:
33,360,19620,5,2,3:2:0:0:
7,257,19784,1,2,0:2:0:0:
108,230,19949,1,10,0:0:0:0:
135,331,20114,1,2,0:2:0:0:
473,88,20280,5,2,3:2:0:0:
301,57,20445,6,0,L|387:72,1,87.500000834465
473,88,20610,1,10,0:0:0:0:
215,42,20774,6,0,L|301:57,1,87.500000834465
388,72,20939,1,2,3:2:0:0:
129,27,21104,6,0,L|215:42,1,87.500000834465,2|0,0:2|0:0,0:0:0:0:
301,57,21269,1,10,0:0:0:0:
43,12,21434,6,0,L|129:27,1,87.500000834465,2|0,0:2|0:0,0:0:0:0:
473,88,21598,5,6,3:2:0:0:
0,376,21763,6,0,L|14:290,1,87.500000834465
161,169,21928,6,0,P|67:129|87:229,1,250,10|2,0:0|0:2,0:0:0:0:
253,333,22175,5,2,0:2:0:0:
248,317,22257,1,2,3:2:0:0:
244,302,22339,1,2,0:2:0:0:
239,286,22422,1,2,0:2:0:0:
236,272,22504,1,2,0:2:0:0:
236,145,22587,5,10,0:0:0:0:
161,169,22670,1,2,0:2:0:0:
161,248,22752,1,2,0:2:0:0:
236,272,22835,1,2,0:2:0:0:
283,208,22917,1,2,3:2:0:0:
352,54,23082,6,0,L|361:103,1,50,2|0,0:2|0:0,0:0:0:0:
470,226,23247,6,1,B|497:194|533:190|533:190|425:160|425:160|398:189|358:190,1,262.500002503395,10|0,0:0|0:0,0:0:0:0:
406,321,23576,6,0,L|397:272,1,50,2|2,3:2|0:2,0:0:0:0:
101,108,23741,6,0,P|138:86|181:85,1,87.500000834465,2|0,0:2|0:0,0:0:0:0:
161,169,23906,1,10,0:0:0:0:
23,62,24071,6,0,L|15:112,1,50,2|2,0:2|0:2,0:0:0:0:
256,348,24236,5,2,3:2:0:0:
263,339,24346,6,0,L|176:355,1,66.6666666666667,2|2,0:2|0:2,0:0:0:0:
21,212,24565,5,10,3:2:0:0:
11,205,24675,6,0,L|98:190,1,66.6666666666667,2|2,0:2|0:2,0:0:0:0:
475,20,24895,5,2,3:2:0:0:
352,54,25059,1,2,0:2:0:0:
385,175,25224,1,10,0:0:0:0:
505,143,25389,1,2,0:2:0:0:
218,33,25554,5,2,3:2:0:0:
181,169,25719,6,0,P|220:149|241:111,1,87.500000834465
218,33,25884,1,10,0:0:0:0:
101,146,26049,6,0,P|138:169|181:169,1,87.500000834465
241,112,26213,1,2,3:2:0:0:
82,65,26379,6,0,P|81:108|102:146,1,87.500000834465,2|0,0:2|0:0,0:0:0:0:
181,169,26543,1,10,0:0:0:0:
143,8,26708,6,0,P|105:28|83:65,1,87.500000834465,2|0,0:2|0:0,0:0:0:0:
160,88,26872,5,2,3:2:0:0:
471,25,27038,6,0,L|457:111,1,87.500000834465
336,265,27203,6,0,B|356:148|356:148|365:140|365:140|385:24,1,250,10|2,0:0|0:2,0:0:0:0:
152,246,27450,5,2,0:2:0:0:
168,241,27532,1,2,3:2:0:0:
183,237,27614,1,2,0:2:0:0:
199,232,27697,1,2,0:2:0:0:
213,229,27779,1,2,0:2:0:0:
336,265,27862,5,10,0:0:0:0:
261,292,27944,1,2,0:2:0:0:
213,229,28027,1,2,0:2:0:0:
257,164,28109,1,2,0:2:0:0:
332,186,28191,1,2,3:2:0:0:
143,295,28357,6,0,L|152:246,1,50,2|0,0:2|0:0,0:0:0:0:
52,124,28521,6,0,B|-5:189|-5:189|165:143,1,262.500002503395,10|0,0:0|0:0,0:0:0:0:
213,44,28851,6,0,L|165:58,1,50,2|2,3:2|0:2,0:0:0:0:
360,358,29016,6,0,L|346:272,1,87.500000834465,2|0,0:2|0:0,0:0:0:0:
332,186,29181,1,10,0:0:0:0:
482,249,29346,6,0,L|433:258,1,50,2|2,0:2|0:2,0:0:0:0:
213,44,29510,5,2,3:2:0:0:
204,37,29620,6,0,L|220:124,1,66.6666666666667,2|2,0:2|0:2,0:0:0:0:
56,280,29840,5,10,3:2:0:0:
49,289,29950,6,0,L|34:201,1,66.6666666666667,2|2,0:2|0:2,0:0:0:0:
482,249,30170,5,2,3:2:0:0:
356,225,30334,1,2,0:2:0:0:
378,102,30499,1,10,0:0:0:0:
501,123,30664,1,2,0:2:0:0:
152,246,30829,5,2,3:2:0:0:
189,110,30994,6,0,P|150:130|129:168,1,87.500000834465
152,246,31159,1,10,0:0:0:0:
289,211,31324,6,0,P|252:187|208:188,1,87.500000834465
152,246,31489,1,2,3:2:0:0:
251,348,31653,6,0,P|253:304|230:267,1,87.500000834465,2|0,0:2|0:0,0:0:0:0:
152,246,31818,1,10,0:0:0:0:
114,383,31983,6,0,P|152:363|173:325,1,87.500000834465,2|0,0:2|0:0,0:0:0:0:
152,246,32148,5,2,3:2:0:0:
5,317,32313,6,0,L|91:303,1,87.500000834465
189,101,32478,6,0,B|272:137|272:137|91:169,1,275.000002622604,10|2,0:0|0:2,0:0:0:0:
301,325,32725,5,2,0:2:0:0:
296,309,32807,1,2,3:2:0:0:
292,294,32889,1,2,0:2:0:0:
287,278,32972,1,2,0:2:0:0:
284,264,33054,1,2,0:2:0:0:
351,155,33137,5,10,0:0:0:0:
357,234,33219,1,2,0:2:0:0:
284,264,33302,1,2,0:2:0:0:
232,205,33384,1,2,0:2:0:0:
273,138,33466,1,2,3:2:0:0:
393,0,33631,6,0,L|402:49,1,50,2|0,0:2|0:0,0:0:0:0:
488,72,33796,6,0,B|363:93|363:93|355:102|355:102|233:122,1,262.500002503395,10|0,0:0|0:0,0:0:0:0:
183,214,34126,6,0,L|232:205,1,50,2|2,3:2|0:2,0:0:0:0:
495,254,34291,6,0,P|458:232|415:231,1,87.500000834465,2|0,0:2|0:0,0:0:0:0:
435,315,34456,1,10,0:0:0:0:
321,192,34620,6,0,L|329:241,1,50,2|2,0:2|0:2,0:0:0:0:
84,380,34785,5,2,3:2:0:0:
77,371,34895,6,0,L|164:387,1,66.6666666666667,2|2,0:2|0:2,0:0:0:0:
280,328,35115,5,10,3:2:0:0:
273,319,35225,6,0,L|360:335,1,66.6666666666667,2|2,0:2|0:2,0:0:0:0:
466,90,35445,5,2,3:2:0:0:
343,69,35610,1,2,0:2:0:0:
321,192,35775,1,10,0:0:0:0:
447,216,35939,1,2,0:2:0:0:
168,40,36104,5,2,3:2:0:0:
131,176,36269,6,0,P|170:156|191:118,1,87.500000834465
168,40,36434,1,10,0:0:0:0:
51,153,36599,6,0,P|88:176|131:176,1,87.500000834465
191,119,36763,1,2,3:2:0:0:
32,72,36929,6,0,P|31:115|52:153,1,87.500000834465,2|0,0:2|0:0,0:0:0:0:
131,176,37093,1,10,0:0:0:0:
93,15,37258,6,0,P|55:35|33:72,1,87.500000834465,2|0,0:2|0:0,0:0:0:0:
246,340,37423,6,0,L|0:384,1,250,10|2,3:2|0:2,0:0:0:0:
291,228,37670,5,2,0:2:0:0:
299,236,37752,2,0,L|53:280,1,250,10|2,3:2|0:2,0:0:0:0:
344,124,38000,5,2,0:2:0:0:
352,131,38082,2,0,L|106:175,1,250,10|2,3:2|0:2,0:0:0:0:
397,20,38329,5,2,0:2:0:0:
405,28,38412,1,10,3:2:0:0:
312,44,38494,1,2,0:2:0:0:
220,61,38576,1,2,0:2:0:0:
128,77,38659,1,2,0:2:0:0:
35,94,38741,1,10,3:2:0:0:
246,340,38906,5,10,0:0:0:0:
246,340,38989,1,8,0:0:0:0:
246,340,39071,2,0,L|98:366,1,150.000005722046,10|0,3:2|0:0,0:0:0:0:
299,236,39236,5,10,0:0:0:0:
299,236,39318,1,10,0:0:0:0:
299,236,39401,2,0,L|126:266,1,175.00000166893,10|2,3:2|0:2,0:0:0:0:
352,131,39565,5,10,0:0:0:0:
352,131,39648,1,8,0:0:0:0:
352,131,39730,2,0,L|155:166,1,200,10|0,3:2|0:0,0:0:0:0:
246,340,39895,5,10,0:0:0:0:
246,340,39978,1,10,0:0:0:0:
246,340,40060,2,0,L|98:366,1,150.000005722046,10|0,3:2|0:0,0:0:0:0:
98,366,40225,2,0,L|246:340,1,150.000005722046,8|0,0:0|0:0,0:0:0:0:
298,236,40390,6,0,L|125:266,1,175.00000166893,10|0,3:2|0:0,0:0:0:0:
125,266,40554,2,0,L|298:236,1,175.00000166893,8|0,0:0|0:0,0:0:0:0:
352,131,40719,6,0,L|155:166,1,200,10|0,3:2|0:0,0:0:0:0:
155,166,40884,2,0,L|352:131,1,200,10|0,0:0|0:0,0:0:0:0:
405,28,41049,6,0,L|180:67,1,225.000008583069,10|0,3:2|0:0,0:0:0:0:
183,66,41214,2,0,L|405:27,1,225.000008583069,10|0,0:0|0:0,0:0:0:0:
456,384,41379,5,0,1:0:0:0:
470,382,41461,1,0,0:0:0:0:
484,379,41544,1,0,0:0:0:0:
498,377,41626,1,0,0:0:0:0:
511,375,41708,1,8,0:0:0:0:
224,296,41873,5,0,1:0:0:0:
238,294,41955,1,0,0:0:0:0:
252,291,42038,1,0,0:0:0:0:
266,289,42120,1,0,0:0:0:0:
279,287,42202,1,8,0:0:0:0:
0,192,42368,5,8,0:0:0:0:
14,190,42450,1,0,0:0:0:0:
28,187,42533,1,0,0:0:0:0:
42,185,42615,1,0,0:0:0:0:
55,183,42697,6,0,B|169:162|169:162|176:155|176:155|287:137,1,240,4|0,3:2|0:0,0:0:0:0:
