osu file format v14

[General]
AudioFilename: audio.mp3
AudioLeadIn: 0
PreviewTime: 11008
Countdown: 0
SampleSet: Soft
StackLeniency: 0.3
Mode: 0
LetterboxInBreaks: 0
WidescreenStoryboard: 1

[Editor]
Bookmarks: 37423
DistanceSpacing: 0.8
BeatDivisor: 4
GridSize: 32
TimelineZoom: 1.5

[Metadata]
Title:fieryrage accordion (hardcore remix)
TitleUnicode:fieryrage accordion (hardcore remix)
Artist:tomspicy
ArtistUnicode:tomspicy
Creator:Aakki
Version:insane
Source:
Tags:reform kujinn xiced door weapon dog food fieryrage xandit torriru electronic instrumental dnb drum n' and & bass the college sailor's hornpipe jack's the lad
BeatmapID:3105772
BeatmapSetID:1516867

[Difficulty]
HPDrainRate:5
CircleSize:4
OverallDifficulty:7.5
ApproachRate:8.8
SliderMultiplier:1.6
SliderTickRate:1

[Events]
//Background and Video events
0,0,"ffs.png",0,0
//Break Periods
//Storyboard Layer 0 (Background)
//Storyboard Layer 1 (Fail)
//Storyboard Layer 2 (Pass)
//Storyboard Layer 3 (Foreground)
//Storyboard Layer 4 (Overlay)
//Storyboard Sound Samples

[TimingPoints]
500,329.67032967033,4,2,1,30,1,0
500,-133.333333333333,4,2,1,30,0,0
3137,-133.333333333333,4,2,1,30,0,0
5774,-111.111111111111,4,2,1,50,0,0
8412,-100,4,2,1,50,0,0
10637,-100,4,2,1,5,0,0
10719,-100,4,2,1,50,0,0
11049,-90.9090909090909,4,2,1,70,0,0
11708,-90.9090909090909,4,2,1,70,0,0
16983,-90.9090909090909,4,2,1,70,0,0
21598,-90.9090909090909,4,2,1,80,0,1
26791,-90.9090909090909,4,2,1,5,0,1
26873,-90.9090909090909,4,2,1,80,0,1
41379,-100,4,2,0,50,0,0
42368,-100,4,2,1,70,0,0
44016,-100,4,2,1,60,0,0
44675,-100,4,2,1,50,0,0
45005,-100,4,2,1,40,0,0
45335,-100,4,2,1,30,0,0
45664,-100,4,2,1,20,0,0
45994,-100,4,2,1,10,0,0
46324,-100,4,2,1,5,0,0
46653,-100,4,2,1,5,0,0

[Colours]
Combo1 : 77,117,210
Combo2 : 242,66,66
Combo3 : 240,214,66
Combo4 : 162,233,238

[HitObjects]
175,103,500,6,0,L|95:88,2,60.0000022888185,2|2|2,0:0|0:0|0:0,0:0:0:0:
254,62,994,1,0,0:0:0:0:
254,62,1159,2,0,L|334:47,2,60.0000022888185,2|2|2,0:0|0:0|0:0,0:0:0:0:
246,145,1653,1,0,0:0:0:0:
246,145,1818,6,0,L|255:227,1,60.0000022888185,2|2,0:0|0:0,0:0:0:0:
174,235,2148,2,0,L|183:317,1,60.0000022888185,2|0,0:0|0:0,0:0:0:0:
251,371,2478,2,0,P|290:377|331:314,1,120.000004577637,2|2,0:0|0:0,0:0:0:0:
481,247,3137,6,0,L|413:232,2,60.0000022888185,2|2|2,0:0|0:0|0:0,0:0:0:0:
406,144,3631,1,0,0:0:0:0:
341,212,3796,2,0,L|273:197,2,60.0000022888185,2|2|2,0:0|0:0|0:0,0:0:0:0:
248,113,4291,1,0,0:0:0:0:
180,175,4456,6,0,P|109:192|72:235,2,120.000004577637,2|2|2,0:0|0:0|0:0,0:0:0:0:
161,68,5280,1,2,0:0:0:0:
248,113,5445,1,2,0:0:0:0:
248,113,5774,6,0,P|304:101|335:93,1,71.9999978027345,8|2,0:2|0:2,0:0:0:0:
436,206,6104,2,0,P|400:198|365:190,1,71.9999978027345,8|2,0:2|0:2,0:0:0:0:
238,282,6434,1,8,0:2:0:0:
277,207,6598,1,2,0:2:0:0:
383,332,6763,2,0,P|332:339|308:348,1,71.9999978027344,8|2,0:2|0:2,0:0:0:0:
61,326,7093,6,0,B|128:315|117:376|204:361,1,143.999995605469,8|8,0:2|0:2,0:0:0:0:
276,248,7587,1,2,0:2:0:0:
176,147,7752,2,0,P|134:176|122:206,1,71.9999978027344,8|2,0:2|0:2,0:0:0:0:
128,235,8000,1,2,0:0:0:0:
128,235,8082,1,8,0:2:0:0:
195,362,8247,1,2,0:2:0:0:
276,248,8412,5,8,0:2:0:0:
359,317,8576,1,10,0:2:0:0:
359,317,8659,1,8,0:2:0:0:
359,317,8741,1,8,0:2:0:0:
325,137,8906,1,10,0:2:0:0:
325,137,8989,1,8,0:2:0:0:
325,137,9071,1,8,0:2:0:0:
196,251,9236,2,0,L|205:290,2,40,10|8|8,0:2|0:2|0:2,0:0:0:0:
92,127,9565,1,10,0:2:0:0:
92,127,9648,1,8,0:2:0:0:
92,127,9730,5,8,0:2:0:0:
179,152,9895,1,10,0:2:0:0:
284,33,10060,1,8,0:2:0:0:
201,62,10225,1,10,0:2:0:0:
326,177,10390,2,0,P|366:196|432:139,1,120,8|0,0:2|0:0,0:0:0:0:
439,119,10719,1,8,3:2:0:0:
239,369,11049,5,6,3:2:0:0:
63,275,11214,2,0,B|139:262|139:306|239:294,1,176.000005371094,0|2,0:0|0:2,0:0:0:0:
266,157,11708,1,2,3:2:0:0:
266,157,11791,1,2,0:2:0:0:
266,157,11873,2,0,L|252:210,1,44.0000013427735,2|2,0:2|0:2,0:0:0:0:
342,320,12038,1,10,0:0:0:0:
342,320,12121,1,2,0:2:0:0:
342,320,12203,2,0,L|328:267,1,44.0000013427735,2|2,0:2|0:2,0:0:0:0:
399,180,12368,6,0,P|441:167|492:148,1,88.000002685547,2|2,3:2|0:2,0:0:0:0:
371,15,12697,1,10,0:0:0:0:
315,98,12862,1,0,0:0:0:0:
161,26,13027,1,2,3:2:0:0:
161,26,13109,1,2,0:2:0:0:
161,26,13192,1,2,0:2:0:0:
224,89,13357,1,10,0:0:0:0:
132,169,13521,2,0,P|124:216|121:224,1,44.0000013427735,2|2,0:2|0:2,0:0:0:0:
42,335,13686,6,0,P|27:284|7:268,2,58.6666684570313,2|2|2,3:2|0:2|0:2,0:0:0:0:
103,384,14016,5,10,0:0:0:0:
103,384,14126,2,0,P|128:337|125:311,1,58.6666684570313,2|2,0:2|0:2,0:0:0:0:
196,270,14346,6,0,L|287:287,1,88.000002685547,2|2,3:2|0:2,0:0:0:0:
386,165,14675,1,10,0:0:0:0:
431,241,14840,1,2,0:2:0:0:
276,186,15005,5,2,3:2:0:0:
312,112,15170,2,0,P|301:69|291:20,1,88.000002685547,0|10,0:0|0:0,0:0:0:0:
102,130,15500,2,0,P|149:98|199:106,1,88.000002685547,0|2,0:0|3:2,0:0:0:0:
315,281,15829,2,0,P|250:282|180:189,1,176.000005371094,2|2,0:2|0:2,0:0:0:0:
209,303,16324,5,2,3:2:0:0:
296,173,16489,2,0,B|401:160|364:208|478:196,1,176.000005371094,0|2,0:0|0:2,0:0:0:0:
476,28,16983,1,2,3:2:0:0:
476,28,17065,1,2,0:2:0:0:
476,28,17148,2,0,L|424:39,1,44.0000013427735,2|2,0:2|0:2,0:0:0:0:
313,81,17313,1,10,0:0:0:0:
313,81,17395,1,2,0:2:0:0:
313,81,17478,2,0,L|261:70,1,44.0000013427735,2|2,0:2|0:2,0:0:0:0:
117,52,17642,5,2,3:2:0:0:
183,24,17807,1,2,0:2:0:0:
256,184,17972,2,0,P|207:175|167:165,1,88.000002685547,10|0,0:0|0:0,0:0:0:0:
52,293,18302,1,2,3:2:0:0:
52,293,18384,1,2,0:2:0:0:
52,293,18467,1,2,0:2:0:0:
123,340,18631,1,10,0:0:0:0:
46,190,18796,2,0,L|36:128,1,44.0000013427735,2|2,0:2|0:2,0:0:0:0:
100,60,18961,6,0,L|34:47,2,58.6666684570313,2|2|2,3:2|0:2|0:2,0:0:0:0:
178,128,19291,5,10,0:0:0:0:
178,128,19401,2,0,L|120:139,1,58.6666684570313,2|2,0:2|0:2,0:0:0:0:
228,53,19620,6,0,P|265:99|258:146,1,88.000002685547,2|2,3:2|0:2,0:0:0:0:
177,300,19950,1,10,0:0:0:0:
228,246,20115,1,2,0:2:0:0:
372,336,20280,5,2,3:2:0:0:
470,288,20445,2,0,P|421:263|407:222,1,88.000002685547,0|10,0:0|0:0,0:0:0:0:
506,112,20774,2,0,L|486:204,1,88.000002685547,0|2,0:0|3:2,0:0:0:0:
345,49,21104,2,0,B|404:33|404:33|447:56|447:56|473:25|518:35,1,176.000005371094,2|2,0:2|0:2,0:0:0:0:
296,250,21598,5,6,3:2:0:0:
346,172,21763,1,0,0:0:0:0:
219,306,21928,2,0,P|205:253|192:201,1,88.000002685547,10|2,0:0|0:2,0:0:0:0:
101,117,22258,1,2,3:2:0:0:
101,117,22340,1,2,0:2:0:0:
101,117,22423,2,0,L|113:68,1,44.0000013427735,2|2,0:2|0:2,0:0:0:0:
128,206,22587,1,10,0:0:0:0:
89,217,22670,1,2,0:2:0:0:
50,209,22752,1,2,0:2:0:0:
21,180,22835,1,2,0:2:0:0:
13,141,22917,6,0,P|6:94|3:50,1,88.000002685547,2|2,3:2|0:2,0:0:0:0:
209,97,23247,1,10,0:0:0:0:
153,49,23412,1,0,0:0:0:0:
178,193,23576,1,2,3:2:0:0:
178,193,23659,1,2,0:2:0:0:
178,193,23741,1,2,0:2:0:0:
279,158,23906,1,10,0:0:0:0:
336,244,24071,2,0,P|372:259|397:272,1,44.0000013427735,2|2,0:2|0:2,0:0:0:0:
491,355,24236,5,2,3:2:0:0:
488,341,24346,2,0,L|474:270,1,58.6666684570313,2|2,0:2|0:2,0:0:0:0:
420,193,24565,5,10,0:0:0:0:
423,179,24675,2,0,L|437:108,1,58.6666684570313,2|2,0:2|0:2,0:0:0:0:
370,60,24895,6,0,P|414:23|468:39,1,88.000002685547,2|2,3:2|0:2,0:0:0:0:
276,133,25225,1,10,0:0:0:0:
348,157,25390,1,2,0:2:0:0:
245,64,25554,5,2,3:2:0:0:
154,246,25719,2,0,P|203:251|250:202,2,88.000002685547,0|10|0,0:0|0:0|0:0,0:0:0:0:
79,126,26214,1,2,3:2:0:0:
145,166,26379,1,2,0:2:0:0:
95,360,26543,2,0,B|98:281|45:327|46:212,1,132.00000402832,10|0,0:0|0:0,0:0:0:0:
66,236,26873,6,0,L|166:247,1,88.000002685547,2|0,3:2|0:0,0:0:0:0:
274,330,27203,1,10,0:0:0:0:
238,251,27368,1,2,0:2:0:0:
356,161,27532,1,2,3:2:0:0:
356,161,27615,1,2,0:2:0:0:
356,161,27697,2,0,P|400:150|412:143,1,44.0000013427735,2|2,0:2|0:2,0:0:0:0:
465,51,27862,1,10,0:0:0:0:
430,41,27945,1,2,0:2:0:0:
396,30,28027,1,2,0:2:0:0:
362,18,28109,1,2,0:2:0:0:
328,7,28192,6,0,L|230:25,1,88.000002685547,2|2,3:2|0:2,0:0:0:0:
143,157,28521,1,10,0:0:0:0:
213,113,28686,1,0,0:0:0:0:
81,25,28851,1,2,3:2:0:0:
81,25,28934,1,2,0:2:0:0:
81,25,29016,1,2,0:2:0:0:
141,77,29181,1,10,0:0:0:0:
64,138,29346,2,0,L|51:191,1,44.0000013427735,2|2,0:2|0:2,0:0:0:0:
102,353,29510,5,2,3:2:0:0:
92,338,29620,2,0,P|59:316|19:312,1,58.6666684570313,2|2,0:2|0:2,0:0:0:0:
183,224,29840,5,10,0:0:0:0:
173,239,29950,2,0,P|140:261|100:265,1,58.6666684570313,2|2,0:2|0:2,0:0:0:0:
220,307,30170,6,0,P|273:321|314:335,1,88.000002685547,2|2,3:2|0:2,0:0:0:0:
431,222,30500,1,10,0:0:0:0:
362,262,30664,1,2,0:2:0:0:
434,308,30829,5,2,3:2:0:0:
358,178,30994,2,0,P|339:124|351:78,1,88.000002685547,0|10,0:0|0:0,0:0:0:0:
491,53,31324,2,0,B|445:41|445:41|444:44|444:44|399:31,1,88.000002685547,0|2,0:0|3:2,0:0:0:0:
266,60,31653,2,0,B|229:33|175:79|203:98|160:137|114:110,1,176.000005371094,2|2,0:2|0:2,0:0:0:0:
12,212,32148,6,0,P|51:226|91:182,1,88.000002685547,2|0,3:2|0:0,0:0:0:0:
163,288,32478,1,10,0:0:0:0:
108,345,32642,1,8,0:2:0:0:
218,378,32807,1,2,3:2:0:0:
218,378,32890,1,2,0:2:0:0:
218,378,32972,2,0,L|266:370,1,44.0000013427735,2|2,0:2|0:2,0:0:0:0:
328,277,33137,1,10,0:0:0:0:
295,264,33219,1,2,0:2:0:0:
261,251,33302,1,2,0:2:0:0:
227,239,33384,1,2,0:2:0:0:
192,229,33467,6,0,B|222:193|222:193|200:148,1,88.000002685547,2|2,3:2|0:2,0:0:0:0:
335,17,33796,1,10,0:0:0:0:
279,63,33961,1,0,0:0:0:0:
365,143,34126,1,2,3:2:0:0:
365,143,34208,1,2,0:2:0:0:
365,143,34291,1,2,0:2:0:0:
330,214,34456,1,10,0:0:0:0:
405,308,34620,2,0,P|438:297|450:273,1,44.0000013427735,2|2,0:2|0:2,0:0:0:0:
307,295,34785,5,2,3:2:0:0:
311,310,34895,2,0,L|327:372,1,58.6666684570313,2|2,0:2|0:2,0:0:0:0:
231,253,35115,5,10,0:0:0:0:
227,268,35225,2,0,L|211:330,1,58.6666684570313,2|2,0:2|0:2,0:0:0:0:
125,363,35445,6,0,P|80:362|49:315,1,88.000002685547,2|2,3:2|0:2,0:0:0:0:
11,219,35774,1,10,0:0:0:0:
86,252,35939,1,2,0:2:0:0:
41,117,36104,5,2,3:2:0:0:
178,173,36269,2,0,P|135:129|138:85,2,88.000002685547,0|10|0,0:0|0:0|0:0,0:0:0:0:
235,29,36763,1,2,3:2:0:0:
338,149,36928,2,0,B|286:117|234:130|267:175|208:199|139:156,1,176.000005371094,2|2,0:2|0:2,0:0:0:0:
326,297,37423,6,0,L|427:283,1,88.000002685547,10|2,3:2|0:2,0:0:0:0:
187,382,37752,2,0,L|288:368,1,88.000002685547,10|2,3:2|0:2,0:0:0:0:
118,288,38082,1,10,3:2:0:0:
118,288,38164,1,2,0:2:0:0:
118,288,38247,2,0,L|109:341,1,44.0000013427735,2|2,0:2|0:2,0:0:0:0:
49,236,38412,1,10,3:2:0:0:
71,209,38494,1,2,0:2:0:0:
103,196,38576,1,2,0:2:0:0:
138,199,38659,1,2,0:2:0:0:
166,219,38741,5,10,3:2:0:0:
262,164,38906,2,0,P|269:135|271:116,2,44.0000013427735,10|8|10,0:0|0:0|3:2,0:0:0:0:
309,282,39236,1,10,0:0:0:0:
309,282,39318,1,10,0:0:0:0:
309,282,39401,1,10,3:2:0:0:
232,355,39565,2,0,P|225:326|223:307,2,44.0000013427735,10|8|10,0:0|0:0|3:2,0:0:0:0:
383,374,39895,1,10,0:0:0:0:
383,374,39978,1,10,0:0:0:0:
383,374,40060,5,10,3:2:0:0:
448,323,40225,1,8,0:0:0:0:
361,175,40390,5,10,3:2:0:0:
402,251,40554,1,8,0:0:0:0:
449,144,40719,6,0,P|423:109|368:89,1,88.000002685547,10|10,3:2|0:0,0:0:0:0:
210,15,41049,2,0,P|167:20|123:58,1,88.000002685547,10|10,3:2|0:0,0:0:0:0:
81,203,41379,6,0,B|140:192|154:278|231:274,1,160,0|8,1:0|0:0,0:0:0:0:
317,291,41873,2,0,P|241:291|242:393,1,160,0|8,1:0|0:0,0:0:0:0:
393,370,42368,2,0,P|411:343|407:318,1,40,8|0,0:0|0:0,0:0:0:0:
482,268,42532,2,0,P|468:238|445:228,1,40
386,181,42697,5,4,3:2:0:0:
256,192,42780,12,0,46653,0:0:0:0:
