osu file format v14

[General]
AudioFilename: audio.mp3
AudioLeadIn: 0
PreviewTime: 11008
Countdown: 0
SampleSet: Soft
StackLeniency: 0.7
Mode: 0
LetterboxInBreaks: 0
WidescreenStoryboard: 1

[Editor]
Bookmarks: 37423
DistanceSpacing: 1.2
BeatDivisor: 4
GridSize: 32
TimelineZoom: 1.5

[Metadata]
Title:fieryrage accordion (hardcore remix)
TitleUnicode:fieryrage accordion (hardcore remix)
Artist:tomspicy
ArtistUnicode:tomspicy
Creator:Aakki
Version:hard
Source:
Tags:reform kujinn xiced door weapon dog food fieryrage xandit torriru electronic instrumental dnb drum n' and & bass the college sailor's hornpipe jack's the lad
BeatmapID:3105771
BeatmapSetID:1516867

[Difficulty]
HPDrainRate:4
CircleSize:3.6
OverallDifficulty:6
ApproachRate:7.5
SliderMultiplier:1.3
SliderTickRate:1

[Events]
//Background and Video events
0,0,"ffs.png",0,0
//Break Periods
//Storyboard Layer 0 (Background)
//Storyboard Layer 1 (Fail)
//Storyboard Layer 2 (Pass)
//Storyboard Layer 3 (Foreground)
//Storyboard Layer 4 (Overlay)
//Storyboard Sound Samples

[TimingPoints]
500,329.67032967033,4,2,1,30,1,0
500,-111.111111111111,4,2,1,30,0,0
5774,-111.111111111111,4,2,1,50,0,0
11049,-100,4,2,1,70,0,0
11708,-100,4,2,1,70,0,0
16983,-100,4,2,1,70,0,0
21598,-100,4,2,1,80,0,1
22258,-100,4,2,1,80,0,1
27532,-100,4,2,1,80,0,1
41379,-100,4,2,0,50,0,0
42368,-100,4,2,1,70,0,0
42697,-100,4,2,1,70,0,0
44016,-100,4,2,1,60,0,0
44675,-100,4,2,1,50,0,0
45005,-100,4,2,1,40,0,0
45335,-100,4,2,1,30,0,0
45664,-100,4,2,1,20,0,0
45994,-100,4,2,1,10,0,0
46324,-100,4,2,1,5,0,0
46653,-100,4,2,1,5,0,0

[Colours]
Combo1 : 77,117,210
Combo2 : 242,66,66
Combo3 : 240,214,66
Combo4 : 162,233,238

[HitObjects]
53,320,5774,6,0,P|38:288|35:254,1,58.4999982147217,8|2,0:2|0:2,0:0:0:0:
102,225,6104,2,0,P|117:193|120:159,1,58.4999982147217,8|2,0:2|0:2,0:0:0:0:
78,101,6434,2,0,P|64:63|6:11,1,116.999996429443,8|8,0:2|0:2,0:0:0:0:
172,123,7093,6,0,L|235:112,1,58.4999982147217,8|2,0:2|0:2,0:0:0:0:
295,61,7423,2,0,L|352:71,1,58.4999982147217,8|2,0:2|0:2,0:0:0:0:
420,128,7752,2,0,B|467:100|443:86|494:52,2,87.7499973220826,8|2|2,0:2|0:0|0:2,0:0:0:0:
353,214,8412,5,8,0:2:0:0:
425,274,8576,2,0,L|466:266,2,29.2499991073609,10|8|8,0:2|0:2|0:2,0:0:0:0:
337,302,8906,2,0,L|296:294,2,29.2499991073609,10|8|8,0:2|0:2|0:2,0:0:0:0:
411,361,9236,2,0,L|452:353,2,29.2499991073609,10|8|8,0:2|0:2|0:2,0:0:0:0:
298,381,9565,1,10,0:2:0:0:
298,381,9648,1,8,0:2:0:0:
298,381,9730,6,0,L|239:370,1,58.4999982147217,8|10,0:2|0:2,0:0:0:0:
194,302,10060,2,0,L|135:291,1,58.4999982147217,8|10,0:2|0:2,0:0:0:0:
45,325,10390,1,8,0:2:0:0:
104,167,10719,1,8,3:2:0:0:
15,12,11049,5,6,3:2:0:0:
77,59,11214,2,0,P|121:62|191:14,1,130,0|2,0:0|0:2,0:0:0:0:
284,53,11708,2,0,L|334:63,3,32.5,2|2|2|2,3:2|0:2|0:2|0:2,0:0:0:0:
356,33,12038,2,0,L|387:26,3,32.5,10|2|2|2,0:0|0:2|0:2|0:2,0:0:0:0:
427,41,12368,6,0,L|458:112,1,65,2|2,3:2|0:2,0:0:0:0:
512,157,12697,2,0,L|481:228,1,65,10|0,0:0|0:0,0:0:0:0:
413,280,13027,1,2,3:2:0:0:
413,280,13192,2,0,P|406:236|324:212,1,130,2|2,0:2|0:2,0:0:0:0:
260,265,13686,6,0,B|192:241|210:289|123:257,2,130,2|10|2,3:2|0:0|3:2,0:0:0:0:
318,342,14510,1,2,0:2:0:0:
318,342,14675,2,0,P|362:333|384:329,1,65,10|2,0:0|0:2,0:0:0:0:
469,266,15005,6,0,P|485:238|426:171,1,130,2|10,3:2|0:0,0:0:0:0:
345,192,15500,1,0,0:0:0:0:
282,138,15664,2,0,P|275:88|299:63,2,65,2|2|10,3:2|0:2|0:0,0:0:0:0:
191,268,16324,5,2,3:2:0:0:
191,268,16489,2,0,P|172:232|86:230,1,130,0|2,0:0|0:2,0:0:0:0:
15,328,16983,2,0,L|54:320,3,32.5,2|2|2|2,3:2|0:2|0:2|0:2,0:0:0:0:
89,352,17313,2,0,L|120:358,3,32.5,10|2|2|2,0:0|0:2|0:2|0:2,0:0:0:0:
164,366,17642,6,0,L|236:385,1,65,2|2,3:2|0:2,0:0:0:0:
263,317,17972,2,0,L|335:336,1,65,10|0,0:0|0:0,0:0:0:0:
417,360,18302,1,2,3:2:0:0:
417,360,18467,2,0,B|449:325|424:282|377:293|365:253,1,130,2|2,0:2|0:2,0:0:0:0:
368,178,18961,6,0,P|433:155|491:125,2,130,2|10|2,3:2|0:0|3:2,0:0:0:0:
290,135,19785,1,2,0:2:0:0:
290,135,19950,2,0,P|250:129|206:108,1,65,10|2,0:0|0:2,0:0:0:0:
118,61,20280,6,0,P|157:47|252:25,1,130,2|10,3:2|0:0,0:0:0:0:
344,23,20774,1,0,0:0:0:0:
422,74,20939,2,0,L|453:7,2,65,2|2|10,3:2|0:2|0:0,0:0:0:0:
462,222,21598,5,6,3:2:0:0:
412,311,21763,2,0,B|338:298|382:261|300:236,1,130,0|2,0:0|0:2,0:0:0:0:
226,206,22258,1,2,3:2:0:0:
226,206,22340,1,2,0:0:0:0:
226,206,22423,1,2,0:0:0:0:
149,251,22587,2,0,P|134:289|136:305,3,32.5,10|2|2|2,0:0|0:2|0:2|0:2,0:0:0:0:
153,333,22917,6,0,P|201:354|229:349,1,65,2|2,3:2|0:2,0:0:0:0:
301,375,23247,2,0,P|325:348|354:336,1,65,10|0,0:0|0:0,0:0:0:0:
446,338,23576,1,2,3:2:0:0:
446,338,23741,2,0,P|427:287|433:211,1,130,2|2,0:2|0:2,0:0:0:0:
378,132,24236,6,0,B|441:139|435:84|507:94,1,130,2|10,3:2|0:0,0:0:0:0:
371,49,24730,1,0,0:0:0:0:
371,49,24895,2,0,B|303:53|317:5|242:11,1,130,2|10,3:2|0:0,0:0:0:0:
126,155,25554,6,0,P|164:143|178:116,2,65,2|0|10,3:2|0:0|0:0,0:0:0:0:
44,137,26049,1,0,0:0:0:0:
12,219,26214,2,0,P|14:263|40:290,1,65,2|2,3:2|0:2,0:0:0:0:
91,343,26543,2,0,P|130:362|166:352,1,65,10|2,0:0|0:2,0:0:0:0:
239,287,26873,5,2,3:2:0:0:
318,311,27038,2,0,P|275:286|280:212,1,130,0|2,0:0|0:2,0:0:0:0:
309,121,27532,1,2,3:2:0:0:
309,121,27615,1,2,0:2:0:0:
309,121,27697,1,2,0:2:0:0:
395,85,27862,2,0,P|410:88|426:92,3,32.5,10|2|2|2,0:0|0:2|0:2|0:2,0:0:0:0:
470,105,28192,6,0,P|485:161|489:179,1,65,2|2,3:2|0:2,0:0:0:0:
508,249,28521,2,0,P|495:283|491:326,1,65,10|0,0:0|0:0,0:0:0:0:
403,344,28851,1,2,3:2:0:0:
403,344,29016,2,0,B|349:323|383:259|308:245,1,130,2|2,0:2|0:2,0:0:0:0:
251,300,29510,6,0,P|222:258|250:187,2,130,2|10|2,3:2|0:0|3:2,0:0:0:0:
178,356,30335,1,2,0:2:0:0:
100,308,30500,2,0,P|59:298|38:263,1,65,10|2,0:0|0:2,0:0:0:0:
15,188,30829,5,2,3:2:0:0:
54,110,30994,2,0,P|91:146|86:176,1,65,0|10,0:0|0:0,0:0:0:0:
147,235,31324,2,0,L|219:219,1,65,0|2,0:0|3:2,0:0:0:0:
271,130,31653,1,2,0:2:0:0:
271,130,31818,2,0,L|207:115,1,65,10|2,0:0|0:2,0:0:0:0:
136,39,32148,6,0,B|69:20|69:20|42:98,1,130,2|10,3:2|0:0,0:0:0:0:
10,146,32642,1,2,0:2:0:0:
48,226,32807,5,2,3:2:0:0:
36,245,32890,1,2,0:2:0:0:
30,266,32972,1,2,0:2:0:0:
27,288,33054,1,2,0:2:0:0:
30,310,33137,2,0,P|22:351|20:364,3,32.5,10|2|2|2,0:0|0:2|0:2|0:2,0:0:0:0:
59,365,33467,6,0,P|105:378|124:366,1,65,2|2,3:2|0:2,0:0:0:0:
181,307,33796,2,0,P|225:314|253:321,1,65,10|0,0:0|0:0,0:0:0:0:
351,307,34126,1,2,3:2:0:0:
351,307,34291,2,0,P|309:264|281:193,1,130,2|2,0:2|0:2,0:0:0:0:
176,183,34785,6,0,P|199:134|202:58,2,130,2|10|2,3:2|0:0|3:2,0:0:0:0:
108,241,35609,1,2,0:2:0:0:
52,181,35774,2,0,P|38:143|41:103,1,65,10|2,0:0|0:2,0:0:0:0:
99,48,36104,6,0,P|134:40|160:21,1,65,2|0,3:2|0:0,0:0:0:0:
237,52,36434,1,10,0:0:0:0:
237,52,36598,1,0,0:0:0:0:
315,28,36763,2,0,L|385:15,2,65,2|2|10,3:2|0:2|0:0,0:0:0:0:
296,115,37258,1,2,0:2:0:0:
348,196,37423,6,0,L|357:285,1,65,10|2,3:2|0:2,0:0:0:0:
271,285,37752,2,0,L|280:374,1,65,10|2,3:2|0:2,0:0:0:0:
190,283,38082,1,10,3:2:0:0:
190,283,38164,1,2,0:2:0:0:
190,283,38247,1,2,0:2:0:0:
104,316,38411,2,0,L|113:405,1,65,10|2,3:2|0:2,0:0:0:0:
19,279,38741,5,10,3:2:0:0:
76,215,38906,2,0,L|83:182,2,32.5,10|8|10,0:0|0:0|3:2,0:0:0:0:
162,168,39236,2,0,L|155:135,2,32.5,10|10|10,0:0|0:0|3:2,0:0:0:0:
233,120,39565,2,0,L|240:87,2,32.5,10|8|10,0:0|0:0|3:2,0:0:0:0:
311,179,39895,1,10,0:0:0:0:
311,179,39978,1,10,0:0:0:0:
311,179,40060,6,0,P|350:181|375:159,1,65,10|8,3:2|0:0,0:0:0:0:
442,103,40390,1,10,3:2:0:0:
368,50,40554,1,8,0:0:0:0:
282,81,40719,2,0,B|215:86|246:33|161:26,1,130,10|10,3:2|3:2,0:0:0:0:
80,65,41214,1,10,0:0:0:0:
137,138,41379,6,0,B|116:208|177:194|156:263,1,130,0|8,1:0|0:0,0:0:0:0:
256,209,41873,2,0,B|277:279|216:265|237:334,1,130,0|8,1:0|0:0,0:0:0:0:
321,371,42368,2,0,P|362:376|402:318,1,97.5,8|0,0:0|0:0,0:0:0:0:
402,306,42697,5,4,3:2:0:0:
256,192,42780,12,0,46653,0:0:0:0:
