osu file format v14

[General]
AudioFilename: audio.mp3
AudioLeadIn: 0
PreviewTime: 35331
Countdown: 0
SampleSet: Soft
StackLeniency: 1
Mode: 3
LetterboxInBreaks: 0
SpecialStyle: 0
WidescreenStoryboard: 1

[Editor]
DistanceSpacing: 2.5
BeatDivisor: 8
GridSize: 4
TimelineZoom: 2.3

[Metadata]
Title:you're cute
TitleUnicode:you're cute
Artist:tomppabeats
ArtistUnicode:tomppabeats
Creator:Vulkin
Version:hydria's laughter
Source:
Tags:tyttö tytto ep horizon harbor lp discography 2015 hip-hop finland future helsinki lo-fi Lovewave 성경 Sungkyung Kim The That Night 그밤 Geubam Korean Dain Dainesl Hydria realy0_ reealy_ Astronic Hazu-
BeatmapID:1493250
BeatmapSetID:705563

[Difficulty]
HPDrainRate:8
CircleSize:4
OverallDifficulty:8
ApproachRate:7
SliderMultiplier:1.6
SliderTickRate:1

[Events]
//Background and Video events
0,0,"8a27a29d-29a7-4f51-83f1-4c04232d5238.jpg",0,0
//Break Periods
//Storyboard Layer 0 (Background)
//Storyboard Layer 1 (Fail)
//Storyboard Layer 2 (Pass)
//Storyboard Layer 3 (Foreground)
//Storyboard Layer 4 (Overlay)
//Storyboard Sound Samples

[TimingPoints]
6367,766.773162939297,4,2,1,35,1,0
6367,-100,4,2,1,35,0,0
9434,763.650248186331,4,2,1,35,1,0
9434,-101.010101010101,4,2,1,35,0,0
11724,833.333333333333,4,2,1,35,1,8
11724,-92.5925925925926,4,2,1,35,0,8
12001,731.707317073171,4,2,1,35,1,8
12001,-105.263157894737,4,2,1,35,0,8
12488,766.283524904215,4,2,1,35,1,0
12488,-100,4,2,1,35,0,0
35093,952.380952380952,4,2,1,35,1,8
35093,-80.6451612903226,4,2,1,35,0,8
35569,1188.11881188119,4,2,1,35,1,8
35569,-64.9350649350649,4,2,1,35,0,8
35865,759.493670886076,4,2,1,35,1,8
35865,-101.010101010101,4,2,1,35,0,8
36244,816.326530612245,4,2,1,15,1,8
36244,-94.3396226415094,4,2,1,15,0,8
36652,703.812316715542,4,2,1,15,1,8
36652,-109.89010989011,4,2,1,15,0,8
37003,766.871165644172,4,2,2,35,1,0
37003,-100,4,2,2,35,0,0

[Colours]
Combo1 : 85,11,0
Combo2 : 1,82,105

[HitObjects]
64,192,6271,5,0,0:0:0:0:
320,192,6367,1,0,0:0:0:0:
192,192,6878,1,0,0:0:0:0:
448,192,6878,1,0,0:0:0:0:
64,192,7900,1,0,0:0:0:0:
320,192,8411,1,0,0:0:0:0:
448,192,8411,1,0,0:0:0:0:
192,192,9306,1,0,0:0:0:0:
448,192,9434,1,0,0:0:0:0:
64,192,9943,1,0,0:0:0:0:
320,192,9943,1,0,0:0:0:0:
64,192,11056,1,0,0:0:0:0:
192,192,11247,1,0,0:0:0:0:
320,192,11343,1,0,0:0:0:0:
448,192,11438,1,0,0:0:0:0:
64,192,11470,1,0,0:0:0:0:
192,192,11534,1,0,0:0:0:0:
320,192,11597,1,0,0:0:0:0:
448,192,11724,1,0,0:0:0:0:
64,192,12001,1,0,0:0:0:0:
320,192,12183,128,0,12488:0:0:0:0:
448,192,12488,128,0,13062:0:0:0:0:
64,192,12488,1,0,0:0:0:0:
192,192,13062,1,0,0:0:0:0:
320,192,13062,1,0,0:0:0:0:
64,192,13254,1,0,0:0:0:0:
64,192,14020,1,0,0:0:0:0:
192,192,14148,1,0,0:0:0:0:
320,192,14403,1,0,0:0:0:0:
192,192,14499,1,0,0:0:0:0:
448,192,14595,1,0,0:0:0:0:
64,192,14595,1,0,0:0:0:0:
320,192,14691,1,0,0:0:0:0:
192,192,14786,1,0,0:0:0:0:
192,192,15169,1,0,0:0:0:0:
448,192,15265,1,0,0:0:0:0:
64,192,15553,1,0,0:0:0:0:
320,192,15553,128,0,16127:0:0:0:0:
192,192,16127,1,0,0:0:0:0:
448,192,16127,128,0,16606:0:0:0:0:
64,192,16223,1,0,0:0:0:0:
320,192,16319,1,0,0:0:0:0:
64,192,16606,128,0,17085:0:0:0:0:
192,192,17085,128,0,17468:0:0:0:0:
320,192,17660,1,0,0:0:0:0:
64,192,17660,1,0,0:0:0:0:
448,192,17851,1,0,0:0:0:0:
192,192,18235,1,0,0:0:0:0:
320,192,18330,1,0,0:0:0:0:
64,192,18618,1,0,0:0:0:0:
448,192,18618,128,0,19192:0:0:0:0:
192,192,19192,1,0,0:0:0:0:
64,192,19192,1,0,0:0:0:0:
320,192,19384,1,0,0:0:0:0:
192,192,19767,1,0,0:0:0:0:
192,192,20150,1,0,0:0:0:0:
320,192,20278,1,0,0:0:0:0:
64,192,20533,1,0,0:0:0:0:
320,192,20661,1,0,0:0:0:0:
448,192,20725,1,0,0:0:0:0:
192,192,20725,1,0,0:0:0:0:
64,192,20821,1,0,0:0:0:0:
320,192,20917,1,0,0:0:0:0:
192,192,21300,1,0,0:0:0:0:
448,192,21396,1,0,0:0:0:0:
64,192,21683,1,0,0:0:0:0:
192,192,22258,1,0,0:0:0:0:
448,192,22258,1,0,0:0:0:0:
320,192,22449,1,0,0:0:0:0:
64,192,23215,1,0,0:0:0:0:
320,192,23790,1,0,0:0:0:0:
448,192,23790,1,0,0:0:0:0:
192,192,23982,128,0,24173:0:0:0:0:
320,192,24173,128,0,24365:0:0:0:0:
64,192,24365,1,0,0:0:0:0:
448,192,24461,1,0,0:0:0:0:
192,192,24556,128,0,24748:0:0:0:0:
448,192,24748,128,0,25323:0:0:0:0:
320,192,24748,1,0,0:0:0:0:
64,192,25323,1,0,0:0:0:0:
192,192,25323,1,0,0:0:0:0:
320,192,25514,1,0,0:0:0:0:
192,192,26281,1,0,0:0:0:0:
320,192,26408,1,0,0:0:0:0:
448,192,26664,1,0,0:0:0:0:
192,192,26760,1,0,0:0:0:0:
320,192,26855,1,0,0:0:0:0:
64,192,26855,1,0,0:0:0:0:
448,192,26951,1,0,0:0:0:0:
192,192,27047,1,0,0:0:0:0:
64,192,27047,1,0,0:0:0:0:
192,192,27430,1,0,0:0:0:0:
448,192,27526,1,0,0:0:0:0:
320,192,27813,128,0,28324:0:0:0:0:
448,192,27813,1,0,0:0:0:0:
192,192,28324,128,0,28835:0:0:0:0:
64,192,28388,1,0,0:0:0:0:
448,192,28388,1,0,0:0:0:0:
320,192,28579,1,0,0:0:0:0:
64,192,28835,128,0,29346:0:0:0:0:
320,192,29346,128,0,29825:0:0:0:0:
192,192,29346,1,0,0:0:0:0:
64,192,29920,1,0,0:0:0:0:
192,192,29920,1,0,0:0:0:0:
448,192,30112,1,0,0:0:0:0:
64,192,30495,1,0,0:0:0:0:
320,192,30591,1,0,0:0:0:0:
448,192,30687,128,0,30878:0:0:0:0:
192,192,30878,1,0,0:0:0:0:
64,192,30878,128,0,31453:0:0:0:0:
192,192,31453,1,0,0:0:0:0:
448,192,31453,1,0,0:0:0:0:
320,192,31645,1,0,0:0:0:0:
64,192,32411,1,0,0:0:0:0:
320,192,32539,1,0,0:0:0:0:
192,192,32794,1,0,0:0:0:0:
448,192,32890,1,0,0:0:0:0:
320,192,32986,1,0,0:0:0:0:
64,192,32986,1,0,0:0:0:0:
192,192,33081,1,0,0:0:0:0:
448,192,33177,1,0,0:0:0:0:
320,192,33560,1,0,0:0:0:0:
448,192,33656,1,0,0:0:0:0:
192,192,33752,128,0,33943:0:0:0:0:
64,192,33943,1,0,0:0:0:0:
320,192,34518,1,0,0:0:0:0:
448,192,34518,128,0,35093:0:0:0:0:
192,192,34710,1,0,0:0:0:0:
192,192,35569,1,0,0:0:0:0:
64,192,35717,1,0,0:0:0:0:
192,192,35865,1,0,0:0:0:0:
320,192,35991,1,0,0:0:0:0:
448,192,36118,1,0,0:0:0:0:
64,192,36244,1,0,0:0:0:0:
64,192,36516,1,0,0:0:0:0:
320,192,36652,1,0,0:0:0:0:
448,192,36739,1,0,0:0:0:0:
192,192,37003,128,0,38536:0:0:0:0:
64,192,37003,1,0,0:0:0:0:
320,192,37578,128,0,38488:0:0:0:0:
448,192,37769,1,0,0:0:0:0:
64,192,38536,128,0,39111:0:0:0:0:
320,192,38920,1,0,0:0:0:0:
192,192,39016,1,0,0:0:0:0:
448,192,39111,128,0,40070:0:0:0:0:
320,192,39207,1,0,0:0:0:0:
192,192,39303,1,0,0:0:0:0:
64,192,39687,1,0,0:0:0:0:
320,192,39782,1,0,0:0:0:0:
64,192,39974,1,0,0:0:0:0:
192,192,40070,1,0,0:0:0:0:
320,192,40070,128,0,41604:0:0:0:0:
64,192,40645,128,0,41604:0:0:0:0:
192,192,40837,1,0,0:0:0:0:
192,192,41604,128,0,42179:0:0:0:0:
320,192,42179,128,0,43137:0:0:0:0:
64,192,42371,1,0,0:0:0:0:
64,192,42754,1,0,0:0:0:0:
192,192,42850,1,0,0:0:0:0:
448,192,43042,1,0,0:0:0:0:
64,192,43137,128,0,44671:0:0:0:0:
320,192,43713,128,0,44623:0:0:0:0:
448,192,43904,1,0,0:0:0:0:
192,192,44671,128,0,45246:0:0:0:0:
448,192,45055,1,0,0:0:0:0:
64,192,45151,1,0,0:0:0:0:
320,192,45246,128,0,46205:0:0:0:0:
448,192,45342,1,0,0:0:0:0:
64,192,45438,1,0,0:0:0:0:
192,192,45822,1,0,0:0:0:0:
64,192,45917,1,0,0:0:0:0:
448,192,46077,1,0,0:0:0:0:
64,192,46205,128,0,47739:0:0:0:0:
448,192,46780,128,0,47739:0:0:0:0:
320,192,46972,1,0,0:0:0:0:
192,192,47739,128,0,48314:0:0:0:0:
320,192,48314,128,0,49272:0:0:0:0:
64,192,48506,128,0,48649:0:0:0:0:
448,192,48697,128,0,48841:0:0:0:0:
192,192,48889,1,0,0:0:0:0:
64,192,48985,1,0,0:0:0:0:
448,192,49081,128,0,49225:0:0:0:0:
192,192,49272,128,0,50854:0:0:0:0:
448,192,49848,128,0,50806:0:0:0:0:
320,192,50039,1,0,0:0:0:0:
64,192,50806,128,0,51381:0:0:0:0:
320,192,51190,1,0,0:0:0:0:
192,192,51285,1,0,0:0:0:0:
448,192,51381,1,0,0:0:0:0:
320,192,51381,1,0,0:0:0:0:
192,192,51477,1,0,0:0:0:0:
64,192,51573,1,0,0:0:0:0:
192,192,51956,1,0,0:0:0:0:
320,192,52052,1,0,0:0:0:0:
448,192,52244,1,0,0:0:0:0:
64,192,52340,128,0,53874:0:0:0:0:
320,192,52915,128,0,53874:0:0:0:0:
448,192,53107,1,0,0:0:0:0:
192,192,53874,128,0,54449:0:0:0:0:
320,192,54449,1,0,0:0:0:0:
448,192,54641,1,0,0:0:0:0:
64,192,55024,1,0,0:0:0:0:
320,192,55120,1,0,0:0:0:0:
192,192,55312,1,0,0:0:0:0:
448,192,55407,1,0,0:0:0:0:
