osu file format v14

[General]
AudioFilename: audio.mp3
AudioLeadIn: 0
PreviewTime: 12795
Countdown: 0
SampleSet: Normal
StackLeniency: 0.7
Mode: 1
LetterboxInBreaks: 0
WidescreenStoryboard: 1

[Editor]
DistanceSpacing: 0.9
BeatDivisor: 2
GridSize: 32
TimelineZoom: 1

[Metadata]
Title:the girl next door
TitleUnicode:the girl next door
Artist:tomppabeats
ArtistUnicode:tomppabeats
Creator:tatatat
Version:Muzukashii
Source:
Tags:chill cool violin finland helsinki tyttö ep
BeatmapID:1424991
BeatmapSetID:673311

[Difficulty]
HPDrainRate:8
CircleSize:2
OverallDifficulty:4
ApproachRate:10
SliderMultiplier:1.6
SliderTickRate:1

[Events]
//Background and Video events
0,0,"girl next door.jpg",0,100
//Break Periods
//Storyboard Layer 0 (Background)
//Storyboard Layer 1 (Fail)
//Storyboard Layer 2 (Pass)
//Storyboard Layer 3 (Foreground)
//Storyboard Sound Samples

[TimingPoints]
-5,400,4,1,0,20,1,0
-5,-200,4,1,0,20,0,0
1595,-200,4,1,0,30,0,0
3195,-200,4,1,0,65,0,0
31995,-200,4,1,0,65,0,0
46395,-200,4,1,0,30,0,0
47195,-200,4,1,0,20,0,0
47995,-200,4,1,0,10,0,0

[HitObjects]
256,192,795,5,8,0:0:0:0:
256,192,1461,1,0,0:0:0:0:
256,192,1595,1,0,0:0:0:0:
256,192,2395,1,8,0:0:0:0:
256,192,3195,1,0,0:0:0:0:
256,192,3995,1,8,0:0:0:0:
256,192,4795,1,0,0:0:0:0:
256,192,5195,1,0,0:0:0:0:
256,192,5595,1,8,0:0:0:0:
256,192,6261,1,0,0:0:0:0:
256,192,6395,1,0,0:0:0:0:
256,192,7195,1,8,0:0:0:0:
256,192,7861,1,0,0:0:0:0:
256,192,7995,1,0,0:0:0:0:
256,192,8795,1,8,0:0:0:0:
256,192,9195,1,8,0:0:0:0:
256,192,9595,1,0,0:0:0:0:
256,192,10395,1,8,0:0:0:0:
256,192,11195,1,0,0:0:0:0:
256,192,11595,1,0,0:0:0:0:
256,192,11995,1,8,0:0:0:0:
256,192,12661,1,0,0:0:0:0:
256,192,12795,1,0,0:0:0:0:
256,192,13595,1,8,0:0:0:0:
256,192,14261,1,0,0:0:0:0:
256,192,14395,1,0,0:0:0:0:
256,192,15195,1,8,0:0:0:0:
256,192,15995,1,0,0:0:0:0:
256,192,16795,1,8,0:0:0:0:
256,192,17595,1,0,0:0:0:0:
256,192,17995,1,0,0:0:0:0:
256,192,18395,1,8,0:0:0:0:
256,192,19061,1,0,0:0:0:0:
256,192,19195,1,0,0:0:0:0:
256,192,19995,1,8,0:0:0:0:
256,192,20661,1,0,0:0:0:0:
256,192,20795,1,0,0:0:0:0:
256,192,21595,1,8,0:0:0:0:
256,192,21995,1,8,0:0:0:0:
256,192,22395,1,0,0:0:0:0:
256,192,23195,1,8,0:0:0:0:
256,192,23995,1,0,0:0:0:0:
256,192,24395,1,0,0:0:0:0:
256,192,24795,1,8,0:0:0:0:
256,192,25461,1,0,0:0:0:0:
256,192,25595,1,0,0:0:0:0:
256,192,26395,1,8,0:0:0:0:
256,192,27061,1,0,0:0:0:0:
256,192,27195,1,0,0:0:0:0:
256,192,27995,1,8,0:0:0:0:
256,192,28795,1,0,0:0:0:0:
256,192,29595,1,8,0:0:0:0:
256,192,30395,1,0,0:0:0:0:
256,192,30795,1,0,0:0:0:0:
256,192,31995,1,0,0:0:0:0:
256,192,32795,1,8,0:0:0:0:
256,192,33461,1,0,0:0:0:0:
256,192,33595,1,0,0:0:0:0:
256,192,34395,1,8,0:0:0:0:
256,192,34795,1,8,0:0:0:0:
256,192,35195,1,0,0:0:0:0:
256,192,35995,1,8,0:0:0:0:
256,192,36795,1,0,0:0:0:0:
256,192,37195,1,0,0:0:0:0:
256,192,37595,1,8,0:0:0:0:
256,192,38261,1,0,0:0:0:0:
256,192,38395,1,0,0:0:0:0:
256,192,39195,1,8,0:0:0:0:
256,192,39861,1,0,0:0:0:0:
256,192,39995,1,0,0:0:0:0:
256,192,40795,1,8,0:0:0:0:
256,192,41595,1,0,0:0:0:0:
256,192,42395,1,8,0:0:0:0:
256,192,43195,1,0,0:0:0:0:
256,192,43595,1,0,0:0:0:0:
256,192,43995,1,8,0:0:0:0:
256,192,44661,1,0,0:0:0:0:
256,192,44795,1,0,0:0:0:0:
256,192,45595,1,8,0:0:0:0:
256,192,46261,1,0,0:0:0:0:
256,192,46395,1,0,0:0:0:0:
256,192,47195,1,8,0:0:0:0:
256,192,47595,1,8,0:0:0:0:
256,192,47995,1,0,0:0:0:0:
