osu file format v14

[General]
AudioFilename: audio.mp3
AudioLeadIn: 0
PreviewTime: 12795
Countdown: 0
SampleSet: Soft
StackLeniency: 0.7
Mode: 0
LetterboxInBreaks: 0
WidescreenStoryboard: 1

[Editor]
DistanceSpacing: 1.3
BeatDivisor: 6
GridSize: 4
TimelineZoom: 1

[Metadata]
Title:the girl next door
TitleUnicode:the girl next door
Artist:tomppabeats
ArtistUnicode:tomppabeats
Creator:osuskrub
Version:falling in love
Source:
Tags:chill cool violin finland helsinki tyttö ep amore mio aiutami piero piccioni
BeatmapID:1359155
BeatmapSetID:629170

[Difficulty]
HPDrainRate:4
CircleSize:6.5
OverallDifficulty:4
ApproachRate:5
SliderMultiplier:1.6
SliderTickRate:1

[Events]
//Background and Video events
0,0,"girl next door.jpg",0,0
//Break Periods
//Storyboard Layer 0 (Background)
//Storyboard Layer 1 (Fail)
//Storyboard Layer 2 (Pass)
//Storyboard Layer 3 (Foreground)
Sprite,Foreground,Centre,"sb\highlight.png",320,240 M,0,30395,31195,281,271,199,212 F,0,30395,31195,0,1 S,0,30395,31195,10,1 M,0,31195,31328,199,212,198,225 M,0,31328,31461,198,225,198,239 M,0,31461,31595,198,239,227,343 M,0,31595,31728,227,343,227,330 M,0,31728,31861,227,330,224,317 M,0,31861,31995,224,317,103,283 S,0,31861,31995,1,0.5 F,0,31995,32395,1,0
Sprite,Foreground,Centre,"sb\flash.png",320,240 M,0,0,,103,283 F,0,0,,0 P,0,0,,A S,1,31995,32795,1,30 F,1,31995,33595,1,0
Sprite,Foreground,Centre,"sb\burst.png",320,240 M,0,0,,103,283 F,0,31995,32395,0,0.5 R,0,31995,50395,0,2.094395 F,0,44795,50395,0.5,0
Sprite,Foreground,Centre,"sb\flash.png",320,240 M,0,0,,103,283 F,0,0,,0 P,0,0,,A F,0,31995,,1 F,0,44795,50395,1,0
//Storyboard Sound Samples

[TimingPoints]
-5,800,4,2,2,5,1,0
795,-100,5,2,2,10,0,0
1595,-100,5,2,2,15,0,0
2395,-100,5,2,2,20,0,0
3195,-100,5,2,2,25,0,0
3995,-100,5,2,2,30,0,0
4795,-125,5,2,2,30,0,0
5195,-111.111111111111,5,2,2,30,0,0
5595,-200,5,2,2,30,0,0
6395,-100,5,2,2,30,0,0
11195,-125,5,2,2,30,0,0
11595,-111.111111111111,5,2,2,30,0,0
11995,-200,5,2,2,30,0,0
12795,-100,5,2,2,30,0,0
17595,-125,5,2,2,30,0,0
17995,-111.111111111111,5,2,2,30,0,0
18395,-200,5,2,2,30,0,0
19195,-100,5,2,2,30,0,0
23995,-125,5,2,2,30,0,0
24395,-111.111111111111,5,2,2,30,0,0
24795,-200,5,2,2,30,0,0
25595,-100,5,2,2,30,0,0
30395,-125,5,2,2,30,0,0
30795,-111.111111111111,5,2,2,30,0,0
31195,-200,5,2,2,10,0,0
31995,-66.6666666666667,5,2,4,100,0,0
32795,-66.6666666666667,5,2,2,30,0,0
33595,-100,5,2,2,30,0,0
36795,-125,5,2,2,30,0,0
37195,-111.111111111111,5,2,2,30,0,0
37595,-200,5,2,2,30,0,0
38395,-100,5,2,2,30,0,0
43195,-125,5,2,2,30,0,0
43595,-111.111111111111,5,2,2,30,0,0
43995,-200,5,2,2,30,0,0
44795,-100,5,2,2,25,0,0
45595,-100,5,2,2,20,0,0
46395,-100,5,2,2,15,0,0
47195,-100,5,2,2,10,0,0
47995,-100,5,2,2,5,0,0
49595,-125,5,2,2,5,0,0
49995,-111.111111111111,5,2,2,5,0,0
50395,-200,5,2,2,5,0,0

[Colours]
Combo1 : 62,59,70
Combo2 : 119,53,54
Combo3 : 132,141,170

[HitObjects]
90,338,795,6,0,P|127:346|171:335,1,80,2|0,0:0|0:0,0:0:0:0:
228,300,1461,1,0,0:0:0:0:
259,287,1595,2,0,P|296:280|341:299,1,80,2|0,0:0|0:0,0:0:0:0:
240,216,2395,2,0,P|202:229|164:223,1,80,8|0,0:0|0:0,0:0:0:0:
55,276,3195,2,0,P|50:237|62:186,1,80,2|2,0:0|0:0,0:0:0:0:
92,77,3995,1,8,0:0:0:0:
151,155,4795,6,0,P|197:152|211:149,1,42.6666666666667,2|0,0:0|0:0,0:0:0:0:
313,195,5195,2,0,P|267:198|245:205,1,47.9999985351563,2|0,0:0|0:0,0:0:0:0:
160,317,5595,6,0,P|155:288|158:241,1,66.6666666666667,8|2,0:0|0:0,0:0:0:0:
120,372,6395,6,0,B|159:380|159:380|218:368,1,80,2|0,0:0|0:0,0:0:0:0:
296,276,7195,2,0,P|336:272|383:282,1,80,8|0,0:0|0:0,0:0:0:0:
470,257,7861,1,2,0:0:0:0:
480,223,7995,2,0,P|482:183|464:134,1,80,2|0,0:0|0:0,0:0:0:0:
408,47,8795,2,0,P|368:41|321:52,1,80,8|0,0:0|0:0,0:0:0:0:
115,63,9595,2,0,B|199:35|181:115|275:71,1,160,2|8,0:0|0:0,0:0:0:0:
189,161,11195,6,0,P|165:157|130:161,1,42.6666666666667,2|0,0:0|0:0,0:0:0:0:
1,217,11595,2,0,P|33:218|67:202,1,47.9999985351563,2|0,0:0|0:0,0:0:0:0:
113,309,11995,6,0,P|118:274|112:234,1,66.6666666666667,8|2,0:0|0:0,0:0:0:0:
149,362,12795,6,0,B|104:372|104:372|53:359,1,80,2|0,0:0|0:0,0:0:0:0:
215,308,13595,2,0,P|255:298|306:307,1,80,8|0,0:0|0:0,0:0:0:0:
386,267,14261,1,2,0:0:0:0:
376,233,14395,2,0,P|370:195|392:146,1,80,2|0,0:0|0:0,0:0:0:0:
506,99,15195,2,0,P|468:92|419:98,1,80,8|0,0:0|0:0,0:0:0:0:
221,40,15995,2,0,B|305:12|287:92|381:48,1,160,2|8,0:0|0:0,0:0:0:0:
171,61,17595,6,0,P|166:81|166:103,1,42.6666666666667,2|0,0:0|0:0,0:0:0:0:
95,115,17995,2,0,P|98:152|110:181,1,47.9999985351563,2|0,0:0|0:0,0:0:0:0:
14,12,18395,6,0,P|9:42|18:85,1,66.6666666666667,8|2,0:0|0:0,0:0:0:0:
22,218,19195,6,0,B|106:190|88:270|182:226,1,160,2|8,0:0|0:0,0:0:0:0:
340,163,20661,1,2,0:0:0:0:
355,194,20795,2,0,P|360:228|355:279,1,80,2|0,0:0|0:0,0:0:0:0:
234,215,21595,2,0,P|229:181|234:130,1,80,8|0,0:0|0:0,0:0:0:0:
172,294,22395,2,0,P|94:297|32:242,1,160,2|8,0:0|0:0,0:0:0:0:
127,155,23995,6,0,P|165:159|189:154,1,42.6666666666667,2|0,0:0|0:0,0:0:0:0:
308,200,24395,2,0,P|278:198|247:202,1,47.9999985351563,2|0,0:0|0:0,0:0:0:0:
204,340,24795,6,0,P|209:305|204:264,1,66.6666666666667,8|2,0:0|0:0,0:0:0:0:
130,216,25595,6,0,B|89:209|89:209|52:221,1,80,2|0,0:0|0:0,0:0:0:0:
176,170,26395,2,0,P|219:165|257:177,1,80,8|0,0:0|0:0,0:0:0:0:
350,277,27061,1,2,0:0:0:0:
333,246,27195,2,0,P|331:209|342:154,1,80,2|0,0:0|0:0,0:0:0:0:
276,55,27995,2,0,P|319:54|364:68,1,80,8|0,0:0|0:0,0:0:0:0:
435,226,28795,2,0,L|431:137,1,80,2|0,0:0|0:0,0:0:0:0:
424,22,29595,1,8,0:0:0:0:
265,113,30395,6,0,P|293:113|312:115,1,42.6666666666667,2|0,0:0|0:0,0:0:0:0:
265,218,30795,2,0,P|237:218|206:213,1,47.9999985351563,2|0,0:0|0:0,0:0:0:0:
135,156,31195,6,0,P|134:179|137:193,1,26.6666666666667,2|2,0:0|0:0,0:0:0:0:
163,287,31595,2,0,P|161:264|158:254,1,26.6666666666667,2|2,0:0|0:0,0:0:0:0:
39,227,31995,6,0,P|25:343|131:351,1,240.000009155274,6|8,0:0|0:0,0:0:0:0:
261,318,33461,1,2,0:0:0:0:
294,309,33595,2,0,P|336:305|377:318,1,80,2|0,0:0|0:0,0:0:0:0:
457,370,34395,2,0,L|460:275,1,80,8|0,0:0|0:0,0:0:0:0:
233,190,35195,2,0,B|317:162|299:242|393:198,1,160,2|8,0:0|0:0,0:0:0:0:
249,93,36795,6,0,P|283:95|305:92,1,42.6666666666667,2|0,0:0|0:0,0:0:0:0:
169,157,37195,2,0,P|164:131|164:102,1,47.9999985351563,2|0,0:0|0:0,0:0:0:0:
276,34,37595,6,0,P|311:31|343:35,1,66.6666666666667,8|2,0:0|0:0,0:0:0:0:
460,108,38395,6,0,B|423:115|423:115|378:106,1,80,2|0,0:0|0:0,0:0:0:0:
246,76,39195,1,8,0:0:0:0:
350,203,39861,1,2,0:0:0:0:
383,211,39995,2,0,P|421:214|465:203,1,80,2|0,0:0|0:0,0:0:0:0:
394,310,40795,2,0,P|351:304|312:311,1,80,8|0,0:0|0:0,0:0:0:0:
108,315,41595,2,0,B|192:287|174:367|268:323,1,160,2|8,0:0|0:0,0:0:0:0:
213,193,43195,6,0,P|215:156|212:136,1,42.6666666666667,2|0,0:0|0:0,0:0:0:0:
282,249,43595,2,0,P|285:216|280:188,1,47.9999985351563,2|0,0:0|0:0,0:0:0:0:
365,315,43995,6,0,P|400:313|430:324,1,66.6666666666667,8|2,0:0|0:0,0:0:0:0:
304,356,44795,6,0,P|235:364|190:277,1,160,2|8,0:0|0:0,0:0:0:0:
282,226,46261,1,2,0:0:0:0:
293,192,46395,2,0,P|300:151|296:109,1,80,2|0,0:0|0:0,0:0:0:0:
222,59,47195,2,0,P|182:57|142:62,1,80,8|0,0:0|0:0,0:0:0:0:
82,138,47995,2,0,P|172:143|263:130,1,160,2|8,0:0|0:0,0:0:0:0:
377,203,49595,6,0,P|377:170|375:154,1,42.6666666666667,2|0,0:0|0:0,0:0:0:0:
321,254,49995,2,0,P|321:221|316:197,1,47.9999985351563,2|0,0:0|0:0,0:0:0:0:
265,293,50395,5,8,0:0:0:0:
