osu file format v14

[General]
AudioFilename: audio.mp3
AudioLeadIn: 0
PreviewTime: 12795
Countdown: 0
SampleSet: Soft
StackLeniency: 0.7
Mode: 0
LetterboxInBreaks: 0
WidescreenStoryboard: 1

[Editor]
Bookmarks: 51195
DistanceSpacing: 1.2
BeatDivisor: 6
GridSize: 4
TimelineZoom: 1

[Metadata]
Title:the girl next door
TitleUnicode:the girl next door
Artist:tomppabeats
ArtistUnicode:tomppabeats
Creator:Nokashi
Version:home
Source:
Tags:chill cool violin finland helsinki tyttö ep amore mio aiutami piero piccioni
BeatmapID:1170512
BeatmapSetID:552732

[Difficulty]
HPDrainRate:3.5
CircleSize:3.5
OverallDifficulty:4
ApproachRate:4.5
SliderMultiplier:1.6
SliderTickRate:1

[Events]
//Background and Video events
0,0,"bg.jpg",0,0
//Break Periods
//Storyboard Layer 0 (Background)
//Storyboard Layer 1 (Fail)
//Storyboard Layer 2 (Pass)
//Storyboard Layer 3 (Foreground)
//Storyboard Sound Samples

[TimingPoints]
-5,800,4,2,1,10,1,0
1595,-100,4,2,1,10,0,0
1995,-100,4,2,1,15,0,0
2395,-100,4,2,1,20,0,0
3061,-100,4,2,1,25,0,0
3195,-100,4,2,1,30,0,0
31195,-100,4,2,1,5,0,0
31995,-100,4,2,1,30,0,0
46395,-100,4,2,1,25,0,0
47195,-100,4,2,1,20,0,0
47995,-100,4,2,1,15,0,0
49595,-100,4,2,1,10,0,0

[Colours]
Combo1 : 199,141,141
Combo2 : 152,255,147
Combo3 : 183,250,255
Combo4 : 255,128,128

[HitObjects]
363,103,1595,6,0,P|320:117|268:105,1,80,2|0,0:0|0:0,0:0:0:0:
228,36,2395,2,0,P|160:24|96:48,1,133.333333333333,8|0,0:0|0:0,0:0:0:0:
77,67,3195,6,0,L|85:162,1,80,2|0,0:0|0:0,0:0:0:0:
152,214,3995,2,0,P|220:234|288:214,1,133.333333333333,8|0,0:0|0:0,0:0:0:0:
308,205,4795,2,4,P|346:198|385:207,1,80,2|2,0:0|0:0,0:0:0:0:
476,180,5595,2,0,P|496:112|480:52,1,133.333333333333,8|0,0:0|0:0,0:0:0:0:
450,43,6395,6,0,P|407:33|360:47,1,80,2|0,0:0|0:0,0:0:0:0:
304,110,7195,2,0,P|233:124|172:108,1,133.333333333333,8|0,0:0|0:0,0:0:0:0:
152,86,7995,2,0,L|144:0,1,80,2|0,0:0|0:0,0:0:0:0:
56,44,8795,2,0,L|62:123,1,80,8|0,0:0|0:0,0:0:0:0:
121,201,9595,6,0,L|128:297,1,80,2|0,0:0|0:0,0:0:0:0:
195,348,10395,2,0,P|235:356|283:345,1,80,8|0,0:0|0:0,0:0:0:0:
341,281,11195,1,2,0:0:0:0:
412,346,11595,1,2,0:0:0:0:
482,279,11995,2,0,L|469:134,1,133.333333333333,8|0,0:0|0:0,0:0:0:0:
447,123,12795,6,0,P|399:115|359:123,1,80,2|0,0:0|0:0,0:0:0:0:
300,187,13595,2,0,P|233:202|164:187,1,133.333333333333,8|0,0:0|0:0,0:0:0:0:
147,167,14395,2,0,L|55:175,1,80,2|0,0:0|0:0,0:0:0:0:
67,77,15195,2,0,L|153:84,1,80,8|0,0:0|0:0,0:0:0:0:
242,83,15995,6,0,P|321:60|391:85,2,160,2|8|2,0:0|0:0|0:0,0:0:0:0:
164,140,17995,1,2,0:0:0:0:
219,220,18395,2,0,L|79:232,1,133.333333333333,8|0,0:0|0:0,0:0:0:0:
63,254,19195,6,0,P|53:293|63:332,1,80,2|0,0:0|0:0,0:0:0:0:
157,350,19995,2,0,L|296:337,1,133.333333333333,8|0,0:0|0:0,0:0:0:0:
321,338,20795,2,0,L|406:345,1,80,2|0,0:0|0:0,0:0:0:0:
468,277,21595,2,0,P|480:231|466:188,1,80,8|0,0:0|0:0,0:0:0:0:
404,132,22395,6,0,P|365:123|320:132,1,80,2|0,0:0|0:0,0:0:0:0:
258,198,23195,2,0,P|237:166|231:121,1,80,8|0,0:0|0:0,0:0:0:0:
204,32,23995,1,2,0:0:0:0:
112,56,24395,1,2,0:0:0:0:
84,148,24795,2,0,L|96:288,1,133.333333333333,8|0,0:0|0:0,0:0:0:0:
118,303,25595,6,0,P|159:317|202:311,1,80,2|0,0:0|0:0,0:0:0:0:
291,313,26395,2,0,L|435:325,1,133.333333333333,8|0,0:0|0:0,0:0:0:0:
446,301,27195,2,0,P|460:256|446:214,1,80,2|0,0:0|0:0,0:0:0:0:
356,225,27995,2,0,L|348:137,1,80,8|0,0:0|0:0,0:0:0:0:
277,86,28795,6,0,P|351:53|421:86,2,160,2|8|2,0:0|0:0|0:0,0:0:0:0:
277,182,30795,2,0,P|236:172|198:139,1,80,2|0,0:0|0:0,0:0:0:0:
16,156,31995,6,0,L|22:238,1,80,2|0,0:0|0:0,0:0:0:0:
74,314,32795,2,0,P|136:335|197:313,1,133.333333333333,8|0,0:0|0:0,0:0:0:0:
220,290,33595,2,0,L|211:206,1,80,2|0,0:0|0:0,0:0:0:0:
279,142,34395,2,0,L|286:54,1,80,8|0,0:0|0:0,0:0:0:0:
196,28,35195,6,0,L|104:36,1,80,2|0,0:0|0:0,0:0:0:0:
48,103,35995,2,0,P|37:141|47:182,1,80,8|0,0:0|0:0,0:0:0:0:
132,220,36795,1,2,0:0:0:0:
156,128,37195,1,2,0:0:0:0:
253,131,37595,2,0,P|320:114|384:130,1,133.333333333333,8|0,0:0|0:0,0:0:0:0:
403,151,38395,6,0,L|484:143,1,80,2|0,0:0|0:0,0:0:0:0:
482,240,39195,2,0,L|344:252,1,133.333333333333,8|0,0:0|0:0,0:0:0:0:
326,274,39995,2,0,P|315:319|325:356,1,80,2|0,0:0|0:0,0:0:0:0:
226,350,40795,2,0,P|233:311|222:272,1,80,8|0,0:0|0:0,0:0:0:0:
154,204,41595,6,0,L|167:44,2,160,2|8|2,0:0|0:0|0:0,0:0:0:0:
84,268,43595,1,2,0:0:0:0:
16,200,43995,2,0,L|28:60,1,133.333333333333,8|0,0:0|0:0,0:0:0:0:
50,44,44795,6,0,P|88:36|128:48,1,80,2|0,0:0|0:0,0:0:0:0:
194,115,45595,2,0,P|256:131|323:115,1,133.333333333333,8|0,0:0|0:0,0:0:0:0:
344,138,46395,2,0,L|352:239,1,80,2|0,0:0|0:0,0:0:0:0:
440,252,47195,2,0,L|431:347,1,80,8|0,0:0|0:0,0:0:0:0:
344,364,47995,6,0,L|176:349,1,160,2|8,0:0|0:0,0:0:0:0:
48,214,49595,2,0,L|38:110,2,80,2|2|8,0:0|0:0|0:0,0:0:0:0:
