osu file format v14

[General]
AudioFilename: audio.mp3
AudioLeadIn: 0
PreviewTime: 12395
Countdown: 0
SampleSet: Soft
StackLeniency: 0.7
Mode: 2
LetterboxInBreaks: 0
WidescreenStoryboard: 1

[Editor]
DistanceSpacing: 0.8
BeatDivisor: 6
GridSize: 4
TimelineZoom: 1

[Metadata]
Title:the girl next door
TitleUnicode:the girl next door
Artist:tomppabeats
ArtistUnicode:tomppabeats
Creator:Baron
Version:Neighbour
Source:
Tags:chill cool violin finland helsinki tyttö ep instrumental lo-fi
BeatmapID:2184517
BeatmapSetID:1017053

[Difficulty]
HPDrainRate:6
CircleSize:5
OverallDifficulty:7
ApproachRate:7
SliderMultiplier:2.2
SliderTickRate:1

[Events]
//Background and Video events
0,0,"the+girl+next+door+1200.jpg",0,0
//Break Periods
//Storyboard Layer 0 (Background)
//Storyboard Layer 1 (Fail)
//Storyboard Layer 2 (Pass)
//Storyboard Layer 3 (Foreground)
//Storyboard Layer 4 (Overlay)
//Storyboard Sound Samples

[TimingPoints]
-5,800,4,2,0,35,1,0
1245,-100,4,2,0,10,0,0
2295,-100,4,2,0,25,0,0
3195,-100,4,2,0,35,0,0
3995,-100,4,3,0,35,0,0
4395,-100,4,2,0,35,0,0
6395,-66.6666666666667,4,2,0,35,0,0
7545,-100,4,2,0,35,0,0
8795,-90.9090909090909,4,2,0,35,0,0
9595,-100,4,3,0,35,0,0
12795,-66.6666666666667,4,3,0,35,0,0
14245,-100,4,3,0,35,0,0
16796,-100,4,2,0,35,0,0
19195,-66.6666666666667,4,2,0,35,0,0
20395,-100,4,2,0,35,0,0
25595,-66.6666666666667,4,2,0,35,0,0
26795,-100,4,2,0,35,0,0
31195,-100,4,2,0,5,0,0
31845,-100,4,2,0,35,0,0
35195,-66.6666666666667,4,2,0,35,0,0
36795,-100,4,2,0,35,0,0
38395,-66.6666666666667,4,2,0,35,0,0
39595,-100,4,2,0,35,0,0
43995,-66.6666666666667,4,2,0,35,0,0
46395,-66.6666666666667,4,2,0,20,0,0
47995,-66.6666666666667,4,2,0,10,0,0
48795,-66.6666666666667,4,2,0,5,0,0

[Colours]
Combo1 : 227,121,102
Combo2 : 206,150,252
Combo3 : 9,193,138

[HitObjects]
112,192,1461,5,0,0:0:0:0:
176,192,1595,2,0,L|256:112,1,110.000000596046,0|0,3:0|0:0,0:0:0:0:
352,192,2395,2,0,L|432:112,1,110.000000596046,2|0,3:0|0:0,0:0:0:0:
128,192,3195,6,0,L|128:80,1,110.000000596046,2|0,0:0|0:0,0:0:0:0:
240,192,3995,2,0,L|240:80,1,110.000000596046,2|0,0:0|0:0,0:0:0:0:
352,192,4795,1,0,3:0:0:0:
192,192,5195,1,0,3:0:0:0:
480,192,5595,1,2,3:0:0:0:
144,192,6261,5,0,3:0:0:0:
80,192,6395,2,0,L|240:144,1,165.00000718832,0|0,3:0|2:0,0:0:0:0:
56,112,7195,2,0,L|216:64,1,165.00000718832,2|0,3:0|2:0,0:0:0:0:
464,192,7861,1,0,3:0:0:0:
448,192,7995,2,0,L|336:144,1,110.000000596046,0|0,3:0|0:0,0:0:0:0:
48,192,8795,2,0,L|176:192,2,121.000004348278,2|0|0,3:0|0:0|3:0,0:0:0:0:
416,192,10395,6,0,L|304:144,1,110.000000596046,2|0,3:0|2:0,0:0:0:0:
192,192,11195,1,0,3:0:0:0:
16,192,11595,1,0,3:0:0:0:
320,192,11995,1,2,3:0:0:0:
432,192,12661,5,0,3:0:0:0:
368,192,12795,2,0,L|224:112,1,165.00000718832,0|0,3:0|2:0,0:0:0:0:
96,192,13595,2,0,L|256:128,1,165.00000718832,2|0,3:0|2:0,0:0:0:0:
336,192,14261,1,0,3:0:0:0:
384,192,14395,2,0,L|304:112,1,110.000000596046,0|0,3:0|2:0,0:0:0:0:
160,192,15195,2,0,L|48:192,1,110.000000596046,2|0,3:0|0:0,0:0:0:0:
336,192,15995,6,0,L|416:112,1,110.000000596046,2|0,0:2|2:0,0:0:0:0:
240,192,16795,2,0,L|320:112,1,110.000000596046,2|0,3:0|2:0,0:0:0:0:
192,192,17595,1,0,3:0:0:0:
368,192,17995,1,0,3:0:0:0:
64,192,18395,1,2,3:0:0:0:
144,192,19061,5,0,3:0:0:0:
208,192,19195,2,0,L|384:192,1,165.00000718832,0|0,3:0|2:0,0:0:0:0:
480,128,19995,2,0,L|304:128,1,165.00000718832,2|0,3:0|2:0,0:0:0:0:
64,128,20661,1,0,3:0:0:0:
64,128,20795,2,0,L|144:48,1,110.000000596046,0|0,3:0|0:0,0:0:0:0:
464,192,21595,2,0,L|355:176,2,110.000000596046,2|0|0,3:0|0:0|3:0,0:0:0:0:
208,192,23195,6,0,L|320:144,1,110.000000596046,2|0,3:0|2:0,0:0:0:0:
144,192,23995,1,0,3:0:0:0:
320,192,24395,1,0,3:0:0:0:
16,192,24795,1,2,3:0:0:0:
64,192,25461,5,0,3:0:0:0:
128,192,25595,2,0,L|241:51,1,165.000006294251,0|0,3:0|2:0,0:0:0:0:
312,192,26395,2,0,L|226:36,1,165.000006294251,2|0,3:0|2:0,0:0:0:0:
132,192,27061,1,0,3:0:0:0:
172,192,27195,2,0,L|236:96,1,110.000000596046,0|0,3:0|0:0,0:0:0:0:
384,192,27995,2,0,L|464:112,1,110.000000596046,2|0,3:0|0:0,0:0:0:0:
128,192,28795,6,0,L|128:80,1,110.000000596046,2|0,0:0|2:0,0:0:0:0:
272,192,29595,2,0,L|272:80,1,110.000000596046,2|0,3:0|2:0,0:0:0:0:
432,192,30395,1,0,3:0:0:0:
240,192,30795,2,0,L|128:192,1,110.000000596046,0|0,3:0|2:0,0:0:0:0:
224,192,31995,6,0,L|325:148,1,110.000000596046,0|0,3:0|2:0,0:0:0:0:
144,192,32795,2,0,L|80:96,1,110.000000596046,2|0,3:0|2:0,0:0:0:0:
288,192,33461,1,0,3:0:0:0:
352,192,33595,2,0,L|464:192,2,110.000000596046,0|0|2,3:0|0:0|3:0,0:0:0:0:
192,192,34795,1,0,0:0:0:0:
48,192,35195,6,0,L|176:80,1,165.00000718832,0|0,3:0|2:0,0:0:0:0:
400,192,35995,2,0,L|272:80,1,165.00000718832,2|0,3:0|2:0,0:0:0:0:
160,192,36795,1,0,3:0:0:0:
352,192,37195,1,0,3:0:0:0:
32,192,37595,1,2,3:0:0:0:
336,192,38261,5,0,3:0:0:0:
384,192,38395,2,0,L|304:32,1,165.00000718832,0|0,3:0|2:0,0:0:0:0:
224,192,39195,2,0,L|144:48,1,165.00000718832,2|0,3:0|2:0,0:0:0:0:
80,192,39861,1,0,3:0:0:0:
160,192,39995,2,0,L|256:128,1,110.000000596046,0|0,3:0|0:0,0:0:0:0:
400,192,40795,2,0,L|400:80,1,110.000000596046,2|0,3:0|0:0,0:0:0:0:
80,192,41595,6,0,L|80:80,1,110.000000596046,2|0,0:0|2:0,0:0:0:0:
256,192,42395,2,0,L|256:80,1,110.000000596046,2|0,3:0|2:0,0:0:0:0:
176,192,43195,1,0,3:0:0:0:
0,192,43595,1,0,3:0:0:0:
336,192,43995,2,0,L|448:64,1,165.00000718832,2|0,3:0|2:0,0:0:0:0:
256,192,44795,12,0,49595,0:0:0:0:
