osu file format v14

[General]
AudioFilename: audio.mp3
AudioLeadIn: 0
PreviewTime: 10972
Countdown: 0
SampleSet: Soft
StackLeniency: 0.7
Mode: 2
LetterboxInBreaks: 0
WidescreenStoryboard: 1

[Editor]
DistanceSpacing: 0.9
BeatDivisor: 4
GridSize: 32
TimelineZoom: 1.8

[Metadata]
Title:i want to tell you i love you but i can't (ft. olli)
TitleUnicode:i want to tell you i love you but i can't (ft. olli)
Artist:tomppabeats
ArtistUnicode:tomppabeats
Creator:Ascendance
Version:faking a smile
Source:
Tags:beats helsinki lo-fi foxygrandpa
BeatmapID:1430967
BeatmapSetID:676576

[Difficulty]
HPDrainRate:5
CircleSize:3
OverallDifficulty:6
ApproachRate:6
SliderMultiplier:1.8
SliderTickRate:1

[Events]
//Background and Video events
0,0,"eJwFwVEOwyAIANC7eAABZxF6mcXosjZZLansq9nd994dvtcnrGFzt7kCtD5i32c7r17NYjsPqO61bcdr-ARi4UU0sRJlEUSCRAVV_waifu2x_art_noise1_scale_tta_1.png",0,0
//Break Periods
//Storyboard Layer 0 (Background)
//Storyboard Layer 1 (Fail)
//Storyboard Layer 2 (Pass)
//Storyboard Layer 3 (Foreground)
//Storyboard Sound Samples

[TimingPoints]
11136,652.173913043478,4,2,1,60,1,0
32005,-100,4,2,2,60,0,1
32168,-100,4,2,1,60,0,0
42518,652.173913043478,4,2,1,60,1,0
46431,-100,4,2,1,30,0,0
47083,-100,4,2,1,20,0,0
47735,-100,4,2,1,10,0,0

[HitObjects]
256,192,8038,12,8,10483,0:0:0:0:
184,302,11136,6,0,P|147:217|215:153,1,180,4|8,0:0|0:0,0:0:0:0:
335,140,12114,2,0,L|391:136,2,45,0|0|0,0:0|0:0|0:0,0:0:0:0:
186,83,12766,1,0,0:0:0:0:
464,171,13092,1,8,0:0:0:0:
234,309,13744,6,0,L|218:171,1,135,0|0,0:0|0:0,0:0:0:0:
275,148,14396,2,0,L|386:137,1,90,8|0,0:0|0:0,0:0:0:0:
202,80,15049,2,0,L|96:93,1,90,0|0,0:0|0:0,0:0:0:0:
400,193,15701,1,8,0:0:0:0:
200,278,16353,6,0,L|385:288,1,180,4|8,0:0|0:0,0:0:0:0:
208,204,17331,1,0,0:0:0:0:
364,180,17657,2,0,L|372:55,1,90,0|0,0:0|0:0,0:0:0:0:
96,34,18309,1,8,0:0:0:0:
290,112,18799,1,0,0:0:0:0:
190,158,18962,6,0,L|194:256,1,90,0|0,0:0|0:0,0:0:0:0:
353,321,19614,2,0,L|469:333,2,90,8|0|0,0:0|0:0|0:0,0:0:0:0:
180,367,20592,1,0,0:0:0:0:
453,208,20918,1,8,0:0:0:0:
162,61,21570,6,0,P|106:130|164:201,1,180,4|8,0:0|0:0,0:0:0:0:
333,321,22549,1,0,0:0:0:0:
328,276,22712,1,0,0:0:0:0:
270,239,22875,1,0,0:0:0:0:
452,168,23201,1,0,0:0:0:0:
167,108,23527,1,8,0:0:0:0:
397,232,24179,6,0,L|251:257,1,135,0|0,0:0|0:0,0:0:0:0:
203,237,24831,2,0,L|176:132,1,90,8|0,0:0|0:0,0:0:0:0:
344,146,25483,2,0,L|448:126,1,90,0|0,0:0|0:0,0:0:0:0:
136,53,26135,1,8,0:0:0:0:
343,187,26788,6,0,L|156:206,1,180,4|8,0:0|0:0,0:0:0:0:
296,324,27766,2,0,L|306:261,1,45,0|0,0:0|0:0,0:0:0:0:
216,227,28092,1,0,0:0:0:0:
384,212,28418,1,0,0:0:0:0:
106,177,28744,2,0,L|101:74,1,90,8|0,0:0|0:0,0:0:0:0:
289,90,29396,6,0,P|357:110|435:84,1,135,0|0,0:0|0:0,0:0:0:0:
481,50,30049,2,0,L|481:161,1,90,8|0,0:0|0:0,0:0:0:0:
320,225,30701,1,0,0:0:0:0:
475,300,31027,1,0,0:0:0:0:
192,348,31353,1,8,0:0:0:0:
355,288,32005,6,0,P|380:207|317:135,1,180,4|8,0:0|0:0,0:0:0:0:
170,130,32983,1,0,0:0:0:0:
223,133,33146,1,0,0:0:0:0:
274,135,33309,1,0,0:0:0:0:
137,50,33636,1,0,0:0:0:0:
416,70,33962,1,8,0:0:0:0:
221,326,34614,6,0,L|216:184,1,135,0|0,0:0|0:0,0:0:0:0:
311,136,35266,2,0,L|199:122,1,90,8|0,0:0|0:0,0:0:0:0:
61,138,35918,2,0,L|53:44,1,90,0|0,0:0|0:0,0:0:0:0:
336,62,36570,1,8,0:0:0:0:
151,280,37222,6,0,L|341:296,1,180,4|8,0:0|0:0,0:0:0:0:
151,355,38201,1,0,0:0:0:0:
301,247,38527,2,0,L|194:237,1,90,0|0,0:0|0:0,0:0:0:0:
460,138,39179,1,10,0:0:0:0:
245,67,39668,1,2,0:0:0:0:
340,144,39831,6,0,L|450:133,1,90,0|0,0:0|0:0,0:0:0:0:
286,236,40483,2,0,L|195:229,1,90,8|0,0:0|0:0,0:0:0:0:
352,336,41135,2,0,L|450:326,1,90,0|0,0:0|0:0,0:0:0:0:
164,240,41788,1,8,0:0:0:0:
256,192,42518,12,4,47735,0:0:0:0:
