osu file format v14

[General]
AudioFilename: audio.mp3
AudioLeadIn: 0
PreviewTime: 6473
Countdown: 0
SampleSet: Soft
StackLeniency: 0.7
Mode: 2
LetterboxInBreaks: 0
WidescreenStoryboard: 1

[Editor]
DistanceSpacing: 0.5
BeatDivisor: 4
GridSize: 4
TimelineZoom: 1.7

[Metadata]
Title:Goodmorningme
TitleUnicode:Goodmorningme
Artist:tomppabeats
ArtistUnicode:tomppabeats
Creator:-Joni-
Version:salad
Source:
Tags:2zz chill tomppa harbor lofi beats electronic hip-hop rap Helsinki Unpredictable
BeatmapID:2027800
BeatmapSetID:969195

[Difficulty]
HPDrainRate:4
CircleSize:3
OverallDifficulty:7
ApproachRate:7
SliderMultiplier:1.4
SliderTickRate:1

[Events]
//Background and Video events
0,0,"bg.png",0,0
//Break Periods
//Storyboard Layer 0 (Background)
//Storyboard Layer 1 (Fail)
//Storyboard Layer 2 (Pass)
//Storyboard Layer 3 (Foreground)
//Storyboard Layer 4 (Overlay)
//Storyboard Sound Samples

[TimingPoints]
-13,810.810810810811,4,2,1,30,1,0
8095,-62.5,4,2,1,30,0,0
8905,-100,4,2,1,30,0,0
12959,-62.5,4,2,1,30,0,0
13770,-100,4,2,1,30,0,0
17014,-62.5,4,2,1,30,0,0
17824,-100,4,2,1,30,0,0

[Colours]
Combo1 : 128,255,128
Combo2 : 128,255,255
Combo3 : 216,216,216

[HitObjects]
50,323,3230,6,0,P|113:265|176:279,1,140,0|8,0:0|0:0,0:0:0:0:
205,278,4851,6,0,L|205:225,1,35
291,196,5257,2,0,L|291:148,1,35
378,138,5662,2,0,P|414:94|380:65,1,105,8|0,0:0|0:0,0:0:0:0:
191,64,6473,5,0,0:0:0:0:
171,148,6676,1,0,0:0:0:0:
231,204,6878,1,0,0:0:0:0:
316,209,7081,1,0,0:0:0:0:
209,332,7284,2,0,L|210:240,1,70,8|0,0:0|0:0,0:0:0:0:
373,317,8095,6,0,L|373:250,1,56
473,107,8500,2,0,L|418:107,1,56
293,202,8905,2,0,L|341:106,1,105,8|0,0:0|0:0,0:0:0:0:
127,134,9716,6,0,P|80:72|138:59,1,140,0|8,0:0|0:0,0:0:0:0:
319,145,11338,6,0,L|319:89,1,35
221,147,11743,2,0,L|219:90,1,35
117,211,12149,2,0,P|85:170|126:148,1,105,8|0,0:0|0:0,0:0:0:0:
338,220,12959,5,2,0:0:0:0:
334,156,13162,1,0,0:0:0:0:
284,114,13365,1,0,0:0:0:0:
217,110,13568,1,0,0:0:0:0:
120,114,13770,2,0,P|87:155|152:186,1,140,8|0,0:0|0:0,0:0:0:0:
237,150,14784,6,0,L|237:89,1,35
319,151,15189,1,0,0:0:0:0:
203,324,15392,2,0,P|165:281|215:261,1,105,8|0,0:0|0:0,0:0:0:0:
385,327,16203,6,0,P|408:238|363:207,1,140,0|8,0:0|0:0,0:0:0:0:
229,207,17824,2,0,L|229:159,1,35
326,139,18230,2,0,L|326:101,1,35
221,102,18635,2,0,L|349:104,1,105,8|0,0:0|0:0,0:0:0:0:
126,315,19446,6,0,L|125:243,1,70
314,244,20257,1,8,0:0:0:0:
140,324,21068,6,0,L|140:270,1,35
231,217,21473,2,0,L|230:171,1,35
120,142,21878,2,0,L|196:70,1,105,8|0,0:0|0:0,0:0:0:0:
426,209,22689,6,0,P|464:141|425:87,1,140,0|8,0:0|0:0,0:0:0:0:
67,295,24311,1,0,0:0:0:0:
105,237,24514,1,0,0:0:0:0:
171,238,24716,1,0,0:0:0:0:
212,296,24919,1,0,0:0:0:0:
338,305,25122,6,0,L|338:190,1,105,8|0,0:0|0:0,0:0:0:0:
131,106,25932,2,0,P|186:78|273:108,1,140,0|8,0:0|0:0,0:0:0:0:
380,311,27554,6,0,L|396:272,1,35
475,225,27959,2,0,L|449:185,1,35
378,125,28365,2,0,P|348:90|282:85,1,105,8|0,0:0|0:0,0:0:0:0:
71,312,29176,6,0,L|71:151,1,140,0|8,0:0|0:0,0:0:0:0:
350,310,30797,1,0,0:0:0:0:
418,260,31000,1,0,0:0:0:0:
410,184,31203,1,0,0:0:0:0:
353,128,31405,1,0,0:0:0:0:
220,156,31608,2,0,L|180:54,1,105,8|0,0:0|0:0,0:0:0:0:
404,331,32419,6,0,P|394:272|308:261,1,140,2|8,0:0|0:0,0:0:0:0:
78,317,34041,2,0,L|77:256,1,35
162,281,34446,2,0,L|210:282,1,35
85,196,34851,2,0,L|196:194,1,105,8|0,0:0|0:0,0:0:0:0:
412,241,35662,6,0,P|446:173|403:136,1,140,0|8,0:0|0:0,0:0:0:0:
109,332,37284,2,0,L|110:273,1,35
194,245,37689,2,0,L|194:191,1,35
422,64,38095,6,0,L|269:63,1,140,8|0,0:0|0:0,0:0:0:0:
