osu file format v14

[General]
AudioFilename: audio.mp3
AudioLeadIn: 0
PreviewTime: 6304
Countdown: 0
SampleSet: Soft
StackLeniency: 0.7
Mode: 0
LetterboxInBreaks: 0
WidescreenStoryboard: 1

[Editor]
DistanceSpacing: 1.8
BeatDivisor: 4
GridSize: 4
TimelineZoom: 1

[Metadata]
Title:Being in Love with U
TitleUnicode:Being in Love with U
Artist:tomppabeats
ArtistUnicode:tomppabeats
Creator:Nyantiaz
Version:together
Source:
Tags:vaporwave mix hip hop chill alessi brothers oh lori lo-fi lo fi english harbor
BeatmapID:2393046
BeatmapSetID:1146049

[Difficulty]
HPDrainRate:5
CircleSize:4.5
OverallDifficulty:6
ApproachRate:7
SliderMultiplier:1.8
SliderTickRate:1

[Events]
//Background and Video events
0,0,"BG.jpg",0,0
//Break Periods
//Storyboard Layer 0 (Background)
//Storyboard Layer 1 (Fail)
//Storyboard Layer 2 (Pass)
//Storyboard Layer 3 (Foreground)
//Storyboard Layer 4 (Overlay)
//Storyboard Sound Samples

[TimingPoints]
159,774.193548387097,4,2,1,15,1,0
159,-111.111111111111,4,2,1,15,0,0
1707,-111.111111111111,4,2,1,25,0,0
3255,-100,4,2,1,45,0,0
47384,-100,4,2,1,35,0,0
48159,-100,4,2,1,25,0,0
48933,-100,4,2,1,15,0,0
49707,-100,4,2,1,5,0,0

[Colours]
Combo1 : 255,164,72
Combo2 : 128,255,128
Combo3 : 255,128,64
Combo4 : 0,221,0
SliderTrackOverride : 0,26,26
SliderBorder : 255,128,64

[HitObjects]
52,98,159,6,0,B|148:78|116:131|217:116,1,161.999995056153,2|8,3:0|0:0,0:0:0:0:
419,16,1513,1,4,0:3:0:0:
419,16,1707,2,0,P|404:70|397:119,1,80.9999975280763,4|0,0:3|0:0,0:0:0:0:
502,236,2481,1,8,0:0:0:0:
468,115,2868,1,0,0:0:0:0:
266,214,3255,6,0,P|330:243|387:148,1,180,2|8,3:0|0:0,0:0:0:0:
271,112,4417,1,0,0:0:0:0:
160,220,4804,2,0,P|154:288|153:322,1,90,4|4,0:3|0:3,0:0:0:0:
41,159,5578,1,8,0:0:0:0:
58,276,5965,1,0,0:0:0:0:
144,108,6352,6,0,B|234:82|221:139|330:115,1,180,2|8,3:0|0:0,0:0:0:0:
512,216,7707,1,4,0:3:0:0:
512,216,7900,2,0,P|485:260|493:327,1,90,4|0,0:3|0:0,0:0:0:0:
377,148,8675,1,8,0:0:0:0:
398,265,9062,1,0,0:0:0:0:
293,133,9449,6,0,P|328:82|443:94,1,180,2|8,3:0|0:0,0:0:0:0:
347,201,10610,1,0,0:0:0:0:
201,140,10997,2,0,L|83:154,1,90,4|4,0:3|0:3,0:0:0:0:
18,21,11771,1,8,0:0:0:0:
42,189,12158,1,0,0:0:0:0:
211,83,12546,6,0,L|29:103,1,180,2|8,3:0|0:0,0:0:0:0:
214,4,13900,1,4,0:3:0:0:
214,4,14094,2,0,P|264:26|291:95,1,90,4|0,0:3|0:0,0:0:0:0:
217,203,14868,1,8,0:0:0:0:
218,77,15255,1,0,0:0:0:0:
330,196,15642,6,0,L|346:403,1,180,2|8,3:0|0:0,0:0:0:0:
483,300,16804,1,0,0:0:0:0:
421,153,17191,2,0,L|436:46,1,90,4|4,0:3|0:3,0:0:0:0:
287,0,17965,1,8,0:0:0:0:
307,119,18352,1,0,0:0:0:0:
166,212,18739,6,0,B|156:107|156:107|244:139,1,180,2|8,3:0|0:0,0:0:0:0:
324,302,20094,1,4,0:3:0:0:
324,302,20288,2,0,P|260:292|213:287,1,90,4|0,0:3|0:0,0:0:0:0:
386,189,21062,2,0,P|322:179|275:174,1,90,8|0,0:0|0:0,0:0:0:0:
512,186,21836,6,0,L|504:-8,1,180,2|8,3:0|0:0,0:0:0:0:
353,5,22997,1,0,0:0:0:0:
223,122,23384,2,0,P|270:130|315:104,1,90,4|4,0:3|0:3,0:0:0:0:
140,43,24159,1,8,0:0:0:0:
165,163,24546,1,0,0:0:0:0:
36,282,24933,6,0,B|10:237|29:183|29:183|71:168|114:209,1,180,2|8,3:0|0:0,0:0:0:0:
302,303,26288,1,4,0:3:0:0:
302,303,26481,2,0,P|347:283|384:243,1,90,4|0,0:3|0:0,0:0:0:0:
297,148,27255,2,0,P|252:168|215:208,1,90,8|0,0:0|0:0,0:0:0:0:
425,184,28029,6,0,B|460:134|460:134|443:13,1,180,2|8,3:0|0:0,0:0:0:0:
281,0,29191,1,0,0:0:0:0:
149,89,29578,2,0,L|156:189,1,90,4|4,0:3|0:3,0:0:0:0:
292,266,30352,1,8,0:0:0:0:
256,132,30739,1,0,0:0:0:0:
243,321,31126,6,0,P|289:338|363:246,1,180,2|8,3:0|0:0,0:0:0:0:
155,265,32481,1,4,0:3:0:0:
155,265,32675,2,0,P|137:315|137:366,1,90,4|0,0:3|0:0,0:0:0:0:
234,238,33449,1,8,0:0:0:0:
74,238,33836,1,0,0:0:0:0:
150,107,34223,6,0,B|128:165|128:165|276:129,1,180,2|8,3:0|0:0,0:0:0:0:
297,13,35384,1,0,0:0:0:0:
150,107,35771,2,0,L|60:130,1,90,4|4,0:3|0:3,0:0:0:0:
200,49,36546,1,8,0:0:0:0:
184,211,36933,1,0,0:0:0:0:
203,34,37320,6,0,P|249:-2|345:69,1,180,2|8,3:0|0:0,0:0:0:0:
453,210,38675,1,4,0:3:0:0:
453,210,38868,2,0,P|458:163|462:114,1,90,4|0,0:3|0:0,0:0:0:0:
321,254,39642,1,8,0:0:0:0:
312,164,40029,1,0,0:0:0:0:
415,307,40417,6,0,B|328:294|328:294|239:334,1,180,2|8,3:0|0:0,0:0:0:0:
99,360,41578,1,0,0:0:0:0:
12,238,41965,2,0,L|40:135,1,90,4|4,0:3|0:3,0:0:0:0:
181,277,42739,1,8,0:0:0:0:
72,293,43126,1,0,0:0:0:0:
256,216,43513,6,0,B|344:186|333:251|448:226,1,180,2|8,3:0|0:0,0:0:0:0:
281,81,44868,1,4,0:3:0:0:
281,81,45062,2,0,L|181:89,1,90,4|0,0:3|0:0,0:0:0:0:
335,141,45836,1,8,0:0:0:0:
274,1,46223,1,0,0:0:0:0:
209,202,46610,5,2,3:0:0:0:
256,192,46804,12,0,49707,0:0:0:0:
