osu file format v14

[General]
AudioFilename: audio.mp3
AudioLeadIn: 0
PreviewTime: 54368
Countdown: 0
SampleSet: Soft
StackLeniency: 0.5
Mode: 0
LetterboxInBreaks: 0
WidescreenStoryboard: 0

[Editor]
Bookmarks: 27057
DistanceSpacing: 1.6
BeatDivisor: 4
GridSize: 4
TimelineZoom: 3.940005

[Metadata]
Title:Colorful.
TitleUnicode:カラフル。
Artist:tomatomerde
ArtistUnicode:tomatomerde
Creator:Namki
Version:Dream
Source:冴えない彼女の育てかた
Tags:saekano cut version Saenai Heroine no Sodatekata how to rise a boring girlfriend schoolboy komore uta
BeatmapID:1497813
BeatmapSetID:708478

[Difficulty]
HPDrainRate:6
CircleSize:4.2
OverallDifficulty:8
ApproachRate:9
SliderMultiplier:2.22
SliderTickRate:1

[Events]
//Background and Video events
0,0,"colorful.jpg",0,0
//Break Periods
//Storyboard Layer 0 (Background)
//Storyboard Layer 1 (Fail)
//Storyboard Layer 2 (Pass)
//Storyboard Layer 3 (Foreground)
//Storyboard Sound Samples

[TimingPoints]
161,413.793103448276,4,2,1,25,1,0
161,-142.857142857143,4,2,1,25,0,0
574,-200,4,2,1,60,0,0
884,-200,4,2,1,5,0,0
988,413.793103448276,4,2,1,60,1,0
988,-125,4,2,1,60,0,0
12574,-100,4,2,1,60,0,0
13608,-83.3333333333333,4,2,1,60,0,0
14229,-125,4,2,1,60,0,0
40919,-100,4,2,1,60,0,0
41125,-76.9230769230769,4,2,1,60,0,0
41332,-125,4,2,1,60,0,0
42574,-100,4,2,1,60,0,0
42781,-76.9230769230769,4,2,1,60,0,0
42988,-100,4,2,1,60,0,0
43194,-125,4,2,1,60,0,0
44229,-100,4,2,1,60,0,0
44436,-76.9230769230769,4,2,1,60,0,0
44850,-125,4,2,1,60,0,0
45884,-100,4,2,1,60,0,0
46091,-76.9230769230769,4,2,1,60,0,0
46298,-100,4,2,1,60,0,0
46505,-125,4,2,1,60,0,0
52298,-100,4,2,1,60,0,0
54368,-200,4,2,1,60,0,0
54781,-100,4,2,1,60,0,0
55609,-90.9090909090909,4,2,1,75,0,0
58091,-133.333333333333,4,2,1,75,0,0
58505,-90.9090909090909,4,2,1,75,0,0
58919,-76.9230769230769,4,2,1,75,0,0
59332,-90.9090909090909,4,2,1,75,0,0
59746,-76.9230769230769,4,2,1,75,0,0
60057,-90.9090909090909,4,2,1,75,0,0
68437,-142.857142857143,4,2,1,75,0,0
68643,-83.3333333333333,4,2,1,75,0,0
68850,-90.9090909090909,4,2,1,75,0,0
71333,-133.333333333333,4,2,1,75,0,0
71746,-90.9090909090909,4,2,1,75,0,0
72160,-76.9230769230769,4,2,1,75,0,0
72575,-90.9090909090909,4,2,1,75,0,0
72988,-76.9230769230769,4,2,1,75,0,0
73298,-90.9090909090909,4,2,1,75,0,0
81678,-111.111111111111,4,2,1,75,0,0
82919,-111.111111111111,4,2,1,60,0,0
83746,-111.111111111111,4,2,1,50,0,0
84367,-111.111111111111,4,2,1,30,0,0
84781,-111.111111111111,4,2,1,15,0,0
85194,-111.111111111111,4,2,1,5,0,0

[Colours]
Combo1 : 244,91,96
Combo2 : 148,237,231
Combo3 : 250,133,226
Combo4 : 95,145,250

[HitObjects]
136,220,161,6,0,P|135:200|140:180,3,38.8499988143921,2|0|0|0,0:0|0:0|0:0|0:0,0:0:0:0:
196,126,574,6,0,B|233:114|233:114|292:143,1,83.25,4|0,0:3|0:0,0:0:0:0:
366,218,988,5,0,1:0:0:0:
231,197,1195,1,0,0:0:0:0:
385,85,1402,2,0,L|320:80,1,44.4,8|0,0:0|0:0,0:0:0:0:
269,26,1609,1,0,0:0:0:0:
243,33,1712,1,0,0:0:0:0:
217,40,1816,1,8,0:3:0:0:
337,92,2023,1,0,0:0:0:0:
473,20,2229,2,0,L|466:121,1,88.8,8|0,0:0|0:0,0:0:0:0:
335,176,2540,5,0,0:0:0:0:
334,161,2643,2,0,L|386:165,1,44.4,0|0,1:0|0:0,0:0:0:0:
497,242,2850,2,0,L|452:238,1,44.4
445,326,3057,1,8,0:0:0:0:
296,358,3264,2,0,L|287:289,1,44.4,2|0,0:0|0:0,0:0:0:0:
306,185,3471,1,8,0:3:0:0:
280,178,3575,1,0,0:0:0:0:
255,188,3678,1,0,0:0:0:0:
289,299,3884,1,8,0:0:0:0:
324,163,4091,6,0,P|266:153|233:170,1,88.8,2|8,0:0|0:3,0:0:0:0:
189,237,4506,1,2,0:0:0:0:
356,85,4712,2,0,P|414:75|447:92,1,88.8,8|0,0:0|0:0,0:0:0:0:
480,168,5126,1,8,0:3:0:0:
288,19,5332,1,0,0:0:0:0:
187,218,5540,2,0,L|189:121,1,88.8,8|0,0:0|0:0,0:0:0:0:
187,120,5850,1,0,0:0:0:0:
183,111,5954,6,0,P|159:102|133:103,1,44.4,0|0,1:0|0:0,0:0:0:0:
59,209,6161,2,0,P|81:207|101:199,1,44.4
208,22,6368,1,8,0:0:0:0:
285,253,6575,2,0,B|237:231|237:231|191:237,1,88.8,2|8,0:0|0:3,0:0:0:0:
305,170,6988,1,0,0:0:0:0:
369,355,7194,1,8,0:0:0:0:
367,328,7298,1,0,3:0:0:0:
365,301,7401,1,0,3:0:0:0:
305,170,7608,6,0,L|414:164,1,88.8,0|0,1:0|0:0,0:0:0:0:
393,165,7919,1,0,0:0:0:0:
393,165,8023,1,8,0:0:0:0:
195,120,8229,1,0,0:0:0:0:
195,120,8333,1,0,0:0:0:0:
195,120,8437,2,0,L|106:124,1,88.8,8|0,0:3|0:0,0:0:0:0:
280,104,8850,2,0,B|272:152|272:152|280:177|280:177|265:255,1,133.2,8|0,0:0|0:0,0:0:0:0:
196,284,9264,6,0,P|180:237|190:198,1,88.8,0|0,1:0|0:0,0:0:0:0:
347,201,9575,1,0,0:0:0:0:
358,208,9678,2,0,P|366:250|350:291,1,88.8,8|0,0:0|0:0,0:0:0:0:
266,171,10092,1,8,0:3:0:0:
267,144,10195,1,0,0:0:0:0:
268,117,10299,1,0,0:0:0:0:
290,30,10505,1,8,0:0:0:0:
427,116,10712,6,0,B|375:121|375:121|339:99,1,88.8,2|0,0:0|1:0,0:0:0:0:
290,30,11125,2,0,L|339:23,1,44.4
495,171,11333,2,0,L|507:71,1,88.8,8|0,0:0|0:0,0:0:0:0:
366,260,11747,1,8,0:0:0:0:
501,326,11954,1,2,0:0:0:0:
414,172,12160,1,8,0:0:0:0:
236,247,12367,1,2,0:0:0:0:
368,58,12574,6,0,L|446:70,1,55.5,2|0,1:0|0:0,0:0:0:0:
257,151,12781,2,0,L|202:141,1,55.5,2|0,0:1|0:0,0:0:0:0:
85,46,12988,5,8,0:0:0:0:
19,84,13092,1,0,3:0:0:0:
86,124,13195,1,0,3:0:0:0:
264,112,13401,5,8,0:0:0:0:
240,108,13506,1,2,0:0:0:0:
215,134,13608,2,0,L|283:145,1,66.5999979675294,2|0,0:1|0:0,0:0:0:0:
449,169,13815,2,0,L|404:222,1,66.5999979675294,10|0,0:1|0:0,0:0:0:0:
301,347,14022,2,0,L|277:281,1,66.5999979675294,2|0,0:1|0:0,0:0:0:0:
280,144,14229,6,0,L|186:147,1,88.8,0|0,1:0|0:0,0:0:0:0:
265,58,14643,1,8,0:0:0:0:
189,237,14850,1,0,0:0:0:0:
156,235,14954,1,0,0:0:0:0:
125,236,15057,1,8,0:3:0:0:
69,147,15264,2,0,L|81:84,1,44.4,2|0,0:0|0:0,0:0:0:0:
189,237,15470,2,0,L|167:350,1,88.8,8|0,0:0|0:0,0:0:0:0:
264,272,15781,5,0,0:0:0:0:
264,272,15885,2,0,L|311:267,1,44.4,0|0,1:0|0:0,0:0:0:0:
388,356,16092,2,0,L|341:351,1,44.4
305,188,16299,1,8,0:0:0:0:
472,279,16506,1,0,0:0:0:0:
441,279,16609,1,0,0:0:0:0:
410,279,16712,1,8,0:3:0:0:
314,191,16919,1,0,0:0:0:0:
451,105,17125,2,0,B|467:138|467:138|454:205,1,88.8,8|0,0:0|0:0,0:0:0:0:
451,196,17437,1,0,0:0:0:0:
444,202,17539,6,0,L|380:203,1,44.4,0|0,1:0|0:0,0:0:0:0:
300,184,17747,1,0,0:0:0:0:
394,291,17954,2,0,B|300:297|300:297|299:289,1,88.8,8|0,0:0|0:0,0:0:0:0:
300,184,18368,1,8,0:3:0:0:
268,366,18575,1,0,0:0:0:0:
141,219,18781,2,0,B|235:225|235:225|236:217,1,88.8,8|0,0:0|0:0,0:0:0:0:
268,366,19194,6,0,L|264:303,1,44.4,0|0,1:0|0:0,1:0:0:0:
258,152,19402,1,0,0:0:0:0:
258,152,19506,1,0,0:0:0:0:
258,152,19609,1,8,0:0:0:0:
399,229,19816,2,0,L|344:223,1,44.4
496,282,20023,2,0,L|487:166,1,88.8,8|0,0:3|0:0,0:0:0:0:
473,35,20437,1,8,0:0:0:0:
336,45,20643,1,2,0:0:0:0:
465,115,20850,5,0,1:0:0:0:
313,123,21057,1,0,0:0:0:0:
313,123,21161,1,0,0:0:0:0:
313,123,21264,2,0,L|316:186,1,44.4,8|0,0:0|0:0,0:0:0:0:
152,151,21471,2,0,L|154:106,1,44.4
184,253,21678,2,0,L|79:239,1,88.8,8|0,0:3|0:0,0:0:0:0:
235,327,21988,1,0,0:0:0:0:
235,327,22092,2,0,L|279:318,1,44.4,8|0,0:0|0:0,0:0:0:0:
375,303,22299,1,0,0:0:0:0:
321,164,22505,6,0,B|305:216|305:216|315:263,1,88.8,0|0,1:0|0:0,0:0:0:0:
399,119,22919,1,8,0:0:0:0:
230,115,23126,1,0,0:0:0:0:
230,140,23230,1,0,0:0:0:0:
227,166,23333,2,0,L|168:163,1,44.4,8|0,0:3|0:0,0:0:0:0:
392,211,23540,2,0,L|451:208,1,44.4
303,338,23746,2,0,L|314:222,1,88.8,8|0,0:0|0:0,0:0:0:0:
315,226,24057,1,0,0:0:0:0:
314,226,24161,5,0,1:0:0:0:
396,306,24367,1,0,0:0:0:0:
229,263,24575,2,0,L|168:268,1,44.4,8|0,0:0|0:0,0:0:0:0:
396,306,24781,2,0,L|440:302,1,44.4
494,224,24988,1,8,0:3:0:0:
470,211,25092,1,0,0:0:0:0:
444,219,25195,1,0,0:0:0:0:
460,298,25401,1,8,0:0:0:0:
392,160,25609,5,0,0:0:0:0:
392,160,25712,2,8,L|396:130,2,22.2,8|8|8,0:3|0:3|0:3,0:3:0:0:
292,171,26022,2,0,L|285:106,1,44.4,0|0,0:3|0:0,0:0:0:0:
152,40,26229,5,8,0:0:0:0:
177,39,26333,1,8,0:3:0:0:
203,40,26437,2,0,L|207:84,1,44.4,0|0,0:3|0:0,0:0:0:0:
170,158,26643,5,8,0:0:0:0:
99,149,26747,1,8,0:3:0:0:
42,191,26850,1,8,0:3:0:0:
34,262,26954,1,8,0:3:0:0:
84,311,27057,5,0,0:0:0:0:
127,307,27160,1,0,0:0:0:0:
166,286,27263,1,0,0:0:0:0:
210,282,27367,1,0,0:0:0:0:
270,321,27471,6,0,P|268:258|371:221,1,177.6,0|0,1:0|0:0,0:0:0:0:
474,286,28092,6,0,L|422:284,1,44.4,0|0,0:3|0:0,0:0:0:0:
260,156,28298,2,0,L|215:157,1,44.4,8|0,0:1|0:0,0:0:0:0:
141,215,28506,5,0,0:0:0:0:
133,117,28712,1,0,0:0:0:0:
124,19,28919,1,0,0:0:0:0:
265,67,29126,6,0,L|259:163,1,88.8,8|0,0:0|0:0,0:0:0:0:
312,217,29437,2,0,P|362:210|389:177,1,88.8,8|0,0:0|0:0,0:0:0:0:
374,105,29747,1,8,0:0:0:0:
286,304,29954,6,0,B|237:303|237:303|214:292|214:292|125:291,1,133.2,8|0,0:1|0:0,0:0:0:0:
118,324,30368,2,0,P|138:255|79:193,1,133.2,2|0,0:0|0:0,0:0:0:0:
64,269,30781,6,0,B|137:243|137:243|178:254|178:254|252:222,1,177.6,0|0,1:0|0:0,0:0:0:0:
258,94,31402,6,0,L|199:94,1,44.4,8|0,0:0|0:0,0:0:0:0:
368,146,31609,2,0,L|412:146,1,44.4,8|0,0:1|0:0,0:0:0:0:
386,64,31816,1,2,0:0:0:0:
410,225,32022,1,0,0:0:0:0:
223,274,32230,5,0,0:0:0:0:
223,185,32437,2,0,L|223:284,1,88.8,8|0,0:0|0:0,0:0:0:0:
178,331,32747,2,0,B|141:325|141:325|94:353,1,88.8,8|0,0:0|0:0,0:0:0:0:
75,273,33057,5,8,0:0:0:0:
150,86,33264,2,0,L|147:238,1,133.2,8|0,0:1|0:0,0:0:0:0:
238,223,33677,2,0,P|270:179|243:89,1,133.2,8|0,0:0|0:0,0:0:0:0:
218,75,34092,6,0,B|281:78|281:78|313:54|313:54|387:61,1,177.6,0|0,1:0|0:0,0:0:0:0:
473,0,34712,6,0,L|479:55,1,44.4,8|0,0:0|0:0,0:0:0:0:
434,173,34919,2,0,L|438:128,1,44.4,8|0,0:1|0:0,0:0:0:0:
423,265,35126,1,0,0:0:0:0:
329,191,35333,5,0,0:0:0:0:
329,191,35540,1,0,0:0:0:0:
308,279,35747,2,0,B|252:264|252:264|212:274,1,88.8,0|0,1:0|0:0,0:0:0:0:
119,222,36056,2,0,L|213:197,1,88.8,8|0,0:0|0:0,0:0:0:0:
281,96,36368,6,0,L|274:155,1,44.4,8|0,0:0|0:0,0:0:0:0:
308,279,36575,2,0,L|302:234,1,44.4,8|0,0:1|0:0,0:0:0:0:
394,243,36781,1,0,0:0:0:0:
394,243,36885,1,0,0:0:0:0:
244,359,37195,5,0,0:0:0:0:
198,278,37402,2,0,L|100:283,2,88.8,0|0|0,1:0|0:0|0:0,0:0:0:0:
163,146,38023,2,0,L|154:205,1,44.4,8|0,0:0|0:0,0:0:0:0:
279,316,38230,2,0,P|283:263|261:225,2,88.8,8|0|0,0:1|0:0|0:0,0:0:0:0:
163,146,38850,5,0,0:0:0:0:
163,146,38954,1,0,0:0:0:0:
163,146,39057,2,0,B|117:142|117:142|68:152,1,88.8,8|0,0:0|0:0,0:0:0:0:
137,66,39368,2,0,B|183:70|183:70|232:60,1,88.8,8|0,0:0|0:0,0:0:0:0:
304,16,39678,2,0,L|298:59,1,44.4,8|0,0:0|0:0,0:0:0:0:
391,226,39884,5,8,0:1:0:0:
387,154,40022,5,0,0:1:0:0:
383,82,40160,5,0,0:1:0:0:
378,11,40298,5,0,0:1:0:0:
41,135,40712,5,0,1:0:0:0:
126,59,40919,6,0,L|121:129,1,55.5,2|0,0:1|0:0,0:0:0:0:
112,233,41125,6,0,L|106:313,1,72.1499966972353,10|0,0:1|0:0,0:0:0:0:
199,247,41332,5,0,0:0:0:0:
171,167,41539,2,0,B|209:160|209:160|268:188,1,88.8,8|0,0:0|0:0,0:0:0:0:
318,128,41954,1,8,0:0:0:0:
400,256,42160,1,0,0:0:0:0:
382,257,42263,1,0,0:0:0:0:
364,257,42367,1,0,0:0:0:0:
396,113,42574,6,0,L|389:171,1,55.5,2|0,0:1|0:0,0:0:0:0:
419,270,42781,6,0,L|321:272,1,72.1499966972353,10|0,0:1|0:0,0:0:0:0:
380,167,42988,6,0,L|386:111,1,55.5,2|0,0:1|0:0,0:0:0:0:
335,49,43194,6,0,B|296:40|296:40|224:64,1,88.8,8|0,0:0|0:0,0:0:0:0:
185,132,43506,5,0,0:0:0:0:
185,132,43608,2,0,L|187:228,1,88.8,8|0,0:0|0:0,0:0:0:0:
96,100,44022,5,0,1:0:0:0:
289,282,44229,6,0,B|261:285|261:285|224:280,1,55.5,2|0,0:1|0:0,0:0:0:0:
103,233,44436,6,0,B|74:221|74:221|30:223,1,72.1499966972353,10|0,0:1|0:0,0:0:0:0:
120,319,44643,5,0,0:0:0:0:
296,194,44850,6,0,L|289:289,1,88.8,8|0,0:0|0:0,0:0:0:0:
388,218,45263,1,8,0:0:0:0:
247,100,45471,1,0,0:0:0:0:
241,116,45574,1,0,0:0:0:0:
238,133,45677,1,0,1:0:0:0:
126,244,45884,6,0,L|185:242,1,55.5,2|0,0:1|0:0,0:0:0:0:
313,206,46091,6,0,L|306:301,1,72.1499966972353,10|0,0:1|0:0,0:0:0:0:
180,228,46298,6,0,L|124:229,1,55.5,2|0,0:1|0:0,0:0:0:0:
59,163,46505,6,0,B|49:128|49:128|90:64,1,88.8,8|0,0:0|0:0,0:0:0:0:
155,65,46816,1,0,0:0:0:0:
152,104,46919,1,8,0:0:0:0:
219,289,47126,5,2,0:0:0:0:
219,213,47230,1,2,0:0:0:0:
221,136,47333,2,0,B|318:121|308:178|403:154,1,177.6,0|8,1:0|0:0,0:0:0:0:
354,31,47954,2,0,L|358:80,1,44.4
385,250,48161,2,0,B|418:238|418:238|493:255,1,88.8,8|0,0:3|0:0,0:0:0:0:
490,336,48471,1,0,0:0:0:0:
490,336,48575,2,0,L|378:338,1,88.8,8|0,0:0|0:0,0:0:0:0:
328,349,48885,5,0,0:0:0:0:
327,322,48988,1,0,1:0:0:0:
244,254,49195,1,0,0:0:0:0:
414,194,49402,2,0,L|314:181,1,88.8,8|0,0:0|0:0,0:0:0:0:
155,242,49816,2,0,L|243:253,1,88.8,8|0,0:3|0:0,0:0:0:0:
343,110,50230,2,0,B|304:101|304:101|253:139,1,88.8,8|0,0:0|0:0,0:0:0:0:
227,58,50539,5,0,0:0:0:0:
227,58,50643,2,0,L|167:47,1,44.4,0|0,1:0|0:0,0:0:0:0:
130,104,50850,2,0,L|70:93,1,44.4,8|0,0:0|0:0,0:0:0:0:
10,76,51057,5,8,0:0:0:0:
203,197,51264,1,8,0:0:0:0:
34,280,51471,6,0,L|77:271,1,44.4,8|0,0:0|0:0,0:0:0:0:
131,326,51678,2,0,L|174:317,1,44.4,8|0,0:0|0:0,0:0:0:0:
257,306,51885,5,0,0:0:0:0:
35,182,52092,1,8,0:0:0:0:
229,96,52299,5,8,0:0:0:0:
224,151,52402,1,8,0:3:0:0:
221,206,52506,2,0,L|299:200,1,55.5,8|0,0:3|0:0,0:0:0:0:
410,306,52712,2,0,L|354:310,1,55.5,8|0,0:0|0:0,0:0:0:0:
231,322,52919,5,8,0:3:0:0:
235,294,53023,1,8,0:3:0:0:
240,266,53126,5,8,0:0:0:0:
185,264,53229,1,8,0:3:0:0:
141,232,53332,1,8,0:3:0:0:
124,180,53436,1,8,0:3:0:0:
139,127,53540,6,8,L|194:130,4,27.75,8|8|8|8|8,0:3|0:3|0:3|0:3|0:3,0:3:0:0:
244,110,53850,1,8,0:3:0:0:
242,155,53954,1,0,1:0:0:0:
489,130,54368,6,0,B|460:99|460:99|441:136,1,83.25,2|0,0:0|0:0,0:0:0:0:
388,306,54781,5,8,0:1:0:0:
443,276,54884,1,8,0:3:0:0:
440,212,54987,1,8,0:3:0:0:
383,188,55091,1,8,0:3:0:0:
335,226,55195,6,0,B|252:213|263:267|168:246,1,166.5,8|0,0:1|0:0,0:0:0:0:
104,219,55609,5,0,1:0:0:0:
226,52,55816,2,0,L|217:177,1,122.100003726196,0|8,0:0|0:0,0:0:0:0:
104,219,56230,1,2,0:0:0:0:
316,136,56437,1,8,0:3:0:0:
142,71,56643,2,0,B|87:64|87:64|18:99,1,122.100003726196,0|8,0:0|0:0,0:0:0:0:
224,195,57057,1,2,0:0:0:0:
273,22,57264,6,0,P|337:12|401:37,1,122.100003726196,0|0,1:0|0:0,0:0:0:0:
429,126,57678,1,8,0:0:0:0:
244,109,57885,1,2,0:0:0:0:
418,223,58091,6,0,B|378:210|378:210|315:227,1,83.2500031757356,8|0,0:0|0:0,0:0:0:0:
264,321,58505,6,0,L|268:261,1,61.0500018630982,8|0,0:3|0:0,0:0:0:0:
220,117,58712,2,0,L|215:184,1,61.0500018630982,2|0,0:0|0:0,0:0:0:0:
157,361,58919,6,0,B|156:254|156:254|173:300,1,144.299993394471,0|0,1:0|0:0,0:0:0:0:
267,334,59332,6,0,L|276:274,1,61.0500018630982,8|0,0:0|0:0,0:0:0:0:
241,127,59539,2,0,L|230:193,1,61.0500018630982,2|0,0:0|0:0,0:0:0:0:
157,361,59746,6,0,B|165:254|165:254|178:301,1,144.299993394471,8|0,0:3|0:0,0:0:0:0:
82,295,60057,5,0,0:0:0:0:
82,295,60161,1,8,0:0:0:0:
3,199,60368,2,0,L|64:193,1,61.0500018630982
182,133,60574,6,0,L|164:266,1,122.100003726196,0|0,1:0|0:0,0:0:0:0:
264,320,60885,1,0,0:0:0:0:
264,320,60988,2,0,P|271:232|240:182,1,122.100003726196,8|0,0:0|0:0,0:0:0:0:
174,337,61402,1,8,0:3:0:0:
366,267,61609,1,0,0:0:0:0:
140,188,61816,1,8,0:0:0:0:
380,129,62023,1,0,0:0:0:0:
251,358,62230,6,0,L|243:229,1,122.100003726196,0|0,1:0|0:0,0:0:0:0:
163,289,62643,1,8,0:0:0:0:
314,166,62850,2,0,P|340:225|313:296,1,122.100003726196,2|8,0:0|0:3,0:0:0:0:
163,289,63264,1,0,0:0:0:0:
163,289,63368,1,0,0:0:0:0:
163,289,63471,2,0,P|149:230|175:176,1,122.100003726196,8|0,0:0|0:0,0:0:0:0:
206,43,63780,1,2,0:0:0:0:
248,102,63884,6,0,B|186:79|186:79|130:87,1,122.100003726196,0|0,1:0|0:0,0:0:0:0:
321,38,64299,1,8,0:0:0:0:
328,245,64505,2,0,L|323:162,1,61.0500018630982,2|0,0:0|0:0,0:0:0:0:
307,35,64712,1,8,0:3:0:0:
388,122,64919,1,0,0:0:0:0:
242,138,65126,2,0,L|251:271,1,122.100003726196,8|0,0:0|0:0,0:0:0:0:
180,333,65436,5,0,0:0:0:0:
180,333,65539,2,0,P|148:329|95:248,1,122.100003726196,0|0,1:0|0:0,0:0:0:0:
176,251,65954,1,8,0:0:0:0:
32,309,66161,2,0,P|19:279|63:192,1,122.100003726196,2|8,0:0|0:3,0:0:0:0:
176,251,66575,1,2,0:0:0:0:
118,52,66781,2,0,B|138:100|138:100|117:177,1,122.100003726196,8|0,0:0|0:0,0:0:0:0:
228,154,67091,5,8,0:3:0:0:
227,136,67195,2,0,L|294:136,1,61.0500018630982,0|0,1:0|0:0,0:0:0:0:
338,256,67402,2,0,L|276:256,1,61.0500018630982,8|0,0:3|0:0,0:0:0:0:
190,341,67609,6,0,L|177:205,1,122.100003726196,8|0,0:0|0:0,0:0:0:0:
276,256,67919,2,8,L|273:305,2,30.5250009315491,8|8|8,0:3|0:3|0:3,0:3:0:0:
32,120,68230,2,0,L|96:124,1,61.0500018630982,2|0,3:0|0:0,0:0:0:0:
208,24,68437,6,0,P|207:47|202:66,1,38.8499988143921,8|0,0:1|0:0,0:0:0:0:
239,193,68643,6,0,P|202:212|168:221,1,66.5999979675294,8|0,0:3|0:0,0:0:0:0:
320,137,68850,6,0,L|492:141,1,122.100003726196,0|0,1:0|0:0,0:0:0:0:
376,56,69264,1,8,0:0:0:0:
345,227,69471,2,0,L|365:310,1,61.0500018630982,2|0,0:0|0:0,0:0:0:0:
434,235,69678,1,8,0:3:0:0:
240,249,69884,1,0,0:0:0:0:
240,249,69988,1,0,0:0:0:0:
240,249,70092,2,0,B|180:255|184:230|111:239,1,122.100003726196,8|0,0:0|0:0,0:0:0:0:
29,271,70506,5,0,1:0:0:0:
210,153,70712,1,0,0:0:0:0:
132,369,70919,2,0,L|127:244,1,122.100003726196,8|0,0:0|0:0,0:0:0:0:
201,77,71333,6,0,B|222:115|222:115|203:173,1,83.2500031757356,8|0,0:3|0:0,0:0:0:0:
336,194,71746,6,0,L|268:206,1,61.0500018630982,8|0,0:0|0:0,0:0:0:0:
169,270,71953,2,0,L|229:280,1,61.0500018630982,2|0,0:0|0:0,0:0:0:0:
408,324,72160,6,0,B|301:340|301:340|345:306,1,144.299993394471,0|0,1:0|0:0,0:0:0:0:
337,182,72575,6,0,L|268:191,1,61.0500018630982,8|0,0:0|0:0,0:0:0:0:
167,252,72782,2,0,L|226:264,1,61.0500018630982,2|0,0:0|0:0,0:0:0:0:
404,314,72989,6,0,B|296:326|296:326|340:295,1,144.299993394471,8|0,0:3|0:0,0:0:0:0:
418,227,73298,5,0,0:0:0:0:
418,227,73401,2,0,P|449:233|479:256,1,61.0500018630982,8|0,0:0|0:0,0:0:0:0:
337,182,73608,2,0,P|357:158|392:143,1,61.0500018630982
271,236,73815,6,0,B|224:235|224:235|204:229|204:229|142:228,1,122.100003726196,0|0,1:0|0:0,0:0:0:0:
93,143,74126,1,0,0:0:0:0:
93,143,74230,2,0,P|152:127|211:152,1,122.100003726196,8|0,0:0|0:0,0:0:0:0:
202,300,74643,2,0,P|145:321|88:305,1,122.100003726196,8|0,0:3|0:0,0:0:0:0:
28,220,74954,1,0,0:0:0:0:
28,220,75057,2,0,B|82:220|82:220|102:226|102:226|149:227,1,122.100003726196,8|0,0:0|0:0,0:0:0:0:
302,124,75471,6,0,P|225:128|187:170,1,122.100003726196,0|0,1:0|0:0,0:0:0:0:
149,227,75781,1,0,0:0:0:0:
149,227,75885,1,8,0:0:0:0:
319,358,76092,2,0,L|313:272,1,61.0500018630982
407,102,76299,2,0,L|398:229,1,122.100003726196,8|0,0:3|0:0,0:0:0:0:
390,330,76712,1,8,0:0:0:0:
305,200,76919,2,0,P|273:199|244:209,1,61.0500018630982
102,295,77125,6,0,L|248:297,1,122.100003726196,0|0,1:0|0:0,0:0:0:0:
245,208,77540,1,8,0:0:0:0:
161,368,77747,1,0,0:0:0:0:
161,368,77850,1,0,0:0:0:0:
161,368,77954,1,8,0:3:0:0:
43,212,78161,2,0,L|121:217,1,61.0500018630982,2|0,0:0|0:0,0:0:0:0:
275,128,78368,2,0,P|206:132|166:177,1,122.100003726196,8|0,0:0|0:0,0:0:0:0:
139,77,78678,5,0,0:0:0:0:
139,77,78781,1,0,1:0:0:0:
371,49,78988,2,0,L|366:118,1,61.0500018630982
462,184,79195,2,0,L|327:197,1,122.100003726196,8|0,0:0|0:0,0:0:0:0:
257,263,79506,1,0,0:0:0:0:
257,263,79609,2,0,P|251:295|260:335,1,61.0500018630982,8|0,0:3|0:0,0:0:0:0:
236,165,79816,2,0,P|204:176|175:204,1,61.0500018630982
121,342,80023,2,0,B|114:265|114:265|95:231|95:231|89:152,1,183.150005589295,8|8,0:0|0:3,0:0:0:0:
33,97,80436,5,0,0:0:0:0:
193,28,80643,1,0,0:0:0:0:
201,63,80747,1,0,0:0:0:0:
197,99,80850,1,8,0:0:0:0:
33,97,81057,1,0,0:0:0:0:
33,97,81161,2,8,L|-5:100,2,30.5250009315491,8|8|8,0:3|0:3|0:3,0:3:0:0:
197,99,81471,2,0,L|273:92,1,61.0500018630982,8|0,0:3|0:0,0:0:0:0:
346,67,81678,6,0,L|341:135,1,49.949998475647,8|0,0:0|0:0,0:0:0:0:
280,227,81885,2,0,L|276:177,1,49.949998475647,2|0,0:0|0:0,0:0:0:0:
429,38,82092,6,0,L|417:170,1,99.8999969512941,0|0,1:0|0:0,0:0:0:0:
419,137,82506,1,2,0:0:0:0:
479,295,82919,6,0,P|453:285|427:289,1,49.949998475647,2|0,0:0|0:0,0:0:0:0:
358,326,83126,2,0,P|335:335|310:333,1,49.949998475647,2|0,0:0|0:0,0:0:0:0:
256,274,83333,1,2,0:0:0:0:
256,274,83540,1,2,0:0:0:0:
256,192,83747,12,0,85195,0:0:0:0:
