osu file format v14

[General]
AudioFilename: audio.mp3
AudioLeadIn: 0
PreviewTime: 65287
Countdown: 0
SampleSet: Normal
StackLeniency: 0.4
Mode: 1
LetterboxInBreaks: 0
WidescreenStoryboard: 1

[Editor]
Bookmarks: 16616,28101,68387
DistanceSpacing: 1.1
BeatDivisor: 4
GridSize: 4
TimelineZoom: 1.94

[Metadata]
Title:Brave Shine
TitleUnicode:Brave Shine
Artist:tomatomerde
ArtistUnicode:tomatomerde
Creator:kanpakyin
Version:Oni
Source:Fate/stay night [Unlimited Blade Works]
Tags:エメ 2nd second Season opening フェイト/ステイナイト Aimer drumstep dubstep Japanese anime drum and bass dnb electronic
BeatmapID:2707248
BeatmapSetID:1290952

[Difficulty]
HPDrainRate:6
CircleSize:4.2
OverallDifficulty:5
ApproachRate:5
SliderMultiplier:1.4
SliderTickRate:1

[Events]
//Background and Video events
0,0,"BG.jpg",0,-60
//Break Periods
//Storyboard Layer 0 (Background)
//Storyboard Layer 1 (Fail)
//Storyboard Layer 2 (Pass)
//Storyboard Layer 3 (Foreground)
//Storyboard Layer 4 (Overlay)
//Storyboard Sound Samples

[TimingPoints]
145,342.857142857143,4,1,1,45,1,0
5630,-100,4,1,1,65,0,0
28087,-100,4,1,1,60,0,0
38545,-100,4,1,1,65,0,0
50030,-100,4,1,1,55,0,0
59630,-100,4,1,1,65,0,0
63230,-100,4,1,1,75,0,0
65459,-100,4,1,1,70,0,0
65973,-100,4,1,1,80,0,1
87916,-100,4,1,1,70,0,0

[Colours]
Combo1 : 111,81,151
Combo2 : 236,40,74
Combo3 : 205,174,67
Combo4 : 112,154,114

[HitObjects]
377,104,145,5,0,0:0:0:0:
379,111,830,1,8,0:0:0:0:
351,113,1687,1,8,0:0:0:0:
351,113,2202,1,8,0:0:0:0:
335,134,2887,1,0,0:0:0:0:
335,134,3573,1,8,0:0:0:0:
326,141,4087,1,0,0:0:0:0:
326,141,4259,1,8,0:0:0:0:
326,146,5630,1,4,0:0:0:0:
326,146,6145,1,0,0:0:0:0:
326,146,6316,1,8,0:0:0:0:
335,146,6659,1,0,0:0:0:0:
332,152,6830,1,0,0:0:0:0:
331,157,7173,1,8,0:0:0:0:
331,157,7345,1,0,0:0:0:0:
331,157,7687,1,8,0:0:0:0:
333,161,8030,1,0,0:0:0:0:
333,161,8373,1,12,0:0:0:0:
333,161,8887,1,0,0:0:0:0:
333,161,9059,1,8,0:0:0:0:
333,161,9402,1,8,0:0:0:0:
333,161,9573,1,0,0:0:0:0:
333,161,9745,1,0,0:0:0:0:
333,161,10087,1,8,0:0:0:0:
333,161,10259,1,0,0:0:0:0:
333,161,10430,1,8,0:0:0:0:
337,176,10602,1,0,0:0:0:0:
308,162,10773,1,0,0:0:0:0:
315,164,10945,1,0,0:0:0:0:
404,160,11002,1,0,0:0:0:0:
313,163,11059,1,0,0:0:0:0:
313,163,11116,1,8,0:0:0:0:
312,166,11459,1,0,0:0:0:0:
312,172,11630,1,0,0:0:0:0:
312,172,11716,1,0,0:0:0:0:
313,166,11802,1,8,0:0:0:0:
323,164,11973,1,0,0:0:0:0:
310,171,12145,1,8,0:0:0:0:
310,171,12316,1,0,0:0:0:0:
310,171,12659,1,0,0:0:0:0:
312,172,12745,1,0,0:0:0:0:
310,171,12830,1,0,0:0:0:0:
300,179,13002,1,0,0:0:0:0:
310,171,13173,1,8,0:0:0:0:
310,171,13516,1,8,0:0:0:0:
310,171,13687,1,0,0:0:0:0:
310,171,13859,1,4,0:0:0:0:
310,171,14202,1,0,0:0:0:0:
310,171,14373,1,0,0:0:0:0:
310,171,14545,1,8,0:0:0:0:
310,171,14887,1,8,0:0:0:0:
310,171,15059,1,0,0:0:0:0:
310,171,15230,1,8,0:0:0:0:
310,171,15402,1,0,0:0:0:0:
299,157,15487,1,8,0:0:0:0:
310,171,15573,1,0,0:0:0:0:
314,174,15745,1,0,0:0:0:0:
314,174,15916,1,12,0:0:0:0:
314,174,16173,1,12,0:0:0:0:
314,175,16430,1,12,0:0:0:0:
293,155,16602,1,4,0:0:0:0:
299,156,16945,1,0,0:0:0:0:
301,170,17116,1,0,0:0:0:0:
301,170,17287,1,8,0:0:0:0:
310,179,17630,1,0,0:0:0:0:
310,179,17802,1,0,0:0:0:0:
291,152,17887,1,0,0:0:0:0:
310,179,17973,1,0,0:0:0:0:
310,179,18145,1,8,0:0:0:0:
310,179,18316,1,0,0:0:0:0:
310,179,18659,1,8,0:0:0:0:
291,152,18830,1,0,0:0:0:0:
292,183,19002,1,0,0:0:0:0:
302,181,19345,1,4,0:0:0:0:
297,164,19687,1,0,0:0:0:0:
297,164,19859,1,0,0:0:0:0:
297,164,20030,1,8,0:0:0:0:
297,164,20373,1,0,0:0:0:0:
333,170,20545,1,0,0:0:0:0:
297,164,20716,1,0,0:0:0:0:
297,164,20887,1,8,0:0:0:0:
294,154,21059,1,0,0:0:0:0:
294,152,21230,1,0,0:0:0:0:
300,149,21316,1,0,0:0:0:0:
294,152,21402,1,8,0:0:0:0:
300,150,21745,1,8,0:0:0:0:
289,147,21916,1,0,0:0:0:0:
290,147,22087,1,12,0:0:0:0:
304,145,22602,1,0,0:0:0:0:
304,145,22773,1,8,0:0:0:0:
300,145,23116,1,0,0:0:0:0:
297,145,23287,1,0,0:0:0:0:
297,145,23459,1,0,0:0:0:0:
297,145,23802,1,0,0:0:0:0:
300,145,23973,1,0,0:0:0:0:
300,145,24059,1,0,0:0:0:0:
300,145,24145,1,8,0:0:0:0:
299,138,24487,1,0,0:0:0:0:
372,137,24659,1,8,0:0:0:0:
299,138,24830,1,4,0:0:0:0:
299,138,25345,1,0,0:0:0:0:
299,138,25516,1,8,0:0:0:0:
300,149,25773,1,0,0:0:0:0:
304,143,26030,1,0,0:0:0:0:
304,142,26202,1,0,0:0:0:0:
302,145,26459,1,0,0:0:0:0:
300,149,26716,1,0,0:0:0:0:
310,152,26887,1,8,0:0:0:0:
312,146,26973,1,8,0:0:0:0:
312,146,27059,1,0,0:0:0:0:
312,146,27230,1,8,0:0:0:0:
312,146,27316,1,8,0:0:0:0:
312,146,27402,1,8,0:0:0:0:
312,146,27487,1,8,0:0:0:0:
312,146,27573,1,0,0:0:0:0:
311,137,28087,1,0,0:0:0:0:
311,137,28259,1,8,0:0:0:0:
316,129,28773,5,0,0:0:0:0:
308,125,29116,1,8,0:0:0:0:
308,125,29287,1,0,0:0:0:0:
316,129,29630,1,8,0:0:0:0:
313,124,29973,1,8,0:0:0:0:
326,121,30316,1,0,0:0:0:0:
309,115,30830,1,0,0:0:0:0:
309,115,31002,1,8,0:0:0:0:
312,126,31173,1,0,0:0:0:0:
312,125,31516,1,0,0:0:0:0:
311,125,31859,1,8,0:0:0:0:
311,125,32030,1,0,0:0:0:0:
312,125,32373,1,8,0:0:0:0:
317,113,32545,1,0,0:0:0:0:
314,112,32887,1,0,0:0:0:0:
308,110,33059,1,0,0:0:0:0:
316,113,33230,1,0,0:0:0:0:
319,113,33402,1,8,0:0:0:0:
309,110,33573,1,0,0:0:0:0:
314,112,33745,1,8,0:0:0:0:
316,113,34087,1,8,0:0:0:0:
316,113,34259,1,0,0:0:0:0:
314,112,34602,1,8,0:0:0:0:
316,113,34773,1,0,0:0:0:0:
316,113,35116,1,8,0:0:0:0:
314,112,35459,1,0,0:0:0:0:
314,112,35630,1,8,0:0:0:0:
316,113,35716,1,8,0:0:0:0:
316,113,35802,1,0,0:0:0:0:
308,109,36145,1,8,0:0:0:0:
314,112,36316,1,0,0:0:0:0:
314,112,36487,1,8,0:0:0:0:
321,112,37002,1,0,0:0:0:0:
314,112,37345,1,0,0:0:0:0:
314,112,37516,1,0,0:0:0:0:
316,113,37687,1,0,0:0:0:0:
343,86,37859,5,8,0:0:0:0:
343,86,38030,1,0,0:0:0:0:
343,86,38202,1,8,0:0:0:0:
343,86,38373,1,0,0:0:0:0:
343,86,38545,1,4,0:0:0:0:
343,98,39059,1,0,0:0:0:0:
343,98,39230,1,8,0:0:0:0:
343,98,39745,1,0,0:0:0:0:
347,91,40087,1,8,0:0:0:0:
349,93,40259,1,0,0:0:0:0:
348,86,40602,1,8,0:0:0:0:
352,89,40945,1,0,0:0:0:0:
349,93,41116,1,8,0:0:0:0:
347,85,41287,1,0,0:0:0:0:
348,86,41630,1,8,0:0:0:0:
339,85,41802,1,0,0:0:0:0:
342,86,41973,1,8,0:0:0:0:
340,80,42487,1,0,0:0:0:0:
339,85,42830,1,0,0:0:0:0:
344,73,43002,1,0,0:0:0:0:
340,72,43345,1,8,0:0:0:0:
329,72,43516,1,8,0:0:0:0:
338,77,43859,1,0,0:0:0:0:
333,77,44030,1,0,0:0:0:0:
347,69,44373,1,0,0:0:0:0:
344,66,44545,1,0,0:0:0:0:
344,68,44716,1,8,0:0:0:0:
350,76,45059,1,0,0:0:0:0:
350,76,45230,1,0,0:0:0:0:
350,76,45573,1,8,0:0:0:0:
361,77,45745,1,0,0:0:0:0:
361,77,46087,1,8,0:0:0:0:
357,80,46430,1,0,0:0:0:0:
357,80,46602,1,8,0:0:0:0:
368,93,46773,1,0,0:0:0:0:
364,88,47116,1,8,0:0:0:0:
363,86,47287,1,0,0:0:0:0:
363,86,47459,1,8,0:0:0:0:
349,91,47802,5,8,0:0:0:0:
349,91,47973,1,0,0:0:0:0:
329,85,48316,1,8,0:0:0:0:
330,80,48487,1,0,0:0:0:0:
323,94,48830,5,8,0:0:0:0:
323,94,49002,1,0,0:0:0:0:
323,94,49173,1,8,0:0:0:0:
323,94,49345,1,0,0:0:0:0:
323,94,49516,1,4,0:0:0:0:
343,94,50030,1,0,0:0:0:0:
343,94,50373,1,8,0:0:0:0:
337,98,50716,1,0,0:0:0:0:
337,98,50887,1,8,0:0:0:0:
352,102,51402,1,8,0:0:0:0:
352,102,51745,1,8,0:0:0:0:
352,102,52087,1,8,0:0:0:0:
352,102,52259,1,0,0:0:0:0:
352,102,52430,1,8,0:0:0:0:
352,102,52773,1,0,0:0:0:0:
353,107,52945,1,8,0:0:0:0:
352,102,53287,1,8,0:0:0:0:
352,102,53459,1,8,0:0:0:0:
352,102,53630,1,0,0:0:0:0:
365,112,53802,1,8,0:0:0:0:
365,112,54145,1,8,0:0:0:0:
365,112,54487,1,8,0:0:0:0:
365,112,54830,1,0,0:0:0:0:
365,112,55002,1,8,0:0:0:0:
383,107,55173,1,0,0:0:0:0:
383,107,55516,1,0,0:0:0:0:
395,98,55687,1,8,0:0:0:0:
383,107,55859,1,0,0:0:0:0:
383,107,56030,1,8,0:0:0:0:
383,107,56373,1,0,0:0:0:0:
383,107,56716,1,0,0:0:0:0:
377,101,56887,1,8,0:0:0:0:
377,101,57230,1,8,0:0:0:0:
379,97,57573,1,8,0:0:0:0:
379,97,57745,1,0,0:0:0:0:
377,101,58087,1,0,0:0:0:0:
377,101,58259,1,8,0:0:0:0:
379,97,58430,1,8,0:0:0:0:
379,97,58602,1,0,0:0:0:0:
368,97,58773,1,8,0:0:0:0:
377,101,59116,1,0,0:0:0:0:
373,85,59287,1,8,0:0:0:0:
379,97,59459,1,0,0:0:0:0:
364,94,59630,1,8,0:0:0:0:
377,113,59973,5,8,0:0:0:0:
377,113,60145,1,0,0:0:0:0:
377,113,60316,1,0,0:0:0:0:
377,113,60487,1,4,0:0:0:0:
371,103,60830,1,0,0:0:0:0:
378,118,61002,1,0,0:0:0:0:
371,103,61173,1,8,0:0:0:0:
372,107,61516,1,8,0:0:0:0:
371,103,61687,1,0,0:0:0:0:
371,103,62030,1,8,0:0:0:0:
363,109,62202,1,0,0:0:0:0:
384,124,62373,1,0,0:0:0:0:
363,109,62545,1,8,0:0:0:0:
378,118,62716,1,0,0:0:0:0:
379,131,62887,1,8,0:0:0:0:
391,137,63230,5,4,0:0:0:0:
391,137,63402,1,4,0:0:0:0:
392,125,65459,5,0,0:0:0:0:
392,125,65630,1,12,0:0:0:0:
392,125,65973,1,4,0:0:0:0:
392,125,66145,1,0,0:0:0:0:
397,125,66316,1,8,0:0:0:0:
392,125,66487,1,0,0:0:0:0:
392,125,66573,1,0,0:0:0:0:
392,125,66659,1,0,0:0:0:0:
399,129,66830,1,0,0:0:0:0:
400,130,67002,1,8,0:0:0:0:
402,132,67345,1,0,0:0:0:0:
400,133,67516,1,8,0:0:0:0:
400,133,67687,1,8,0:0:0:0:
401,134,67859,1,0,0:0:0:0:
402,135,67945,1,0,0:0:0:0:
402,135,68030,1,0,0:0:0:0:
402,135,68202,1,0,0:0:0:0:
405,138,68373,1,8,0:0:0:0:
405,139,68716,1,0,0:0:0:0:
406,140,68887,1,0,0:0:0:0:
406,141,69059,1,8,0:0:0:0:
409,144,69230,1,8,0:0:0:0:
411,146,69316,1,8,0:0:0:0:
410,145,69402,1,0,0:0:0:0:
406,150,69573,1,0,0:0:0:0:
406,148,69745,1,8,0:0:0:0:
408,151,69916,1,8,0:0:0:0:
407,150,70087,1,0,0:0:0:0:
407,154,70259,1,0,0:0:0:0:
406,148,70430,1,8,0:0:0:0:
406,149,70602,1,0,0:0:0:0:
406,149,70773,1,0,0:0:0:0:
408,156,70945,1,8,0:0:0:0:
389,164,71002,1,8,0:0:0:0:
388,164,71059,1,8,0:0:0:0:
389,164,71116,1,8,0:0:0:0:
391,167,71287,1,8,0:0:0:0:
402,171,71373,1,8,0:0:0:0:
401,170,71459,1,0,0:0:0:0:
406,149,71630,1,0,0:0:0:0:
406,149,71802,1,8,0:0:0:0:
405,138,71973,1,0,0:0:0:0:
405,138,72059,1,8,0:0:0:0:
405,138,72145,1,0,0:0:0:0:
405,138,72316,1,0,0:0:0:0:
406,139,72487,1,8,0:0:0:0:
406,139,72830,1,0,0:0:0:0:
405,138,73002,1,0,0:0:0:0:
405,138,73087,1,0,0:0:0:0:
405,138,73173,1,8,0:0:0:0:
406,139,73345,1,0,0:0:0:0:
406,139,73516,1,0,0:0:0:0:
406,139,73687,1,0,0:0:0:0:
406,139,73859,1,8,0:0:0:0:
405,138,74030,1,0,0:0:0:0:
405,138,74202,1,0,0:0:0:0:
406,139,74545,1,8,0:0:0:0:
406,139,74716,1,8,0:0:0:0:
405,138,74802,1,8,0:0:0:0:
406,139,74887,1,0,0:0:0:0:
433,162,75059,1,0,0:0:0:0:
429,158,75230,1,8,0:0:0:0:
413,147,75402,1,0,0:0:0:0:
429,158,75573,1,8,0:0:0:0:
429,158,75745,1,0,0:0:0:0:
429,158,75830,1,8,0:0:0:0:
411,174,75916,1,0,0:0:0:0:
426,149,76087,1,8,0:0:0:0:
435,119,76173,1,8,0:0:0:0:
427,150,76259,1,0,0:0:0:0:
429,158,76345,1,0,0:0:0:0:
429,152,76430,1,0,0:0:0:0:
429,158,76516,1,0,0:0:0:0:
429,152,76602,1,8,0:0:0:0:
427,151,76687,1,0,0:0:0:0:
429,158,76773,1,0,0:0:0:0:
430,154,76945,1,4,0:0:0:0:
429,158,77116,1,0,0:0:0:0:
430,155,77287,1,8,0:0:0:0:
442,147,77459,1,0,0:0:0:0:
442,145,77545,1,0,0:0:0:0:
425,157,77630,1,0,0:0:0:0:
442,145,77802,1,0,0:0:0:0:
425,157,77973,1,8,0:0:0:0:
430,155,78316,1,0,0:0:0:0:
425,157,78487,1,0,0:0:0:0:
429,152,78659,1,8,0:0:0:0:
429,152,78830,1,0,0:0:0:0:
432,158,79002,1,8,0:0:0:0:
429,158,79173,1,0,0:0:0:0:
430,160,79259,1,0,0:0:0:0:
430,155,79345,1,8,0:0:0:0:
433,159,79516,1,8,0:0:0:0:
433,159,79687,1,0,0:0:0:0:
432,158,80030,1,8,0:0:0:0:
429,158,80202,1,0,0:0:0:0:
433,159,80373,1,0,0:0:0:0:
433,159,80545,1,0,0:0:0:0:
432,158,80630,1,0,0:0:0:0:
433,159,80716,1,8,0:0:0:0:
432,158,80887,1,0,0:0:0:0:
432,158,81059,1,0,0:0:0:0:
433,159,81230,1,0,0:0:0:0:
433,159,81402,1,8,0:0:0:0:
433,159,81573,1,0,0:0:0:0:
425,161,81659,1,0,0:0:0:0:
433,159,81745,1,0,0:0:0:0:
432,158,81916,1,8,0:0:0:0:
432,158,82087,1,8,0:0:0:0:
433,159,82259,1,0,0:0:0:0:
433,159,82345,1,0,0:0:0:0:
433,159,82430,1,8,0:0:0:0:
433,159,82602,1,0,0:0:0:0:
433,159,82687,1,0,0:0:0:0:
433,159,82773,1,8,0:0:0:0:
438,159,82945,1,0,0:0:0:0:
435,162,83030,1,0,0:0:0:0:
435,162,83116,1,8,0:0:0:0:
433,159,83287,1,0,0:0:0:0:
433,159,83373,1,0,0:0:0:0:
433,159,83459,1,8,0:0:0:0:
435,162,83802,1,8,0:0:0:0:
435,162,83973,1,0,0:0:0:0:
404,174,84059,1,0,0:0:0:0:
435,162,84145,1,8,0:0:0:0:
424,172,84316,1,0,0:0:0:0:
423,172,84402,1,0,0:0:0:0:
424,173,84487,1,8,0:0:0:0:
426,174,84659,1,0,0:0:0:0:
435,163,84745,1,0,0:0:0:0:
426,174,84830,1,8,0:0:0:0:
435,162,84916,1,8,0:0:0:0:
426,174,85002,1,0,0:0:0:0:
426,174,85087,1,0,0:0:0:0:
426,174,85173,1,8,0:0:0:0:
424,172,85345,1,8,0:0:0:0:
424,173,85516,1,8,0:0:0:0:
426,174,85687,1,8,0:0:0:0:
426,174,85859,1,8,0:0:0:0:
426,174,86030,1,8,0:0:0:0:
426,174,86202,1,8,0:0:0:0:
424,172,86373,1,8,0:0:0:0:
428,175,86545,1,8,0:0:0:0:
426,174,86630,1,0,0:0:0:0:
426,174,86716,1,0,0:0:0:0:
429,177,86802,1,0,0:0:0:0:
429,177,86887,1,8,0:0:0:0:
429,177,86973,1,0,0:0:0:0:
430,177,87059,1,0,0:0:0:0:
430,178,87145,1,0,0:0:0:0:
430,179,87230,1,8,0:0:0:0:
430,178,87402,1,0,0:0:0:0:
428,175,87487,1,0,0:0:0:0:
428,175,87573,1,8,0:0:0:0:
440,177,87745,1,8,0:0:0:0:
429,177,87916,1,4,0:0:0:0:
430,179,88259,1,8,0:0:0:0:
428,175,88602,1,0,0:0:0:0:
429,177,88773,1,0,0:0:0:0:
429,177,88945,1,12,0:0:0:0:
434,181,89287,1,0,0:0:0:0:
434,181,89459,1,0,0:0:0:0:
420,175,89545,1,0,0:0:0:0:
434,182,89630,1,8,0:0:0:0:
434,182,89802,1,0,0:0:0:0:
434,182,89973,1,0,0:0:0:0:
434,182,90145,1,0,0:0:0:0:
420,173,90230,1,0,0:0:0:0:
434,181,90316,1,8,0:0:0:0:
434,182,90659,1,0,0:0:0:0:
434,182,90830,1,0,0:0:0:0:
415,190,91002,1,8,0:0:0:0:
414,189,91173,1,0,0:0:0:0:
394,182,91259,1,0,0:0:0:0:
434,181,91345,1,0,0:0:0:0:
434,181,91516,1,0,0:0:0:0:
434,182,91687,1,8,0:0:0:0:
434,182,92030,1,0,0:0:0:0:
414,189,92202,1,0,0:0:0:0:
414,189,92287,1,0,0:0:0:0:
414,189,92373,1,8,0:0:0:0:
412,186,92545,1,0,0:0:0:0:
404,192,92716,1,0,0:0:0:0:
412,186,92887,1,0,0:0:0:0:
403,192,93059,1,8,0:0:0:0:
403,192,93230,1,0,0:0:0:0:
403,192,93287,1,8,0:0:0:0:
396,190,93345,1,8,0:0:0:0:
403,192,93402,1,8,0:0:0:0:
404,192,93745,1,12,0:0:0:0:
411,201,94087,1,0,0:0:0:0:
411,201,94430,1,12,0:0:0:0:
411,201,94773,1,0,0:0:0:0:
411,201,95116,1,12,0:0:0:0:
411,201,95459,1,0,0:0:0:0:
411,201,95630,1,0,0:0:0:0:
411,201,95802,1,12,0:0:0:0:
411,201,96145,1,0,0:0:0:0:
408,195,96316,1,0,0:0:0:0:
408,195,96487,1,12,0:0:0:0:
406,195,96830,1,0,0:0:0:0:
408,195,97002,1,0,0:0:0:0:
408,195,97173,1,12,0:0:0:0:
408,195,97345,1,8,0:0:0:0:
408,195,97516,1,4,0:0:0:0:
400,180,98373,1,0,0:0:0:0:
400,180,98545,1,12,0:0:0:0:
397,175,98887,1,4,0:0:0:0:
