osu file format v14

[General]
AudioFilename: audio.mp3
AudioLeadIn: 0
PreviewTime: 65287
Countdown: 0
SampleSet: Normal
StackLeniency: 0.4
Mode: 1
LetterboxInBreaks: 0
WidescreenStoryboard: 1

[Editor]
Bookmarks: 16616,28101
DistanceSpacing: 1.1
BeatDivisor: 4
GridSize: 4
TimelineZoom: 1.44

[Metadata]
Title:Brave Shine
TitleUnicode:Brave Shine
Artist:tomatomerde
ArtistUnicode:tomatomerde
Creator:kanpakyin
Version:Kantan
Source:Fate/stay night [Unlimited Blade Works]
Tags:エメ 2nd second Season opening フェイト/ステイナイト Aimer drumstep dubstep Japanese anime drum and bass dnb electronic
BeatmapID:2707507
BeatmapSetID:1290952

[Difficulty]
HPDrainRate:8
CircleSize:4.2
OverallDifficulty:3
ApproachRate:5
SliderMultiplier:1.4
SliderTickRate:1

[Events]
//Background and Video events
0,0,"BG.jpg",0,-60
//Break Periods
//Storyboard Layer 0 (Background)
//Storyboard Layer 1 (Fail)
//Storyboard Layer 2 (Pass)
//Storyboard Layer 3 (Foreground)
//Storyboard Layer 4 (Overlay)
//Storyboard Sound Samples

[TimingPoints]
145,342.857142857143,4,1,1,45,1,0
5630,-100,4,1,1,65,0,0
28087,-100,4,1,1,60,0,0
38545,-100,4,1,1,65,0,0
50030,-100,4,1,1,55,0,0
59630,-100,4,1,1,65,0,0
63230,-100,4,1,1,75,0,0
65459,-100,4,1,1,70,0,0
65973,-100,4,1,1,80,0,1
87916,-100,4,1,1,70,0,0

[Colours]
Combo1 : 111,81,151
Combo2 : 236,40,74
Combo3 : 205,174,67
Combo4 : 112,154,114

[HitObjects]
377,104,145,5,0,0:0:0:0:
379,111,830,1,8,0:0:0:0:
351,113,1687,1,8,0:0:0:0:
351,113,2202,1,8,0:0:0:0:
335,134,2887,1,0,0:0:0:0:
335,134,3573,1,8,0:0:0:0:
326,141,4259,1,8,0:0:0:0:
326,146,5630,1,4,0:0:0:0:
326,146,6316,1,8,0:0:0:0:
332,152,6830,1,0,0:0:0:0:
331,157,7345,1,0,0:0:0:0:
331,157,7687,1,8,0:0:0:0:
333,161,8373,1,12,0:0:0:0:
333,161,9059,1,8,0:0:0:0:
333,161,9573,1,0,0:0:0:0:
333,161,10087,1,8,0:0:0:0:
333,161,10430,1,8,0:0:0:0:
313,163,11116,1,12,0:0:0:0:
313,166,11802,1,8,0:0:0:0:
310,171,12830,1,0,0:0:0:0:
310,171,13173,1,8,0:0:0:0:
310,171,13859,1,4,0:0:0:0:
307,154,14545,1,8,0:0:0:0:
300,167,15059,1,0,0:0:0:0:
310,171,15573,1,0,0:0:0:0:
314,174,15916,1,12,0:0:0:0:
297,171,16602,1,4,0:0:0:0:
301,170,17287,1,8,0:0:0:0:
310,179,17802,1,0,0:0:0:0:
310,179,18316,1,0,0:0:0:0:
310,179,18659,1,8,0:0:0:0:
302,181,19345,1,4,0:0:0:0:
297,164,20030,1,8,0:0:0:0:
297,164,20545,1,0,0:0:0:0:
297,164,21059,1,0,0:0:0:0:
294,152,21402,1,8,0:0:0:0:
290,147,22087,1,12,0:0:0:0:
304,145,22773,1,8,0:0:0:0:
297,145,23802,1,0,0:0:0:0:
300,145,24145,1,8,0:0:0:0:
299,138,24830,1,4,0:0:0:0:
299,138,25516,1,8,0:0:0:0:
300,149,26887,1,8,0:0:0:0:
316,139,27230,1,8,0:0:0:0:
312,146,27573,1,4,0:0:0:0:
311,137,28259,1,8,0:0:0:0:
316,129,28773,5,0,0:0:0:0:
308,125,29287,1,0,0:0:0:0:
316,129,29630,1,8,0:0:0:0:
326,121,30316,1,0,0:0:0:0:
309,115,31002,1,8,0:0:0:0:
312,125,31516,1,0,0:0:0:0:
311,125,32030,1,0,0:0:0:0:
312,125,32373,1,8,0:0:0:0:
308,110,33059,1,0,0:0:0:0:
319,113,33402,1,8,0:0:0:0:
314,112,33745,1,8,0:0:0:0:
316,113,34773,1,0,0:0:0:0:
316,113,35116,1,8,0:0:0:0:
316,113,35802,1,0,0:0:0:0:
314,112,36487,1,8,0:0:0:0:
321,112,37002,1,0,0:0:0:0:
314,112,37516,1,0,0:0:0:0:
343,86,37859,5,8,0:0:0:0:
340,91,38202,1,8,0:0:0:0:
343,86,38545,1,4,0:0:0:0:
343,98,39230,1,8,0:0:0:0:
349,93,40259,1,0,0:0:0:0:
348,86,40602,1,8,0:0:0:0:
347,85,41287,1,0,0:0:0:0:
339,85,41973,1,8,0:0:0:0:
340,80,42487,1,0,0:0:0:0:
339,85,43002,1,0,0:0:0:0:
340,72,43345,1,8,0:0:0:0:
333,77,44030,1,0,0:0:0:0:
347,69,44373,1,0,0:0:0:0:
344,68,44716,1,8,0:0:0:0:
350,76,45230,1,0,0:0:0:0:
361,77,45745,1,0,0:0:0:0:
361,77,46087,1,8,0:0:0:0:
368,93,46773,1,0,0:0:0:0:
363,86,47459,1,8,0:0:0:0:
330,80,48487,1,0,0:0:0:0:
323,94,48830,5,8,0:0:0:0:
323,94,49173,1,8,0:0:0:0:
323,94,49516,1,4,0:0:0:0:
343,94,50373,1,8,0:0:0:0:
337,98,50716,1,8,0:0:0:0:
352,102,51402,1,8,0:0:0:0:
352,102,51745,1,8,0:0:0:0:
352,102,52259,1,0,0:0:0:0:
353,107,52945,1,8,0:0:0:0:
352,102,53630,1,0,0:0:0:0:
365,112,55002,1,8,0:0:0:0:
395,98,55687,1,8,0:0:0:0:
383,107,56030,1,8,0:0:0:0:
383,107,56373,1,0,0:0:0:0:
379,97,57745,1,0,0:0:0:0:
368,97,58773,1,8,0:0:0:0:
377,113,60145,5,0,0:0:0:0:
377,113,60487,1,4,0:0:0:0:
371,103,60830,1,0,0:0:0:0:
371,103,61173,1,8,0:0:0:0:
371,103,61687,1,0,0:0:0:0:
363,109,62202,1,0,0:0:0:0:
363,109,62545,1,8,0:0:0:0:
391,137,63230,5,0,0:0:0:0:
391,137,63402,1,0,0:0:0:0:
392,125,65630,1,8,0:0:0:0:
392,125,65973,1,4,0:0:0:0:
397,125,66316,1,8,0:0:0:0:
400,130,67002,1,8,0:0:0:0:
400,133,67687,1,8,0:0:0:0:
402,135,68030,1,0,0:0:0:0:
405,138,68373,1,8,0:0:0:0:
406,148,69059,1,8,0:0:0:0:
384,131,69402,1,8,0:0:0:0:
405,139,69745,1,8,0:0:0:0:
406,148,70430,1,8,0:0:0:0:
401,170,71459,1,0,0:0:0:0:
406,139,71802,1,8,0:0:0:0:
395,136,72487,1,8,0:0:0:0:
397,123,73173,1,8,0:0:0:0:
405,138,73516,1,0,0:0:0:0:
406,139,73859,1,8,0:0:0:0:
402,145,74202,1,0,0:0:0:0:
401,143,74545,1,0,0:0:0:0:
429,158,75230,1,8,0:0:0:0:
429,158,75573,1,8,0:0:0:0:
429,169,76602,1,0,0:0:0:0:
430,154,76945,1,4,0:0:0:0:
428,132,77287,1,8,0:0:0:0:
425,157,77973,1,8,0:0:0:0:
429,152,78659,1,8,0:0:0:0:
432,158,79002,1,8,0:0:0:0:
430,155,79345,1,8,0:0:0:0:
433,159,79687,1,0,0:0:0:0:
433,132,80716,1,8,0:0:0:0:
433,159,81402,1,8,0:0:0:0:
433,159,81745,1,0,0:0:0:0:
432,158,82087,1,8,0:0:0:0:
433,159,82430,1,4,0:0:0:0:
441,164,83116,1,0,0:0:0:0:
424,145,83802,1,0,0:0:0:0:
413,129,84487,1,0,0:0:0:0:
439,161,85173,1,8,0:0:0:0:
426,174,85516,1,8,0:0:0:0:
439,161,85859,1,8,0:0:0:0:
428,175,86202,1,8,0:0:0:0:
438,161,86545,1,8,0:0:0:0:
428,175,87573,1,8,0:0:0:0:
429,177,87916,1,4,0:0:0:0:
430,179,88259,1,8,0:0:0:0:
429,177,88945,1,12,0:0:0:0:
434,182,89630,1,8,0:0:0:0:
434,182,89973,1,0,0:0:0:0:
434,181,90316,1,8,0:0:0:0:
434,182,90659,1,0,0:0:0:0:
415,190,91002,1,8,0:0:0:0:
434,182,91687,1,8,0:0:0:0:
414,189,92716,1,0,0:0:0:0:
404,192,93059,1,8,0:0:0:0:
403,192,93402,1,4,0:0:0:0:
403,192,93745,1,12,0:0:0:0:
411,201,94430,1,12,0:0:0:0:
411,201,95116,1,12,0:0:0:0:
411,201,95802,1,12,0:0:0:0:
416,203,96145,1,0,0:0:0:0:
408,195,96487,1,12,0:0:0:0:
406,195,96830,1,0,0:0:0:0:
408,195,97173,1,12,0:0:0:0:
408,195,97516,1,0,0:0:0:0:
400,180,98545,1,12,0:0:0:0:
397,175,98887,1,4,0:0:0:0:
