osu file format v14

[General]
AudioFilename: audio.mp3
AudioLeadIn: 0
PreviewTime: 65291
Countdown: 0
SampleSet: Soft
StackLeniency: 0.5
Mode: 0
LetterboxInBreaks: 0
WidescreenStoryboard: 1

[Editor]
Bookmarks: 5634,27577,38548,49520,60491,63234,65977,82434,87920,97520,98891
DistanceSpacing: 0.5
BeatDivisor: 4
GridSize: 4
TimelineZoom: 2.299999

[Metadata]
Title:Brave Shine
TitleUnicode:Brave Shine
Artist:tomatomerde
ArtistUnicode:tomatomerde
Creator:Mir
Version:Light Insane
Source:Fate/stay night [Unlimited Blade Works]
Tags:tomato french fate stay night anime remix エメ 2nd second Season opening フェイト/ステイナイト Aimer drum and bass dnb shawn
BeatmapID:1250898
BeatmapSetID:590782

[Difficulty]
HPDrainRate:5
CircleSize:4
OverallDifficulty:7.3
ApproachRate:8.8
SliderMultiplier:1.4
SliderTickRate:1

[Events]
//Background and Video events
0,0,"sabre.jpg",0,0
//Break Periods
//Storyboard Layer 0 (Background)
//Storyboard Layer 1 (Fail)
//Storyboard Layer 2 (Pass)
//Storyboard Layer 3 (Foreground)
//Storyboard Sound Samples

[TimingPoints]
149,342.857142857143,4,2,1,50,1,0
27577,-133.333333333333,4,2,1,50,0,0
27749,-133.333333333333,4,2,1,30,0,0
49520,-200.0,4,2,1,30,0,0
60491,-133.333333333333,4,2,1,30,0,0
65977,-83.3333333333333,4,2,1,50,0,1
87834,-83.3333333333333,4,2,1,50,0,0
87920,-83.3333333333333,4,2,1,50,0,1
97520,-100.0,4,2,1,50,0,0
97863,-100.0,4,2,1,25,0,0
98291,-100.0,4,2,1,50,0,0
98549,-100.0,4,2,1,100,0,0

[Colours]
Combo1 : 65,82,237
Combo2 : 83,242,255
Combo3 : 252,165,245
Combo4 : 196,90,218

[HitObjects]
91,77,5634,6,0,P|159:76|210:128,1,140,6|0,3:2|0:2,0:0:0:0:
122,163,6149,1,2,3:2:0:0:
71,229,6320,2,0,L|75:371,1,140,8|2,0:2|0:2,0:0:0:0:
175,301,6834,2,0,P|214:279|325:305,1,140,0|10,3:2|0:2,0:0:0:0:
385,371,7349,2,0,L|237:377,2,140,0|8|0,3:2|0:2|0:2,0:0:0:0:
483,137,8377,6,0,P|459:76|364:43,1,140,6|0,3:2|0:2,0:0:0:0:
294,45,8891,1,2,3:2:0:0:
227,137,9063,2,0,L|378:137,1,140,8|0,0:2|0:2,0:0:0:0:
199,48,9577,2,0,P|163:62|137:172,1,140,0|8,3:2|0:2,0:0:0:0:
266,220,10091,2,0,B|252:272|252:272|268:310|268:310|259:369,2,140,0|10|0,3:2|0:2|0:2,0:0:0:0:
225,131,10949,1,0,3:2:0:0:
242,130,11034,1,0,3:2:0:0:
259,131,11120,6,0,L|425:132,1,140,6|0,3:2|0:2,0:0:0:0:
464,188,11634,1,2,3:2:0:0:
411,255,11806,2,0,P|378:174|422:115,1,140,8|2,0:2|0:2,0:0:0:0:
490,338,12320,2,0,L|328:339,1,140,0|10,3:2|0:2,0:0:0:0:
260,257,12834,2,0,P|239:305|288:402,2,140,0|8|2,3:2|0:2|0:0,0:0:0:0:
313,195,13691,1,2,0:0:0:0:
329,58,13863,6,0,L|162:56,1,140,6|0,3:2|0:2,0:0:0:0:
123,128,14377,1,2,3:2:0:0:
159,262,14549,2,0,P|211:217|221:150,1,140,8|0,0:2|0:2,0:0:0:0:
74,233,15063,2,0,P|76:295|132:344,1,140,2|8,3:2|0:2,0:0:0:0:
228,263,15577,2,0,L|126:261,1,70,2|0,3:2|0:2,0:0:0:0:
283,332,15920,2,0,P|316:299|322:259,1,70,8|2,0:2|0:2,0:0:0:0:
332,263,16177,2,0,L|218:262,1,105,0|0,3:2|3:2,0:0:0:0:
266,168,16606,6,0,L|425:170,1,140,6|0,3:2|0:2,0:0:0:0:
415,260,17120,1,2,3:2:0:0:
497,131,17291,2,0,P|470:93|358:85,1,140,8|2,0:2|0:2,0:0:0:0:
322,221,17806,2,0,B|276:225|276:225|234:215|234:215|183:219,1,140,0|10,3:2|0:2,0:0:0:0:
405,169,18320,2,0,P|418:236|385:296,2,140,0|8|0,3:2|0:2|0:2,0:0:0:0:
140,333,19349,6,0,B|133:283|133:283|150:252|150:252|145:185,1,140,6|0,3:2|0:2,0:0:0:0:
62,230,19863,1,2,3:2:0:0:
227,301,20034,2,0,L|372:309,1,140,8|0,0:2|0:2,0:0:0:0:
308,229,20549,2,0,P|281:167|314:97,1,140,0|8,3:2|0:2,0:0:0:0:
368,166,21063,2,0,L|508:170,2,140,0|10|0,3:2|0:2|0:2,0:0:0:0:
308,229,21920,1,0,3:2:0:0:
190,146,22091,6,0,P|143:195|146:264,1,140,6|0,3:2|0:2,0:0:0:0:
231,230,22606,1,2,3:2:0:0:
172,348,22777,2,0,P|113:349|60:274,1,140,8|2,0:2|0:2,0:0:0:0:
231,230,23291,2,0,L|389:237,1,140,0|10,3:2|0:2,0:0:0:0:
444,81,23806,2,0,P|473:132|449:216,2,140,0|8|2,3:2|0:2|0:0,0:0:0:0:
387,149,24663,1,2,0:2:0:0:
255,59,24834,6,0,P|194:59|123:134,1,140,6|0,3:2|0:2,0:0:0:0:
140,245,25349,1,2,3:2:0:0:
226,160,25520,2,0,P|248:211|236:250,1,70,8|0,0:2|0:2,0:0:0:0:
245,246,25777,2,0,L|130:245,1,105,2|2,3:2|3:2,0:0:0:0:
52,258,26206,2,0,P|30:309|41:349,1,70,2|8,3:2|0:2,0:0:0:0:
37,338,26463,2,0,L|152:337,1,105,2|2,3:2|3:2,0:0:0:0:
303,299,26891,1,10,0:2:0:0:
222,318,27063,1,0,3:2:0:0:
244,236,27234,1,2,3:2:0:0:
162,257,27406,1,2,3:2:0:0:
324,209,27577,6,0,P|333:166|309:114,2,52.5000020027161,6|2|0,3:2|0:2|0:0,0:0:0:0:
230,144,28091,2,0,P|231:97|244:75,1,52.5000020027161,0|8,0:0|0:2,0:0:0:0:
313,55,28434,2,0,L|389:55,1,52.5000020027161,2|0,0:2|0:2,0:0:0:0:
502,163,28777,2,0,L|381:157,1,105.000004005432,2|10,3:2|0:2,0:0:0:0:
437,249,29291,2,0,P|456:299|434:358,2,105.000004005432,2|8|2,3:2|0:2|0:2,0:0:0:0:
397,157,30149,1,0,0:2:0:0:
356,297,30320,5,2,3:2:0:0:
258,330,30491,2,0,L|194:325,1,52.5000020027161,2|0,0:2|0:2,0:0:0:0:
87,267,30834,2,0,L|151:262,1,52.5000020027161,2|8,3:2|0:2,0:0:0:0:
204,198,31177,2,0,P|201:163|177:130,1,52.5000020027161,2|0,0:2|0:2,0:0:0:0:
105,100,31520,2,0,P|158:56|198:52,1,105.000004005432,2|10,3:2|0:2,0:0:0:0:
273,104,32034,1,0,3:2:0:0:
273,104,32377,1,8,0:2:0:0:
391,106,32549,2,0,L|273:99,1,105.000004005432,2|2,3:2|3:2,0:0:0:0:
192,154,33063,6,0,L|190:226,2,52.5000020027161,2|2|2,3:2|0:2|0:2,0:0:0:0:
192,52,33577,1,0,3:2:0:0:
90,97,33749,2,0,P|72:147|102:205,1,105.000004005432,8|2,0:2|0:2,0:0:0:0:
248,254,34263,2,0,L|122:258,1,105.000004005432,2|8,3:2|0:2,0:0:0:0:
55,281,34777,2,0,L|51:340,1,52.5000020027161,2|0,3:2|0:2,0:0:0:0:
148,356,35120,1,8,0:2:0:0:
148,356,35463,1,2,0:2:0:0:
236,310,35634,1,2,3:2:0:0:
248,307,35720,1,0,0:0:0:0:
261,306,35806,6,0,P|302:310|325:319,1,52.5000020027161,0|0,3:2|0:2,0:0:0:0:
431,361,36149,2,0,P|390:365|367:374,1,52.5000020027161,2|0,0:2|3:2,0:0:0:0:
388,287,36491,1,8,0:2:0:0:
396,272,37006,1,0,3:2:0:0:
396,182,37177,5,2,0:2:0:0:
316,215,37349,1,8,0:2:0:0:
324,129,37520,1,0,3:2:0:0:
396,182,37691,1,0,0:2:0:0:
240,167,37863,2,0,P|229:197|234:226,1,52.5000020027161,10|0,0:2|3:2,0:0:0:0:
324,129,38206,2,0,P|325:102|314:78,1,52.5000020027161,10|2,0:2|3:2,0:0:0:0:
167,29,38549,6,0,P|127:38|102:59,2,52.5000020027161,6|2|0,3:2|0:2|0:2,0:0:0:0:
166,117,39063,2,0,L|154:188,1,52.5000020027161,2|8,3:2|0:2,0:0:0:0:
80,232,39406,2,0,L|71:180,1,52.5000020027161,2|0,0:2|0:2,0:0:0:0:
161,276,39749,2,0,P|129:312|59:323,1,105.000004005432,2|10,3:2|0:2,0:0:0:0:
178,382,40263,2,0,L|250:379,1,52.5000020027161,2|0,3:2|0:0,0:0:0:0:
294,315,40606,1,8,0:2:0:0:
294,315,40949,1,2,0:2:0:0:
194,284,41120,1,2,3:2:0:0:
251,204,41291,6,0,L|323:210,2,52.5000020027161,2|2|2,3:2|0:2|0:2,0:0:0:0:
160,194,41806,2,0,P|169:163|192:133,1,52.5000020027161,2|8,3:2|0:2,0:0:0:0:
241,64,42149,2,0,P|254:86|260:111,1,52.5000020027161,2|0,0:2|0:2,0:0:0:0:
147,62,42491,2,0,L|77:63,1,52.5000020027161,2|0,3:2|0:0,0:0:0:0:
24,131,42834,1,10,0:2:0:0:
74,253,43006,2,0,L|73:187,1,52.5000020027161,0|2,3:2|0:2,0:0:0:0:
6,326,43349,1,8,0:2:0:0:
101,345,43520,2,0,L|209:338,1,105.000004005432,2|2,3:2|3:2,0:0:0:0:
369,319,44034,6,0,P|380:295|383:269,2,52.5000020027161,2|2|2,3:2|0:2|0:2,0:0:0:0:
285,329,44549,1,0,3:2:0:0:
236,258,44720,2,0,P|208:243|178:244,1,52.5000020027161,8|0,0:2|0:0,0:0:0:0:
112,197,45063,1,2,0:2:0:0:
128,113,45234,2,0,L|133:5,1,105.000004005432,2|8,3:2|0:2,0:0:0:0:
231,74,45749,2,0,P|277:75|301:64,1,52.5000020027161,2|0,3:2|0:2,0:0:0:0:
361,24,46091,1,8,0:2:0:0:
361,24,46434,1,2,0:2:0:0:
463,42,46606,1,2,0:2:0:0:
472,51,46691,1,0,0:0:0:0:
475,63,46777,6,0,P|455:125|478:174,1,105.000004005432,0|2,3:2|0:2,0:0:0:0:
509,251,47291,2,0,L|441:248,1,52.5000020027161,2|8,3:2|0:2,0:0:0:0:
332,310,47634,2,0,L|400:307,1,52.5000020027161,2|0,0:2|0:2,0:0:0:0:
289,230,47977,2,0,P|257:252|238:323,1,105.000004005432,2|8,3:2|0:2,0:0:0:0:
332,310,48491,1,2,3:2:0:0:
332,310,48834,5,8,0:2:0:0:
289,230,49006,1,2,3:2:0:0:
415,267,49177,1,8,0:2:0:0:
332,310,49349,1,0,3:2:0:0:
370,187,49520,6,0,L|375:144,1,35,6|0,3:2|0:2,0:0:0:0:
298,119,49863,2,0,L|293:76,1,35,0|2,0:2|0:2,0:0:0:0:
356,26,50206,1,0,0:2:0:0:
356,26,50549,2,0,P|386:26|394:29,2,35,2|2|2,0:2|0:2|0:2,0:0:0:0:
213,35,51063,2,0,L|132:38,1,70,2|2,0:2|0:2,0:0:0:0:
271,126,51749,1,2,0:2:0:0:
84,112,52091,1,2,0:2:0:0:
80,203,52263,6,0,L|76:242,2,35,0|2|0,0:2|0:2|0:0,0:0:0:0:
169,156,52777,1,2,0:2:0:0:
209,250,52949,1,2,0:2:0:0:
209,250,53291,2,0,L|243:246,1,35,2|2,0:2|0:2,0:0:0:0:
332,253,53634,2,0,P|330:224|324:212,2,35,2|2|2,0:2|0:2|0:2,0:0:0:0:
347,343,54149,2,0,L|389:347,1,35,2|0,0:2|0:2,0:0:0:0:
462,315,54491,2,0,L|543:314,1,70,2|0,0:2|0:2,0:0:0:0:
420,204,55006,6,0,L|424:166,1,35,2|0,0:2|0:2,0:0:0:0:
512,136,55349,2,0,L|508:98,1,35,0|2,0:2|0:2,0:0:0:0:
450,32,55691,1,0,0:2:0:0:
450,32,56034,2,0,L|373:34,1,70,2|2,0:2|0:2,0:0:0:0:
227,58,56720,1,2,0:2:0:0:
276,138,56891,2,0,P|276:165|268:185,1,35,2|0,0:2|0:2,0:0:0:0:
178,226,57234,2,0,P|174:208|195:156,1,70,2|0,0:2|0:2,0:0:0:0:
264,275,57749,6,0,L|258:359,1,70,2|2,0:2|0:2,0:0:0:0:
111,330,58263,2,0,P|133:315|183:310,1,70,2|2,0:2|0:2,0:0:0:0:
259,344,58777,2,0,P|279:358|332:357,2,70,2|0|2,0:2|0:2|0:2,0:0:0:0:
346,229,59977,5,8,0:2:0:0:
388,147,60149,1,2,0:2:0:0:
444,223,60320,1,2,0:2:0:0:
256,197,60491,6,0,L|182:203,1,52.5000020027161,2|0,3:2|0:2,0:0:0:0:
300,108,60834,2,0,L|374:114,1,52.5000020027161,2|2,3:2|0:2,0:0:0:0:
248,31,61177,2,0,P|217:24|141:64,1,105.000004005432,8|2,0:2|3:2,0:0:0:0:
215,112,61691,1,2,3:2:0:0:
215,112,62034,1,8,0:2:0:0:
126,134,62206,2,0,P|116:182|125:206,1,52.5000020027161,2|0,3:2|0:2,0:0:0:0:
162,253,62549,1,8,0:2:0:0:
162,253,62891,1,2,0:2:0:0:
77,266,63063,1,2,3:2:0:0:
246,236,63234,5,2,3:2:0:0:
32,342,63406,1,2,3:2:0:0:
132,338,65463,5,2,3:2:0:0:
119,152,65634,1,10,0:2:0:0:
119,152,65977,6,0,L|292:161,1,167.999994873047,6|10,3:2|0:2,0:0:0:0:
266,254,66491,1,2,0:2:0:0:
373,225,66663,1,2,0:2:0:0:
345,325,66834,1,2,3:2:0:0:
286,160,67006,1,10,0:2:0:0:
407,129,67177,2,0,P|448:153|464:274,1,167.999994873047,2|0,0:2|3:2,0:0:0:0:
373,225,67691,1,10,0:2:0:0:
345,325,67863,1,2,0:2:0:0:
286,160,68034,2,0,P|288:114|315:77,2,83.9999974365235,2|2|10,0:2|3:2|0:2,0:0:0:0:
373,225,68549,1,2,0:2:0:0:
241,272,68720,6,0,L|139:263,1,83.9999974365235,2|0,3:2|0:2,0:0:0:0:
65,314,69063,1,10,0:2:0:0:
36,216,69234,2,0,P|23:176|25:134,1,83.9999974365235,2|2,0:2|0:2,0:0:0:0:
127,30,69577,2,0,P|129:71|116:111,1,83.9999974365235,2|10,3:2|0:2,0:0:0:0:
221,170,69920,2,0,B|271:160|271:160|333:179|333:179|402:171,1,167.999994873047,2|2,0:2|3:2,0:0:0:0:
343,83,70434,1,8,0:2:0:0:
189,86,70606,2,0,P|153:106|132:151,1,83.9999974365235,2|2,0:2|0:2,0:0:0:0:
221,170,70949,2,0,L|225:194,4,20.9999993591309,0|0|0|0|12,3:2|3:2|3:2|3:2|3:2,0:0:0:0:
221,170,71463,6,0,B|235:232|235:232|211:269|211:269|222:354,1,167.999994873047,6|10,3:2|0:2,0:0:0:0:
303,296,71977,1,2,0:2:0:0:
145,215,72149,1,2,0:2:0:0:
218,328,72320,1,2,3:2:0:0:
221,170,72491,1,10,0:2:0:0:
67,261,72663,2,0,P|55:189|146:123,1,167.999994873047,0|0,0:2|3:2,0:0:0:0:
145,215,73177,1,10,0:2:0:0:
67,261,73349,1,2,0:2:0:0:
117,126,73520,2,0,P|77:82|38:70,2,83.9999974365235,2|2|10,0:2|3:2|0:2,0:0:0:0:
27,170,74034,1,2,0:2:0:0:
173,60,74206,6,0,P|214:49|329:109,1,167.999994873047,2|10,3:2|0:2,0:0:0:0:
249,241,74720,2,0,L|252:153,1,83.9999974365235,2|2,0:2|0:2,0:0:0:0:
340,243,75063,2,0,L|342:326,2,83.9999974365235,2|10|2,3:2|0:2|3:2,0:0:0:0:
398,139,75577,2,0,P|453:133|492:94,1,83.9999974365235,8|2,0:2|3:2,0:0:0:0:
491,92,75834,2,0,L|486:204,1,83.9999974365235,8|0,0:2|3:2,0:0:0:0:
481,204,76091,1,10,3:2:0:0:
340,246,76263,5,0,3:2:0:0:
319,243,76349,1,0,3:2:0:0:
298,242,76434,1,2,3:2:0:0:
277,241,76520,1,0,3:2:0:0:
255,240,76606,2,0,L|196:237,3,41.9999987182618,8|0|2|0,3:2|3:2|3:2|3:2,0:0:0:0:
171,239,76949,6,0,B|116:233|116:233|62:248|62:248|2:235,1,167.999994873047,6|10,3:2|0:2,0:0:0:0:
65,152,77463,1,2,0:2:0:0:
121,322,77634,1,2,0:2:0:0:
6,236,77806,1,2,3:2:0:0:
147,319,77977,1,10,0:2:0:0:
169,141,78149,2,0,P|152:92|35:56,1,167.999994873047,2|0,0:2|3:2,0:0:0:0:
65,152,78663,1,10,0:2:0:0:
50,51,78834,1,2,0:2:0:0:
6,236,79006,2,0,L|4:337,2,83.9999974365235,2|2|10,0:2|3:2|0:2,0:0:0:0:
65,152,79520,1,2,0:2:0:0:
227,208,79691,6,0,P|254:144|247:114,1,83.9999974365235,2|0,3:2|0:2,0:0:0:0:
169,141,80034,1,10,0:2:0:0:
135,229,80206,2,0,L|124:321,1,83.9999974365235,2|2,0:2|0:2,0:0:0:0:
237,292,80549,2,0,L|227:208,1,83.9999974365235,2|10,3:2|0:2,0:0:0:0:
198,376,80891,2,0,P|258:382|325:291,1,167.999994873047,2|0,0:2|3:2,0:0:0:0:
237,292,81406,1,10,0:2:0:0:
346,228,81577,2,0,P|388:251|408:299,1,83.9999974365235,2|2,0:2|0:2,0:0:0:0:
449,365,81920,2,0,P|470:329|508:311,1,83.9999974365235,2|10,3:2|0:2,0:0:0:0:
491,235,82263,1,0,3:2:0:0:
484,214,82349,1,0,3:2:0:0:
467,201,82434,6,0,P|453:163|459:90,1,83.9999974365235,14|0,3:2|0:2,0:0:0:0:
472,29,82777,1,10,0:2:0:0:
354,72,82949,2,0,L|232:69,2,83.9999974365235,2|8|0,0:2|0:2|0:2,0:0:0:0:
439,107,83463,1,10,0:2:0:0:
286,161,83634,2,0,P|228:155|197:118,1,83.9999974365235,2|8,0:2|0:2,0:0:0:0:
106,25,83977,2,0,P|164:31|195:68,1,83.9999974365235,2|8,3:2|0:2,0:0:0:0:
115,198,84320,2,0,L|129:86,1,83.9999974365235,2|8,3:2|0:2,0:0:0:0:
209,139,84663,1,0,3:2:0:0:
136,286,84834,1,8,0:2:0:0:
260,248,85006,1,0,3:2:0:0:
280,243,85091,1,0,3:2:0:0:
301,244,85177,5,14,3:2:0:0:
209,139,85349,1,8,3:2:0:0:
326,248,85520,1,10,3:2:0:0:
290,82,85691,1,10,3:2:0:0:
344,259,85863,1,8,3:2:0:0:
388,112,86034,1,10,3:2:0:0:
356,275,86206,1,8,3:2:0:0:
451,194,86377,1,10,3:2:0:0:
293,344,86549,6,0,L|235:342,3,41.9999987182618,10|0|0|0,0:2|3:2|3:2|3:2,0:0:0:0:
213,271,86891,2,0,L|171:272,3,41.9999987182618,10|0|0|0,0:2|3:2|3:0|3:0,0:0:0:0:
82,320,87234,1,10,0:2:0:0:
69,280,87319,1,0,3:2:0:0:
74,238,87405,1,0,3:2:0:0:
95,203,87491,1,0,3:2:0:0:
129,180,87577,6,0,P|178:150|175:51,1,125.999996154785,14|0,3:2|0:0,0:0:0:0:
176,47,87920,6,0,P|218:90|330:66,1,167.999994873047,6|10,3:2|0:2,0:0:0:0:
258,15,88434,1,2,0:2:0:0:
364,149,88606,1,2,0:2:0:0:
394,25,88777,1,2,3:2:0:0:
462,163,88949,6,0,B|443:344|443:344|437:308|401:261,1,251.999992309571,14|0,0:2|3:2,0:0:0:0:
343,348,89634,1,10,0:2:0:0:
296,212,89806,1,2,0:2:0:0:
311,342,89977,1,2,0:2:0:0:
204,228,90149,1,2,3:2:0:0:
283,341,90320,1,10,0:2:0:0:
127,297,90491,1,2,0:2:0:0:
296,212,90663,6,0,B|302:151|302:151|283:114|283:114|291:30,1,167.999994873047,6|10,3:2|0:2,0:0:0:0:
198,76,91177,1,2,0:2:0:0:
369,94,91349,1,2,0:2:0:0:
219,0,91520,1,2,3:2:0:0:
433,33,91691,6,0,B|480:17|480:17|478:174|478:174|435:150,1,251.999992309571,14|0,0:2|3:2,0:0:0:0:
369,94,92377,1,10,0:2:0:0:
356,263,92549,1,2,0:2:0:0:
336,103,92720,1,2,0:0:0:0:
263,234,92891,1,2,0:0:0:0:
307,98,93063,1,10,0:2:0:0:
193,139,93234,1,0,3:2:0:0:
172,140,93320,1,0,3:2:0:0:
150,139,93406,6,0,L|42:144,1,83.9999974365235,6|2,3:2|0:2,0:0:0:0:
164,218,93749,2,0,L|272:223,1,83.9999974365235,8|2,3:2|0:2,0:0:0:0:
139,290,94091,2,0,L|31:295,1,83.9999974365235,0|2,3:2|0:2,0:0:0:0:
178,359,94434,6,0,B|301:358|301:358|245:336,1,167.999994873047,12|0,3:2|3:2,0:0:0:0:
243,255,94949,1,2,0:2:0:0:
353,287,95120,2,0,P|393:335|396:372,1,83.9999974365235,8|2,3:2|0:2,0:0:0:0:
331,199,95462,2,0,P|393:204|421:228,1,83.9999974365235,0|2,3:2|0:2,0:0:0:0:
252,148,95805,2,0,P|300:107|336:105,1,83.9999974365235,8|2,3:2|0:2,0:0:0:0:
408,92,96149,5,4,3:2:0:0:
351,16,96320,1,2,3:2:0:0:
319,104,96491,1,8,3:2:0:0:
439,1,96663,1,2,3:2:0:0:
259,31,96834,5,0,3:2:0:0:
408,92,97006,1,2,3:2:0:0:
227,115,97177,1,8,3:2:0:0:
351,16,97349,1,2,3:2:0:0:
279,192,97520,5,0,3:2:0:0:
279,192,97863,6,0,B|263:223|262:270|290:258|291:321|265:369,1,175,0|0,0:2|0:0,0:0:0:0:
261,378,98377,1,0,3:2:0:0:
357,229,98549,1,8,0:2:0:0:
366,218,98891,5,4,3:2:0:0:
