osu file format v14

[General]
AudioFilename: audio.mp3
AudioLeadIn: 0
PreviewTime: 65291
Countdown: 0
SampleSet: Soft
StackLeniency: 0.5
Mode: 0
LetterboxInBreaks: 0
WidescreenStoryboard: 1

[Editor]
Bookmarks: 5634,27577,38548,49520,60491,63234,65977,82434,87920,97520,98891
DistanceSpacing: 0.3
BeatDivisor: 4
GridSize: 4
TimelineZoom: 2.1

[Metadata]
Title:Brave Shine
TitleUnicode:Brave Shine
Artist:tomatomerde
ArtistUnicode:tomatomerde
Creator:Mir
Version:Insane
Source:Fate/stay night [Unlimited Blade Works]
Tags:tomato french fate stay night anime remix エメ 2nd second Season opening フェイト/ステイナイト Aimer drum and bass dnb shawn
BeatmapID:1250833
BeatmapSetID:590782

[Difficulty]
HPDrainRate:6
CircleSize:4
OverallDifficulty:8
ApproachRate:9
SliderMultiplier:1.6
SliderTickRate:1

[Events]
//Background and Video events
0,0,"sabre.jpg",0,0
//Break Periods
//Storyboard Layer 0 (Background)
//Storyboard Layer 1 (Fail)
//Storyboard Layer 2 (Pass)
//Storyboard Layer 3 (Foreground)
//Storyboard Sound Samples

[TimingPoints]
149,342.857142857143,4,2,1,50,1,0
27749,-133.333333333333,4,2,1,30,0,0
49520,-200.0,4,2,1,30,0,0
60491,-133.333333333333,4,2,1,30,0,0
65977,-83.3333333333333,4,2,1,50,0,1
87834,-83.3333333333333,4,2,1,50,0,0
87920,-83.3333333333333,4,2,1,50,0,1
97520,-100.0,4,2,1,50,0,0
97863,-100.0,4,2,1,25,0,0
98291,-100.0,4,2,1,50,0,0
98549,-100.0,4,2,1,100,0,0

[Colours]
Combo1 : 65,82,237
Combo2 : 83,242,255
Combo3 : 252,165,245
Combo4 : 196,90,218

[HitObjects]
112,112,5634,6,0,L|280:120,1,160,6|0,3:2|0:2,0:0:0:0:
227,212,6149,1,2,3:2:0:0:
57,178,6320,2,0,P|25:126|29:94,1,80,8|0,0:2|0:2,0:0:0:0:
141,203,6663,1,2,0:2:0:0:
80,275,6834,2,0,B|71:315|71:315|81:378,1,80,0|0,3:2|0:0,0:0:0:0:
227,212,7177,1,10,0:2:0:0:
242,326,7349,2,0,L|149:320,1,80,0|0,3:2|0:2,0:0:0:0:
309,269,7691,2,0,L|486:261,1,160,8|0,0:2|0:2,0:0:0:0:
308,16,8377,6,0,L|316:193,1,160,6|0,3:2|0:2,0:0:0:0:
411,109,8891,1,2,3:2:0:0:
220,185,9063,2,0,P|164:163|137:125,1,80,8|0,0:2|0:2,0:0:0:0:
108,57,9406,1,0,0:2:0:0:
62,200,9577,2,0,L|54:306,1,80,0|0,3:2|0:0,0:0:0:0:
12,113,9920,1,8,0:2:0:0:
108,57,10091,2,0,L|213:63,1,80,0|0,3:2|0:2,0:0:0:0:
375,183,10434,2,0,B|329:173|329:173|270:192|270:192|193:181,1,160,10|0,0:2|0:2,0:0:0:0:
472,179,10949,2,0,L|499:178,1,20,0|0,3:2|0:0,0:0:0:0:
470,199,11034,2,0,L|497:198,1,20,0|0,3:2|3:2,0:0:0:0:
468,212,11120,6,0,L|457:375,1,160,6|0,3:2|0:2,0:0:0:0:
374,280,11634,1,2,3:2:0:0:
349,77,11806,2,0,P|330:42|296:21,1,80,8|0,0:2|0:2,0:0:0:0:
265,105,12149,1,2,0:2:0:0:
432,128,12320,2,0,L|423:244,1,80,0|0,3:2|0:0,0:0:0:0:
290,323,12663,1,10,0:2:0:0:
235,261,12834,2,0,P|288:241|339:256,1,80,0|0,3:2|0:2,0:0:0:0:
472,307,13177,2,0,L|360:309,1,80,8|0,0:2|0:2,0:0:0:0:
226,351,13520,2,0,L|338:353,1,80,2|2,0:0|0:0,0:0:0:0:
226,190,13863,6,0,B|233:137|233:137|216:94|216:94|226:4,1,160,6|0,3:2|0:2,0:0:0:0:
309,85,14377,1,2,3:2:0:0:
137,172,14549,2,0,P|139:218|166:256,1,80,8|0,0:2|0:0,0:0:0:0:
226,190,14891,1,0,0:2:0:0:
399,276,15063,2,0,L|225:276,1,160,2|8,3:2|0:2,0:0:0:0:
57,333,15577,2,0,L|65:237,1,80,2|0,3:2|0:2,0:0:0:0:
29,121,15920,6,0,P|103:123|127:146,1,80,8|2,0:2|0:2,2:0:0:0:
120,129,16177,2,0,P|194:127|218:104,1,80,0|0,3:2|0:0,2:0:0:0:
211,122,16434,2,0,P|256:123|270:137,1,40,0|0,3:2|0:0,2:0:0:0:
403,111,16606,6,0,B|361:94|331:101|313:132|281:139|227:110,1,160,6|0,3:2|0:2,0:0:0:0:
284,40,17120,1,2,3:2:0:0:
369,194,17291,2,0,L|367:305,1,80,8|0,0:2|0:2,0:0:0:0:
305,343,17634,1,2,0:2:0:0:
184,250,17806,2,0,L|285:254,1,80,0|0,3:2|0:0,0:0:0:0:
401,366,18149,1,10,0:2:0:0:
305,343,18320,2,0,L|204:347,1,80,0|0,3:2|0:2,0:0:0:0:
88,258,18663,2,0,P|99:203|201:163,1,160,8|0,0:2|0:2,0:0:0:0:
491,105,19349,6,0,B|434:93|434:93|397:112|397:112|312:100,1,160,6|0,3:2|0:2,0:0:0:0:
383,22,19863,1,2,3:2:0:0:
446,180,20034,2,0,L|446:287,1,80,8|0,0:2|0:2,0:0:0:0:
327,360,20377,1,0,0:2:0:0:
271,283,20549,2,0,P|306:266|346:270,1,80,0|2,3:2|0:0,0:0:0:0:
506,327,20891,1,8,0:2:0:0:
406,363,21063,2,0,L|298:358,1,80,0|0,3:2|0:2,0:0:0:0:
111,286,21406,2,0,L|275:283,1,160,10|0,0:2|0:2,0:0:0:0:
232,375,21920,1,0,3:2:0:0:
105,176,22091,6,0,P|117:114|212:75,1,160,6|0,3:2|0:2,0:0:0:0:
194,162,22606,1,2,3:2:0:0:
50,254,22777,2,0,P|14:210|9:174,1,80,8|0,0:2|0:2,0:0:0:0:
105,176,23120,1,2,0:2:0:0:
164,249,23291,2,0,L|260:247,1,80,0|0,3:2|0:0,0:0:0:0:
391,153,23634,1,10,0:2:0:0:
287,78,23806,2,0,L|289:174,1,80,0|0,3:2|0:2,0:0:0:0:
462,295,24149,2,0,L|463:215,1,80,8|0,0:2|0:2,0:0:0:0:
360,308,24491,2,0,P|347:371|370:414,1,80,2|2,0:0|0:2,0:0:0:0:
102,336,24834,6,0,L|290:339,1,160,6|0,3:2|0:2,0:0:0:0:
173,248,25349,1,2,3:2:0:0:
37,252,25520,6,0,P|27:204|47:154,1,80,8|0,0:2|0:2,0:0:0:0:
53,168,25777,2,0,P|63:120|43:70,1,80,2|0,3:2|0:0,0:0:0:0:
44,74,26034,2,0,P|37:41|50:8,1,40,2|0,3:2|0:0,0:0:0:0:
159,85,26206,6,0,P|149:133|169:183,1,80,2|8,3:2|0:2,0:0:0:0:
170,170,26463,2,0,P|180:218|160:268,1,80,2|0,3:2|0:0,0:0:0:0:
166,263,26720,2,0,P|159:295|172:328,1,40,2|0,3:2|0:0,0:0:0:0:
88,210,26891,5,10,0:2:0:0:
258,281,27063,1,0,3:2:0:0:
88,354,27234,1,2,3:2:0:0:
172,247,27406,1,2,3:2:0:0:
185,384,27577,5,6,3:2:0:0:
289,361,27749,2,0,L|373:365,1,60.0000022888184,2|0,0:2|0:0,0:0:0:0:
466,294,28091,2,0,L|382:298,1,60.0000022888184,0|8,0:0|0:2,0:0:0:0:
331,227,28434,2,0,P|331:178|345:153,1,60.0000022888184,2|0,0:2|0:2,0:0:0:0:
459,100,28777,2,0,P|466:128|408:203,1,120.000004577637,2|10,3:2|0:2,0:0:0:0:
260,126,29291,2,0,L|394:129,1,120.000004577637,2|8,3:2|0:2,0:0:0:0:
379,128,29977,1,2,0:2:0:0:
317,49,30149,1,0,0:2:0:0:
255,208,30320,5,2,3:2:0:0:
222,107,30491,2,0,P|185:99|143:114,1,60.0000022888184,2|0,0:2|0:2,0:0:0:0:
54,176,30834,2,0,P|91:184|133:169,1,60.0000022888184,2|8,3:2|0:2,0:0:0:0:
163,268,31177,2,0,L|158:355,1,60.0000022888184,2|0,0:2|0:2,0:0:0:0:
258,267,31520,2,0,L|254:207,1,60.0000022888184,2|0,3:2|0:0,0:0:0:0:
333,330,31863,1,10,0:2:0:0:
370,234,32034,2,0,L|444:237,1,60.0000022888184,0|2,3:2|0:2,0:0:0:0:
485,327,32377,1,8,0:2:0:0:
370,234,32549,2,0,P|357:173|399:110,1,120.000004577637,2|2,3:2|3:2,0:0:0:0:
397,104,33063,6,0,L|323:99,1,60.0000022888184,2|2,3:2|0:2,0:0:0:0:
208,45,33406,2,0,L|282:40,1,60.0000022888184,2|0,0:2|3:2,0:0:0:0:
397,104,33749,1,8,0:2:0:0:
397,104,34091,1,2,0:2:0:0:
390,223,34263,2,0,L|397:86,1,120.000004577637,2|8,3:2|0:2,0:0:0:0:
481,236,34777,2,0,P|462:287|435:301,1,60.0000022888184,2|0,3:2|0:2,0:0:0:0:
308,178,35120,1,8,0:2:0:0:
308,178,35463,1,2,0:2:0:0:
241,261,35634,1,2,3:2:0:0:
232,269,35720,1,0,0:0:0:0:
221,274,35806,6,0,P|155:292|104:266,1,120.000004577637,0|2,3:2|0:2,0:0:0:0:
167,204,36320,1,0,3:2:0:0:
312,303,36491,2,0,L|399:304,2,60.0000022888184,8|0|2,0:2|0:0|0:2,0:0:0:0:
400,208,37006,1,0,3:2:0:0:
475,280,37177,1,2,0:2:0:0:
495,187,37349,1,8,0:2:0:0:
371,303,37520,1,0,3:2:0:0:
400,208,37691,1,0,0:2:0:0:
281,324,37863,1,10,0:2:0:0:
475,280,38034,1,0,3:2:0:0:
328,132,38206,1,10,0:2:0:0:
371,303,38377,1,2,3:2:0:0:
328,132,38549,6,0,L|246:132,2,60.0000022888184,6|2|0,3:2|0:2|0:2,0:0:0:0:
249,47,39063,2,0,P|204:73|193:92,1,60.0000022888184,2|8,3:2|0:2,0:0:0:0:
174,164,39406,2,0,P|129:138|118:119,1,60.0000022888184,2|0,0:2|0:2,0:0:0:0:
244,228,39749,2,0,L|239:361,1,120.000004577637,2|10,3:2|0:2,0:0:0:0:
73,270,40263,2,0,P|119:245|147:248,1,60.0000022888184,2|0,3:2|0:0,0:0:0:0:
136,331,40606,1,8,0:2:0:0:
136,331,40949,1,2,0:2:0:0:
73,270,41120,1,2,3:2:0:0:
155,156,41291,6,0,L|150:243,1,60.0000022888184,2|2,3:2|0:2,0:0:0:0:
72,122,41634,1,2,0:2:0:0:
213,89,41806,2,0,P|238:121|238:157,1,60.0000022888184,2|8,3:2|0:2,0:0:0:0:
134,59,42149,2,0,P|146:32|170:14,1,60.0000022888184,2|0,0:2|0:2,0:0:0:0:
325,23,42491,2,0,L|250:24,1,60.0000022888184,2|0,3:2|0:0,0:0:0:0:
335,104,42834,2,0,L|410:105,1,60.0000022888184,10|0,0:2|3:2,0:0:0:0:
485,3,43177,2,0,P|454:19|434:50,1,60.0000022888184,2|8,0:2|0:2,0:0:0:0:
376,214,43520,2,0,P|366:160|410:92,1,120.000004577637,2|2,3:2|3:2,0:0:0:0:
461,185,44034,5,2,3:2:0:0:
497,106,44206,1,2,0:2:0:0:
461,185,44377,2,0,P|467:229|457:265,1,60.0000022888184,2|0,0:2|3:2,0:0:0:0:
394,355,44720,1,8,0:2:0:0:
394,355,45063,1,2,0:2:0:0:
303,332,45234,2,0,L|168:330,1,120.000004577637,2|8,3:2|0:2,0:0:0:0:
74,330,45749,2,0,P|81:284|100:256,1,60.0000022888184,2|0,3:2|0:2,0:0:0:0:
154,187,46091,1,8,0:2:0:0:
154,187,46434,1,2,0:2:0:0:
63,57,46606,1,2,0:2:0:0:
58,68,46691,1,0,0:0:0:0:
57,80,46777,6,0,P|56:124|71:152,1,60.0000022888184,0|0,3:2|0:0,0:0:0:0:
154,187,47120,1,2,0:2:0:0:
238,104,47291,2,0,L|160:107,1,60.0000022888184,2|8,3:2|0:2,0:0:0:0:
285,191,47634,2,0,L|363:194,1,60.0000022888184,2|0,0:2|0:2,0:0:0:0:
492,147,47977,2,0,L|414:150,1,60.0000022888184,2|0,3:2|0:2,0:0:0:0:
344,83,48320,1,8,0:2:0:0:
431,243,48491,1,2,3:2:0:0:
431,243,48834,1,8,0:2:0:0:
344,83,49006,1,2,3:2:0:0:
492,147,49177,1,8,0:2:0:0:
344,193,49349,1,0,3:2:0:0:
431,243,49520,6,0,L|429:298,3,40,6|0|0|2,3:2|0:2|0:2|0:2,0:0:0:0:
338,354,50206,2,0,L|336:314,1,40,0|0,0:2|0:2,0:0:0:0:
261,264,50549,2,0,L|221:262,2,40,2|2|2,0:2|0:2|0:2,0:0:0:0:
155,321,51063,2,0,P|136:288|135:269,1,40,2|0,0:2|0:2,0:0:0:0:
36,226,51406,2,0,P|74:226|91:234,1,40,2|0,0:2|0:2,0:0:0:0:
185,163,51749,2,0,P|178:181|165:197,1,40,2|0,0:2|0:2,0:0:0:0:
91,125,52091,1,2,0:2:0:0:
218,80,52263,6,0,P|247:99|256:118,3,40,0|2|0|2,0:2|0:2|0:0|0:2,0:0:0:0:
329,160,52949,2,0,P|300:179|291:198,1,40,2|0,0:2|0:2,0:0:0:0:
251,259,53291,2,0,P|280:278|289:297,1,40,2|2,0:2|0:2,0:0:0:0:
329,364,53634,1,2,0:2:0:0:
239,353,53806,1,2,0:2:0:0:
370,266,53977,1,2,0:2:0:0:
450,366,54149,2,0,L|399:367,1,40,2|0,0:2|0:2,0:0:0:0:
473,267,54491,2,0,L|523:270,2,40,2|0|0,0:2|0:2|0:2,0:0:0:0:
322,188,55006,6,0,P|293:209|284:223,3,40,2|0|0|2,0:2|0:2|0:2|0:2,0:0:0:0:
264,302,55691,2,0,L|207:299,1,40,0|2,0:2|0:2,0:0:0:0:
179,215,56034,1,2,0:2:0:0:
106,277,56206,1,2,0:2:0:0:
69,187,56377,2,0,L|72:129,1,40,2|0,0:2|0:2,0:0:0:0:
146,75,56720,1,2,0:2:0:0:
176,175,56891,2,0,L|178:214,1,40,2|0,0:2|0:2,0:0:0:0:
252,104,57234,2,0,L|256:50,2,40,2|0|0,0:2|0:2|0:2,0:0:0:0:
343,148,57749,6,0,P|320:181|308:187,2,40,2|0|2,0:2|0:2|0:2,0:0:0:0:
363,66,58263,2,0,P|399:82|410:94,2,40,2|2|2,0:2|0:2|0:2,0:0:0:0:
418,196,58777,2,0,L|412:293,2,80,2|0|2,0:2|0:2|0:2,0:0:0:0:
360,351,59977,5,8,0:2:0:0:
321,269,60149,1,2,0:2:0:0:
413,275,60320,1,2,0:2:0:0:
252,331,60491,6,0,L|180:328,1,60.0000022888184,2|0,3:2|0:2,0:0:0:0:
106,326,60834,1,2,3:2:0:0:
93,244,61006,2,0,P|63:240|33:242,2,60.0000022888184,2|8|0,0:2|0:2|0:0,0:0:0:0:
210,242,61520,1,2,3:2:0:0:
90,160,61691,2,0,P|95:114|164:71,1,120.000004577637,2|8,3:2|0:2,0:0:0:0:
296,151,62206,2,0,L|167:152,1,120.000004577637,2|8,3:2|0:2,0:0:0:0:
176,151,62891,1,2,0:2:0:0:
239,67,63063,1,2,3:2:0:0:
249,275,63234,5,2,3:2:0:0:
239,44,63406,1,2,3:2:0:0:
323,78,65463,5,2,3:2:0:0:
168,49,65634,2,0,B|200:83|200:83|243:82,1,90.0000034332277,10|0,0:2|0:0,0:0:0:0:
243,82,65977,6,0,P|202:54|92:127,1,191.999994140625,6|10,3:2|0:2,0:0:0:0:
123,207,66491,1,2,0:2:0:0:
179,132,66663,1,2,0:2:0:0:
67,278,66834,1,2,3:2:0:0:
216,220,67006,1,10,0:2:0:0:
105,357,67177,2,0,P|55:365|1:341,1,95.9999970703126,2|0,0:2|0:0,0:0:0:0:
67,278,67520,1,0,3:2:0:0:
202,358,67691,1,10,0:2:0:0:
123,207,67863,1,2,0:2:0:0:
153,286,68034,1,2,0:2:0:0:
179,132,68206,1,2,3:2:0:0:
216,220,68377,1,10,0:2:0:0:
93,119,68549,1,2,0:2:0:0:
216,220,68720,6,0,P|277:212|308:180,1,95.9999970703126,2|0,3:2|0:2,0:0:0:0:
358,121,69063,1,10,0:2:0:0:
326,286,69234,2,0,L|332:381,1,95.9999970703126,2|2,0:2|0:2,0:0:0:0:
427,281,69577,2,0,L|433:185,1,95.9999970703126,2|10,3:2|0:2,0:0:0:0:
332,40,69920,2,0,P|282:73|273:125,1,95.9999970703126,2|0,0:2|0:0,0:0:0:0:
358,121,70263,1,2,3:2:0:0:
186,75,70434,2,0,L|58:85,1,95.9999970703126,8|2,0:2|0:2,0:0:0:0:
139,0,70777,1,2,0:2:0:0:
38,159,70949,2,0,L|70:169,1,23.9999992675781,0|0,3:2|3:2,0:0:0:0:
22,181,71034,2,0,L|56:183,1,23.9999992675781,0|0,3:2|3:2,0:0:0:0:
17,204,71120,6,0,P|19:274|91:317,1,143.999995605469,12|0,3:2|0:0,0:0:0:0:
229,294,71463,6,0,P|133:260|69:336,1,191.999994140625,6|10,3:2|0:2,0:0:0:0:
156,344,71977,1,2,0:2:0:0:
67,335,72149,1,2,0:2:0:0:
239,372,72320,1,2,3:2:0:0:
245,204,72491,1,10,0:2:0:0:
310,279,72663,2,0,L|420:279,1,95.9999970703126,0|0,0:2|0:0,0:0:0:0:
453,197,73006,1,0,3:2:0:0:
325,112,73177,1,10,0:2:0:0:
362,195,73349,1,2,0:2:0:0:
416,120,73520,1,2,0:2:0:0:
234,103,73691,1,2,3:2:0:0:
362,195,73863,1,10,0:2:0:0:
325,112,74034,1,2,0:2:0:0:
175,179,74206,6,0,P|142:134|146:69,1,95.9999970703126,2|0,3:2|0:2,0:0:0:0:
234,103,74549,1,10,0:2:0:0:
213,273,74720,2,0,P|164:282|108:248,1,95.9999970703126,2|2,0:2|0:2,0:0:0:0:
271,186,75063,2,0,P|320:177|376:211,1,95.9999970703126,2|10,3:2|0:2,0:0:0:0:
427,269,75406,1,2,3:2:0:0:
328,90,75577,5,8,0:2:0:0:
309,271,75749,1,2,3:2:0:0:
306,289,75834,2,0,P|275:343|225:359,1,95.9999970703126,8|0,0:2|3:2,0:0:0:0:
173,298,76091,2,0,P|195:290|213:274,1,47.9999985351563,10|0,3:2|0:0,0:0:0:0:
271,186,76263,2,0,L|270:141,2,23.9999992675781,0|0|0,3:2|3:2|3:2,0:0:0:0:
186,128,76434,1,2,3:2:0:0:
207,96,76519,1,0,3:2:0:0:
239,76,76605,1,8,3:2:0:0:
277,71,76691,1,0,3:2:0:0:
314,81,76776,1,2,3:2:0:0:
343,106,76862,1,0,3:2:0:0:
351,143,76949,6,0,P|298:217|207:207,1,191.999994140625,6|10,3:2|0:2,0:0:0:0:
260,122,77463,1,2,0:2:0:0:
207,207,77634,1,2,0:2:0:0:
351,142,77806,1,2,3:2:0:0:
190,47,77977,1,10,0:2:0:0:
151,135,78149,2,0,P|109:111|88:69,1,95.9999970703126,2|0,0:2|0:0,0:0:0:0:
190,47,78491,1,0,3:2:0:0:
105,225,78663,1,10,0:2:0:0:
260,122,78834,1,2,0:2:0:0:
151,135,79006,1,2,0:2:0:0:
216,219,79177,1,2,3:2:0:0:
190,47,79349,1,10,0:2:0:0:
151,135,79520,1,2,0:2:0:0:
343,169,79691,6,0,P|357:123|346:77,1,95.9999970703126,2|0,3:2|0:2,0:0:0:0:
260,122,80034,1,10,0:2:0:0:
271,219,80206,2,0,P|325:262|370:264,1,95.9999970703126,2|2,0:2|0:2,0:0:0:0:
260,122,80549,2,0,P|213:131|178:163,1,95.9999970703126,2|10,3:2|0:2,0:0:0:0:
178,351,80891,2,0,B|183:288|183:288|167:235|167:235|181:144,1,191.999994140625,2|0,0:2|3:2,0:0:0:0:
258,233,81406,1,10,0:2:0:0:
92,113,81577,1,2,0:2:0:0:
89,210,81749,1,2,0:2:0:0:
260,122,81920,1,2,3:2:0:0:
92,113,82091,1,10,0:2:0:0:
262,222,82263,2,0,L|259:256,1,23.9999992675781,0|0,3:2|3:0,0:0:0:0:
284,224,82349,2,0,L|291:258,1,23.9999992675781,0|0,3:2|3:0,0:0:0:0:
309,222,82434,6,0,P|377:196|401:151,1,95.9999970703126,14|0,3:2|0:2,0:0:0:0:
390,85,82777,1,10,0:2:0:0:
180,208,82949,2,0,P|133:197|99:165,1,95.9999970703126,2|8,0:2|0:2,0:0:0:0:
98,75,83291,1,0,0:2:0:0:
262,151,83463,1,10,0:2:0:0:
98,264,83634,1,2,0:2:0:0:
183,111,83806,1,8,0:2:0:0:
267,253,83977,1,2,3:2:0:0:
99,165,84149,1,8,0:2:0:0:
262,151,84320,1,2,3:2:0:0:
183,302,84491,1,8,0:2:0:0:
99,165,84663,1,0,3:2:0:0:
267,253,84834,1,8,0:2:0:0:
183,111,85006,1,0,3:2:0:0:
182,96,85091,1,0,3:2:0:0:
182,81,85177,5,14,3:2:0:0:
362,207,85349,1,8,3:2:0:0:
274,31,85520,1,10,3:2:0:0:
172,209,85691,1,10,3:2:0:0:
369,97,85863,1,8,3:2:0:0:
269,263,86034,1,10,3:2:0:0:
460,164,86206,1,8,3:2:0:0:
271,149,86377,1,10,3:2:0:0:
363,302,86549,5,10,0:2:0:0:
396,307,86634,1,0,3:2:0:0:
429,302,86720,1,0,3:2:0:0:
459,289,86806,1,0,3:2:0:0:
483,259,86891,2,0,P|495:233|498:206,1,47.9999985351563,10|0,0:2|3:2,0:0:0:0:
494,70,87063,1,0,3:0:0:0:
460,64,87148,1,0,3:0:0:0:
427,73,87234,2,0,P|400:82|378:99,1,47.9999985351563,10|0,0:2|3:2,0:0:0:0:
271,149,87406,2,0,P|297:158|319:175,1,47.9999985351563,0|0,3:2|3:2,0:0:0:0:
382,260,87577,6,0,P|336:277|228:230,1,143.999995605469,14|0,3:2|0:0,0:0:0:0:
247,251,87920,6,0,P|196:235|101:334,1,191.999994140625,6|10,3:2|0:2,0:0:0:0:
193,327,88434,1,2,0:2:0:0:
56,218,88606,1,2,0:2:0:0:
3,306,88777,1,2,3:2:0:0:
109,137,88949,6,0,B|71:117|35:129|35:129|86:77|139:130|196:101,1,239.999992675781,14|0,0:2|0:0,0:0:0:0:
223,95,89463,1,0,3:2:0:0:
152,217,89634,1,10,0:2:0:0:
140,27,89806,1,2,0:2:0:0:
246,191,89977,1,2,0:2:0:0:
232,15,90149,1,2,3:2:0:0:
109,137,90320,1,10,0:2:0:0:
310,120,90491,1,2,0:2:0:0:
155,312,90663,6,0,L|150:184,1,95.9999970703126,6|0,3:2|0:0,0:0:0:0:
252,291,91006,1,10,0:2:0:0:
220,384,91177,1,2,0:2:0:0:
64,265,91349,1,2,0:2:0:0:
246,191,91520,1,2,3:2:0:0:
338,330,91691,6,0,B|385:356|422:352|427:322|471:319|509:330|509:330|471:321|431:272,1,239.999992675781,14|0,0:2|0:0,0:0:0:0:
440,267,92206,1,0,3:2:0:0:
252,291,92377,1,10,0:2:0:0:
341,180,92549,1,2,0:2:0:0:
338,330,92720,1,2,0:0:0:0:
433,180,92891,1,2,0:0:0:0:
246,181,93063,1,10,0:2:0:0:
357,58,93234,2,0,L|402:54,1,23.9999992675781,0|0,3:2|3:2,0:0:0:0:
359,44,93320,2,0,L|404:40,1,23.9999992675781,0|0,3:2|3:2,0:0:0:0:
346,34,93406,6,0,P|281:26|241:46,1,95.9999970703126,6|2,3:2|0:2,0:0:0:0:
96,104,93749,2,0,P|161:112|201:92,1,95.9999970703126,8|2,3:2|0:2,0:0:0:0:
48,24,94091,2,0,P|5:68|3:123,1,95.9999970703126,0|2,3:2|0:2,0:0:0:0:
96,296,94434,6,0,L|96:91,1,191.999994140625,12|0,3:2|3:2,0:0:0:0:
7,198,94949,1,2,0:2:0:0:
186,245,95120,2,0,P|258:240|298:204,1,95.9999970703126,8|2,3:2|0:2,0:0:0:0:
213,154,95463,1,0,3:2:0:0:
183,349,95634,1,2,0:2:0:0:
97,264,95806,2,0,L|96:152,1,95.9999970703126,8|2,3:2|0:2,0:0:0:0:
274,298,96149,5,4,3:2:0:0:
188,143,96320,1,2,3:2:0:0:
183,349,96491,1,8,3:2:0:0:
271,197,96663,1,2,3:2:0:0:
97,197,96834,5,0,3:2:0:0:
274,298,97006,1,2,3:2:0:0:
100,102,97177,1,8,3:2:0:0:
96,296,97349,1,2,3:2:0:0:
271,197,97520,5,0,3:2:0:0:
271,197,97863,6,0,B|408:194|408:194|337:225,1,200,0|0,0:2|0:0,0:0:0:0:
333,230,98377,1,0,3:2:0:0:
189,132,98549,1,8,0:2:0:0:
167,118,98891,5,4,3:2:0:0:
